Containment S01E13 HDTV x264-LOL[ettv] | The Corner | Arrow HDTV 720p AC3 5.1

Скачать через торрент [VIDEO] Кащей Бессмертный бесплатно русская версия torrent активатор

Статистика раздачи
Размер:  551 MB   |    Зарегистрирован:  1 год 2 месяца   |    .torrent скачан:  10 раз   |   
Раздают:  1  
   
загрузка...
 
Автор Сообщение

Galfimbul

avatar Galfimbul


Кащей Бессмертный (Колоризированная версия)

Год выпуска: 1944
Страна: СССР
Жанр: сказка
Продолжительность: 01:03:22
Перевод: не требуется
Cубтитры: нет
Режиссер: Александр Роу
В ролях: Сергей Столяров, Александр Ширшов, Галина Григорьева, Георгий Милляр, Иван Рыжов, Сергей Юрцев, Сергей Троицкий, Лев Кровицкий, Сергей Филиппов, Пётр Галаджев, Иван Бобров, Эммануил Геллер .
Описание: Эпическая сказка, снятая в годы Второй Мировой войны. Русские богатыри Никита Кожемяка и Булат Балагур спасают землю русскую от вражьих полчищ Кащея Бессмертного и освобождают красавицу Марью Моревну.
Релиз группы
Качество: SATRip / рип с DVB [Колоризированная версия]
Формат: MP4
Видео кодек: H.264
Аудио кодек: AAC
Видео: 492x360 AR:1.37 1080 kbps 25 fps
Аудио: 2ch 48 kHz 128 kbps
avs [info]: 492x360p 1:1 @ 25/1 fps (cfr)
x264 [info]: using SAR=1/1
x264 [info]: using cpu capabilities: MMX2 SSE2Fast SSSE3 SSE4.2 AVX FMA3 AVX2 LZCNT BMI2
x264 [info]: profile High, level 4.1

x264 [info]: frame I:817 Avg QP:13.46 size: 30801
x264 [info]: frame P:26914 Avg QP:16.23 size: 10366
x264 [info]: frame B:67319 Avg QP:18.65 size: 3104
x264 [info]: consecutive B-frames: 3.9% 5.4% 8.0% 71.2% 7.0% 3.6% 0.9%
x264 [info]: mb I I16..4: 5.4% 68.2% 26.4%
x264 [info]: mb P I16..4: 1.1% 13.4% 2.4% P16..4: 28.0% 29.4% 16.1% 3.3% 0.5% skip: 5.9%
x264 [info]: mb B I16..4: 0.2% 3.2% 0.5% B16..8: 23.5% 16.8% 3.8% direct: 6.9% skip:45.1% L0:33.3% L1:42.5% BI:24.2%
x264 [info]: 8x8 transform intra:79.1% inter:50.1%
x264 [info]: direct mvs spatial:98.8% temporal:1.2%
x264 [info]: coded y,uvDC,uvAC intra: 85.8% 70.5% 54.5% inter: 29.7% 20.8% 11.0%
x264 [info]: i16 v,h,dc,p: 38% 22% 4% 36%
x264 [info]: i8 v,h,dc,ddl,ddr,vr,hd,vl,hu: 15% 12% 11% 7% 10% 11% 10% 11% 13%
x264 [info]: i4 v,h,dc,ddl,ddr,vr,hd,vl,hu: 18% 12% 10% 6% 12% 13% 10% 9% 10%
x264 [info]: i8c dc,h,v,p: 31% 35% 22% 12%
x264 [info]: Weighted P-Frames: Y:22.6% UV:3.9%
x264 [info]: ref P L0: 59.1% 13.0% 14.0% 4.9% 3.4% 2.6% 2.4% 0.5% 0.0%
x264 [info]: ref B L0: 87.8% 7.2% 2.5% 1.3% 0.8% 0.4%
x264 [info]: ref B L1: 98.1% 1.9%
x264 [info]: kb/s:1079.70

encoded 95050 frames, 30.69 fps, 1079.70 kb/s
GeneralComplete name : D:\Torrents\Кащей Бессмертный.(Колоризированная версия).1944.SATRip.x264.640x.rip by Frost O.S.mp4Format : MPEG-4Format profile : Base MediaCodec ID : isom (isom/avc1)File size : 551 MiBDuration : 1 h 3 minOverall bit rate mode : VariableOverall bit rate : 1 216 kb/sMovie name : Кащей Бессмертный (Колоризированная версия) 1944 SATRip x264 640x rip by Frost O SDirector : Александр РоуActor : Сергей Столяров / Александр Ширшов / Галина Григорьева / Георгий Милляр / Иван Рыжов / Сергей Юрцев / Сергей Троицкий / Лев Кровицкий / Сергей Филиппов / Пётр Галаджев / Иван Бобров / Эммануил ГеллерContentType : Short FilmEncoded date : UTC 2017-04-29 18:58:19Tagged date : UTC 2017-04-29 18:59:13Writing application : MkvToMp4 version: 0.224 (x64)Cover : YesComment : rip by Frost O.SLongDescription : Эпическая сказка, снятая в годы Второй Мировой войны. Русские богатыри Никита Кожемяка и Булат Балагур спасают землю русскую от вражьих полчищ Кащея Бессмертного и освобождают красавицу Марью Моревну.

VideoID : 1Format : AVCFormat/Info : Advanced Video CodecFormat profile : [email protected] settings, CABAC : YesFormat settings, ReFrames : 7 framesCodec ID : avc1Codec ID/Info : Advanced Video CodingDuration : 1 h 3 minBit rate : 1 080 kb/sMaximum bit rate : 4 117 kb/sWidth : 492 pixelsHeight : 360 pixelsDisplay aspect ratio : 4:3Frame rate mode : ConstantFrame rate : 25.000 FPSColor space : YUVChroma subsampling : 4:2:0Bit depth : 8 bitsScan type : ProgressiveBits/(Pixel*Frame) : 0.244Stream size : 489 MiB (89%)Writing library : x264 core 148 r2744 b97ae06Encoding settings : cabac=1 / ref=7 / deblock=1:-1:-1 / analyse=0x3:0x133 / me=umh / subme=11 / psy=1 / psy_rd=1.00:0.00 / mixed_ref=1 / me_range=48 / chroma_me=1 / trellis=2 / 8x8dct=1 / cqm=0 / deadzone=21,11 / fast_pskip=0 / chroma_qp_offset=-2 / threads=6 / lookahead_threads=1 / sliced_threads=0 / nr=0 / decimate=0 / interlaced=0 / bluray_compat=0 / constrained_intra=0 / bframes=6 / b_pyramid=2 / b_adapt=2 / b_bias=0 / direct=3 / weightb=1 / open_gop=0 / weightp=2 / keyint=250 / keyint_min=25 / scenecut=40 / intra_refresh=0 / rc=2pass / mbtree=0 / bitrate=1080 / ratetol=1.0 / qcomp=0.70 / qpmin=0 / qpmax=69 / qpstep=4 / cplxblur=20.0 / qblur=0.5 / ip_ratio=1.40 / pb_ratio=1.30 / aq=1:1.00Language : EnglishEncoded date : UTC 2017-04-29 18:58:19Tagged date : UTC 2017-04-29 18:58:40Color range : LimitedColor primaries : BT.601 PALTransfer characteristics : BT.470 System B, BT.470 System GMatrix coefficients : BT.601

AudioID : 2Format : AACFormat/Info : Advanced Audio CodecFormat profile : LCCodec ID : 40Duration : 1 h 3 minBit rate mode : VariableBit rate : 128 kb/sMaximum bit rate : 131 kb/sChannel(s) : 2 channelsChannel positions : Front: L RSampling rate : 48.0 kHzFrame rate : 46.875 FPS (1024 spf)Compression mode : LossyStream size : 58.0 MiB (11%)Language : RussianDefault : YesAlternate group : 1Encoded date : UTC 2017-04-29 18:58:33Tagged date : UTC 2017-04-29 18:58:40


Трекер:  [ 29-Апр-2017 21:00 ]

  

Скачать .torrent

Размер .torrent файла 11 KB


Размер: 551 MB
Хэш (hash) релиза: c11fc34754e97f178aadb001563acad55701a57d

Торренты, похожие на [VIDEO] Кащей Бессмертный скачать торрент

Форум Название Автор Размер S L Добавлен
Видео (Фильмы/Клипы) ·· [VIDEO] Кащей Бессмертный (Александр Роу) [1944, сказка, SATRip] [MP4, 640x] [Оригинальная версия] Galfimbul 580460280554 MB 0 0 1493313178

20:12

27-Апр-17

Еще никто не оставлял запись к записи скачать торрент [VIDEO] Кащей Бессмертный . Будь первым!

!Обратная связь