[Аудио] Бизнес | film de Frank Darabont | Sổ Tay Nuôi Trồng Người Ngoài Hành Tinh

Скачать через торрент музыку Гангрейв Gungrave бесплатно без регистрации torrent

Статистика раздачи
Размер:  908 MB   |    Зарегистрирован:  1 год 2 месяца   |    .torrent скачан:  13 раз   |   
Раздают:  1  
   
загрузка...
 
Автор Сообщение

Galfimbul

avatar Galfimbul


Гангрейв / Gungrave

Год выпуска: 2003-2004 гг.
Страна: Япония/США
Аудио кодек: FLAC (*.flac)
Тип рипа: image+.cue
Битрейт аудио: lossless
Продолжительность: 2:35:06
Наличие сканов в содержимом раздачи: нет
Композитор: Scoobie Do, Taijiro Matsuki
Дата выпуска: 12.11.2003
Каталог: VICL-35579
Продолжительность: 19:25
Описание: Сингл японской группы Scoobie Do включает заключительную тему ТВ-сериала "Гангрейв" ("Gungrave") "Akaneiro ga Moeru Toki".
Треклист:
01. Kaze no Kobito
02. 3rd Season
03. Akaneiro ga Moeru Toki
04. Namorada no Vento (FREETEMPO echoed mix)
<div class="sp-wrap">
<div class="sp-head folded">Отчёт EAC</div>
<div class="sp-body">

Exact Audio Copy V1.3 from 2. September 2016

EAC extraction logfile from 18. April 2017, 17:23

Scoobie Do / Kaze no Koibito/Akaneiro ga Moeru Toki

Used drive : SlimtypeDVD A DS8A5SH Adapter: 1 ID: 0

Read mode : SecureUtilize accurate stream : YesDefeat audio cache : YesMake use of C2 pointers : No

Read offset correction : 6Overread into Lead-In and Lead-Out : NoFill up missing offset samples with silence : YesDelete leading and trailing silent blocks : NoNull samples used in CRC calculations : YesUsed interface : Native Win32 interface for Win NT & 2000

Used output format : User Defined EncoderSelected bitrate : 128 kBit/sQuality : HighAdd ID3 tag : NoCommand line compressor : E:\Program Files (x86)\Exact Audio Copy\Flac\flac-1.3.2-win\win64\flac.exeAdditional command line options : -V -8 -T "Date=%year%" -T "Genre=%genre%" %source%

TOC of the extracted CD

Track | Start | Length | Start sector | End sector --------------------------------------------------------- 1 | 0:00.00 | 4:31.15 | 0 | 20339 2 | 4:31.15 | 3:27.13 | 20340 | 35877 3 | 7:58.28 | 5:29.02 | 35878 | 60554 4 | 13:27.30 | 5:57.35 | 60555 | 87364

Range status and errors

Selected range

Filename E:\Рабочий стол\Scoobie Do - Kaze no Koibito, Akaneiro ga Moeru Toki.wav

Peak level 98.8 % Extraction speed 3.4 X Range quality 100.0 % Test CRC 24E74807 Copy CRC 24E74807 Copy OK

No errors occurred

AccurateRip summary

Track 1 accurately ripped (confidence 1) [FCF1821A] (AR v2)Track 2 accurately ripped (confidence 1) [1BD9D760] (AR v2)Track 3 accurately ripped (confidence 1) [807676B6] (AR v2)Track 4 accurately ripped (confidence 1) [F02F6149] (AR v2)

All tracks accurately ripped

End of status report

---- CUETools DB Plugin V2.1.6

[CTDB TOCID: Zvnd0HJmgEj9.L9EtY0SSZnOCZQ-] foundSubmit result: Zvnd0HJmgEj9.L9EtY0SSZnOCZQ- has been confirmedTrack | CTDB Status 1 | (7/7) Accurately ripped 2 | (7/7) Accurately ripped 3 | (7/7) Accurately ripped 4 | (7/7) Accurately ripped

==== Log checksum 2B7D7C9386C4CA13EC5543EFE31D3F018B0100141E146DEEA48FFA7738D999C3 ====
-----------------------

DON'T MODIFY THIS FILE

-----------------------

PERFORMER: auCDtect Task Manager, ver. 1.6.0 RC1 build 1.6.0.1Copyright (c) 2008-2010 y-soft. All rights reservedhttp://y-soft.org

ANALYZER: auCDtect: CD records authenticity detector, version 0.8.2Copyright (c) 2004 Oleg Berngardt. All rights reserved.Copyright (c) 2004 Alexander Djourik. All rights reserved.

FILE: Scoobie Do - Kaze no Koibito, Akaneiro ga Moeru Toki.flac Size: 142622928 Hash: 6F6BC648F8320ECBE73B9C1172932D4D Accuracy: -m0 Conclusion: CDDA 100% Signature: C7DDCA0914CFF992A7E4B07DA720C4402EEBF9B9
</div>
</div>
Композитор: Tsuneo Imahori, Taijiro Matsuki
Дата выпуска: 06.05.2004
Каталог: 5237-2 (U.S. printing of VICL-61265)
Продолжительность: 1.01:47
Описание: Саундтрек ТВ-сериала "Гангрейв" ("Gungrave"). Включает вступительную инструментальную композицию "Family" (Tsuneo Imahori), закрывающую тему "Akaneiro ga moeru toki" (Scoobie Do) и музыкальное сопровождение ТВ-сериала композитора Tsune Imahori.
Треклист:
01. family
02. clue
03. do your business
04. the maverick
05. add'o guaglione
06. when?
07. the portrait of the father
08. hit the jackpot!
09. prayer to rain, song for wind
10. B-G
11. coaltar overdose
12. 16% of humidity
13. great flair
14. say, it ain't so.
15. city
16. jester's dream
17. fearful stereo
18. bitter ending
19. when the sunset turns red (TV size)
<div class="sp-wrap">
<div class="sp-head folded">Отчёт EAC</div>
<div class="sp-body">

Exact Audio Copy V1.3 from 2. September 2016

EAC extraction logfile from 31. March 2017, 17:44

Various / GUNGRAVE O.S.T. uno "righthead"

Used drive : SlimtypeDVD A DS8A5SH Adapter: 1 ID: 0

Read mode : SecureUtilize accurate stream : YesDefeat audio cache : YesMake use of C2 pointers : No

Read offset correction : 6Overread into Lead-In and Lead-Out : NoFill up missing offset samples with silence : YesDelete leading and trailing silent blocks : NoNull samples used in CRC calculations : YesUsed interface : Native Win32 interface for Win NT & 2000

Used output format : User Defined EncoderSelected bitrate : 128 kBit/sQuality : HighAdd ID3 tag : NoCommand line compressor : E:\Program Files (x86)\Exact Audio Copy\Flac\flac-1.3.2-win\win64\flac.exeAdditional command line options : -V -8 -T "Date=%year%" -T "Genre=%genre%" %source%

TOC of the extracted CD

Track | Start | Length | Start sector | End sector --------------------------------------------------------- 1 | 0:00.00 | 1:38.18 | 0 | 7367 2 | 1:38.18 | 4:11.20 | 7368 | 26212 3 | 5:49.38 | 4:19.60 | 26213 | 45697 4 | 10:09.23 | 2:58.74 | 45698 | 59121 5 | 13:08.22 | 2:21.25 | 59122 | 69721 6 | 15:29.47 | 4:14.56 | 69722 | 88827 7 | 19:44.28 | 3:17.20 | 88828 | 103622 8 | 23:01.48 | 3:15.09 | 103623 | 118256 9 | 26:16.57 | 2:37.53 | 118257 | 130084 10 | 28:54.35 | 3:52.55 | 130085 | 147539 11 | 32:47.15 | 2:59.30 | 147540 | 160994 12 | 35:46.45 | 3:04.15 | 160995 | 174809 13 | 38:50.60 | 4:25.10 | 174810 | 194694 14 | 43:15.70 | 3:11.25 | 194695 | 209044 15 | 46:27.20 | 3:57.61 | 209045 | 226880 16 | 50:25.06 | 2:22.14 | 226881 | 237544 17 | 52:47.20 | 2:49.21 | 237545 | 250240 18 | 55:36.41 | 4:38.32 | 250241 | 271122 19 | 60:14.73 | 1:32.39 | 271123 | 278061

Range status and errors

Selected range

Filename E:\Рабочий стол\Various - GUNGRAVE O.S.T. uno ''righthead''.wav

Peak level 99.0 % Extraction speed 4.7 X Range quality 100.0 % Test CRC 2B9E4D8F Copy CRC 2B9E4D8F Copy OK

No errors occurred

AccurateRip summary

Track 1 cannot be verified as accurate (confidence 3) [6D231CAC], AccurateRip returned [DF9CC473] (AR v2)Track 2 cannot be verified as accurate (confidence 3) [E168D66C], AccurateRip returned [5D66492F] (AR v2)Track 3 cannot be verified as accurate (confidence 3) [E336D944], AccurateRip returned [845390FB] (AR v2)Track 4 cannot be verified as accurate (confidence 3) [4419E426], AccurateRip returned [CB7C3215] (AR v2)Track 5 cannot be verified as accurate (confidence 3) [FC2D1D32], AccurateRip returned [4388149F] (AR v2)Track 6 cannot be verified as accurate (confidence 3) [30E73D94], AccurateRip returned [1C9531C8] (AR v2)Track 7 cannot be verified as accurate (confidence 3) [B4038D2B], AccurateRip returned [E3F7D6CB] (AR v2)Track 8 cannot be verified as accurate (confidence 3) [2F1B905A], AccurateRip returned [3734DC59] (AR v2)Track 9 cannot be verified as accurate (confidence 3) [BB515E07], AccurateRip returned [EC603CDC] (AR v2)Track 10 cannot be verified as accurate (confidence 3) [5DCEC68C], AccurateRip returned [6C8D91E2] (AR v2)Track 11 cannot be verified as accurate (confidence 3) [B584972B], AccurateRip returned [0F59908C] (AR v2)Track 12 cannot be verified as accurate (confidence 3) [86932BAF], AccurateRip returned [CE4AEB9C] (AR v2)Track 13 cannot be verified as accurate (confidence 3) [7C7385C2], AccurateRip returned [6200F9BC] (AR v2)Track 14 cannot be verified as accurate (confidence 3) [A6224944], AccurateRip returned [850C9653] (AR v2)Track 15 cannot be verified as accurate (confidence 3) [B7D78A43], AccurateRip returned [6234DE68] (AR v2)Track 16 cannot be verified as accurate (confidence 3) [1CF034B4], AccurateRip returned [9E755849] (AR v2)Track 17 cannot be verified as accurate (confidence 3) [E30F44EB], AccurateRip returned [B0B7056F] (AR v2)Track 18 cannot be verified as accurate (confidence 3) [0F66E15D], AccurateRip returned [1C5C348C] (AR v2)Track 19 cannot be verified as accurate (confidence 3) [396F5084], AccurateRip returned [47E5AE64] (AR v2)

No tracks could be verified as accurateYou may have a different pressing from the one(s) in the database

End of status report

---- CUETools DB Plugin V2.1.6

[CTDB TOCID: YtNgiceZzHeQIJz63qwPoHLytVA-] foundSubmit result: already submittedTrack | CTDB Status 1 | (6/6) Accurately ripped 2 | (6/6) Accurately ripped 3 | (6/6) Accurately ripped 4 | (6/6) Accurately ripped 5 | (6/6) Accurately ripped 6 | (6/6) Accurately ripped 7 | (6/6) Accurately ripped 8 | (6/6) Accurately ripped 9 | (6/6) Accurately ripped 10 | (6/6) Accurately ripped 11 | (6/6) Accurately ripped 12 | (6/6) Accurately ripped 13 | (6/6) Accurately ripped 14 | (6/6) Accurately ripped 15 | (6/6) Accurately ripped 16 | (6/6) Accurately ripped 17 | (6/6) Accurately ripped 18 | (6/6) Accurately ripped 19 | (6/6) Accurately ripped

==== Log checksum 92DF1597913F4538FE0E8C88EBAED3968882B2F2FE3B643F03DFB47F829EFABD ====
-----------------------

DON'T MODIFY THIS FILE

-----------------------

PERFORMER: auCDtect Task Manager, ver. 1.6.0 RC1 build 1.6.0.1Copyright (c) 2008-2010 y-soft. All rights reservedhttp://y-soft.org

ANALYZER: auCDtect: CD records authenticity detector, version 0.8.2Copyright (c) 2004 Oleg Berngardt. All rights reserved.Copyright (c) 2004 Alexander Djourik. All rights reserved.

FILE: Various - GUNGRAVE O.S.T. uno ''righthead''.flac Size: 368223723 Hash: C460CA9F512286B251CFCA2F076C2170 Accuracy: -m0 Conclusion: CDDA 99% Signature: 9F9CAE4CB5CA186084248101FF448D59EB8218BD
</div>
</div>
Композитор: Tsuneo Imahori, Taijiro Matsuki
Дата выпуска: 09.11.2004
Каталог: 5251-2 (U.S. printing of VICL-61312)
Продолжительность: 1.13:54
Описание: Саундтрек включает полную версию заключительной темы "akaneiro ga moeru toki" (Scoobie Do) и музыкальное сопровождение ТВ-сериала композитора Tsune Imahori.
Треклист:
01. Dr.none
02. I'm home
03. iron irony
04. pieta
05. gone fishing
06. blue of blue
07. highspeed underground
08. red eyes
09. silver metalic machine
10. hi-fat
11. I want to be free
12. my old friend
13. red carpet
14. calculator can not help you
15. the rotten mandarin orange
16. black sheep
17. super real
18. endless roller coaster
19. gunlock overdrive
20. divine decision
21. happy ending
22. akane iro ga moeru toki (when the sunset turns red)
<div class="sp-wrap">
<div class="sp-head folded">Отчёт EAC</div>
<div class="sp-body">

Exact Audio Copy V1.3 from 2. September 2016

EAC extraction logfile from 27. April 2017, 23:11

Various / GUNGRAVE O.S.T.2 ''lefthead''

Used drive : SlimtypeDVD A DS8A5SH Adapter: 1 ID: 0

Read mode : SecureUtilize accurate stream : YesDefeat audio cache : YesMake use of C2 pointers : No

Read offset correction : 6Overread into Lead-In and Lead-Out : NoFill up missing offset samples with silence : YesDelete leading and trailing silent blocks : NoNull samples used in CRC calculations : YesUsed interface : Native Win32 interface for Win NT & 2000

Used output format : User Defined EncoderSelected bitrate : 128 kBit/sQuality : HighAdd ID3 tag : NoCommand line compressor : E:\Program Files (x86)\Exact Audio Copy\Flac\flac-1.3.2-win\win64\flac.exeAdditional command line options : -V -8 -T "Date=%year%" -T "Genre=%genre%" %source%

TOC of the extracted CD

Track | Start | Length | Start sector | End sector --------------------------------------------------------- 1 | 0:00.00 | 3:39.46 | 0 | 16470 2 | 3:39.46 | 4:39.30 | 16471 | 37425 3 | 8:19.01 | 4:22.13 | 37426 | 57088 4 | 12:41.14 | 2:40.42 | 57089 | 69130 5 | 15:21.56 | 3:35.63 | 69131 | 85318 6 | 18:57.44 | 3:31.22 | 85319 | 101165 7 | 22:28.66 | 3:48.50 | 101166 | 118315 8 | 26:17.41 | 3:27.61 | 118316 | 133901 9 | 29:45.27 | 2:49.17 | 133902 | 146593 10 | 32:34.44 | 3:09.62 | 146594 | 160830 11 | 35:44.31 | 2:39.68 | 160831 | 172823 12 | 38:24.24 | 3:54.39 | 172824 | 190412 13 | 42:18.63 | 1:46.68 | 190413 | 198430 14 | 44:05.56 | 3:01.73 | 198431 | 212078 15 | 47:07.54 | 2:53.11 | 212079 | 225064 16 | 50:00.65 | 3:24.04 | 225065 | 240368 17 | 53:24.69 | 3:38.10 | 240369 | 256728 18 | 57:03.04 | 2:11.52 | 256729 | 266605 19 | 59:14.56 | 3:28.42 | 266606 | 282247 20 | 62:43.23 | 3:46.00 | 282248 | 299197 21 | 66:29.23 | 2:00.26 | 299198 | 308223 22 | 68:29.49 | 5:24.01 | 308224 | 332524

Range status and errors

Selected range

Filename E:\Рабочий стол\Various - GUNGRAVE O.S.T.2 ''lefthead''.wav

Peak level 98.2 % Extraction speed 5.0 X Range quality 100.0 % Test CRC B39FF970 Copy CRC B39FF970 Copy OK

No errors occurred

AccurateRip summary

Track 1 accurately ripped (confidence 5) [E937E4A2] (AR v1)Track 2 accurately ripped (confidence 5) [C7A1596F] (AR v1)Track 3 accurately ripped (confidence 5) [C2BA01C1] (AR v1)Track 4 accurately ripped (confidence 5) [853CF7BA] (AR v1)Track 5 accurately ripped (confidence 5) [7ABB6878] (AR v1)Track 6 accurately ripped (confidence 5) [6BAAD71D] (AR v1)Track 7 accurately ripped (confidence 5) [DF293991] (AR v1)Track 8 accurately ripped (confidence 5) [0A688960] (AR v1)Track 9 accurately ripped (confidence 5) [E4A799DA] (AR v1)Track 10 accurately ripped (confidence 5) [678EDACA] (AR v1)Track 11 accurately ripped (confidence 5) [59F2D04E] (AR v1)Track 12 accurately ripped (confidence 5) [FB698224] (AR v1)Track 13 accurately ripped (confidence 5) [DDA47208] (AR v1)Track 14 accurately ripped (confidence 5) [27E3F42A] (AR v1)Track 15 accurately ripped (confidence 5) [92D4529F] (AR v1)Track 16 accurately ripped (confidence 5) [C61D631D] (AR v1)Track 17 accurately ripped (confidence 5) [26D925AA] (AR v1)Track 18 accurately ripped (confidence 5) [C6B13EE2] (AR v1)Track 19 accurately ripped (confidence 5) [99D26F9F] (AR v1)Track 20 accurately ripped (confidence 5) [2D8DE98B] (AR v1)Track 21 accurately ripped (confidence 5) [C5437816] (AR v1)Track 22 accurately ripped (confidence 5) [DB847D96] (AR v1)

All tracks accurately ripped

End of status report

---- CUETools DB Plugin V2.1.6

[CTDB TOCID: uRCqBdyQzG9PL5TnfxmBAUaS9RU-] foundSubmit result: uRCqBdyQzG9PL5TnfxmBAUaS9RU- has been confirmedTrack | CTDB Status 1 | (4/4) Accurately ripped 2 | (4/4) Accurately ripped 3 | (4/4) Accurately ripped 4 | (4/4) Accurately ripped 5 | (4/4) Accurately ripped 6 | (4/4) Accurately ripped 7 | (4/4) Accurately ripped 8 | (4/4) Accurately ripped 9 | (4/4) Accurately ripped 10 | (4/4) Accurately ripped 11 | (4/4) Accurately ripped 12 | (4/4) Accurately ripped 13 | (4/4) Accurately ripped 14 | (4/4) Accurately ripped 15 | (4/4) Accurately ripped 16 | (4/4) Accurately ripped 17 | (4/4) Accurately ripped 18 | (4/4) Accurately ripped 19 | (4/4) Accurately ripped 20 | (4/4) Accurately ripped 21 | (4/4) Accurately ripped 22 | (4/4) Accurately ripped

==== Log checksum 0DF4242B69D936D3948304E26CAE902501C747FE24225113FB2782D2DF60A382 ====
-----------------------

DON'T MODIFY THIS FILE

-----------------------

PERFORMER: auCDtect Task Manager, ver. 1.6.0 RC1 build 1.6.0.1Copyright (c) 2008-2010 y-soft. All rights reservedhttp://y-soft.org

ANALYZER: auCDtect: CD records authenticity detector, version 0.8.2Copyright (c) 2004 Oleg Berngardt. All rights reserved.Copyright (c) 2004 Alexander Djourik. All rights reserved.

FILE: Various - GUNGRAVE O.S.T.2 ''lefthead''.flac Size: 432999318 Hash: BD0C76391F546361101428F5E5A408FA Accuracy: -m0 Conclusion: CDDA 100% Signature: C962801E9FBC142AEA94E52B7AF9BC6EA264574C
</div>
</div>

...1520255 - наличие лога извлечения


Трекер:  [ 29-Апр-2017 20:30 ]

  

Скачать .torrent

Размер .torrent файла 20 KB


Размер: 908 MB
Хэш (hash) релиза: ae125525d25d0e56b5d060de681b75e179b94648

Еще никто не оставлял запись к записи скачать торрент Гангрейв Gungrave . Будь первым!

!Обратная связь