Final Approach | Mazinkaiser | Bad at Love by Karina Halle

Скачать через торрент [VIDEO] Ла-Ла Ленд La La Land бесплатно русская версия torrent активатор

Статистика раздачи
Размер:  1.34 GB   |    Зарегистрирован:  1 год 2 месяца   |    .torrent скачан:  31 раз   |   
Раздают:  1  
   
загрузка...
 
Автор Сообщение

Galfimbul

avatar Galfimbul


Ла-Ла Ленд / La La Land
«Бесстрашным мечтателям посвящается…»

Год выпуска: 2016
Страна: США, Гонконг
Жанр: мюзикл, драма, мелодрама, комедия, музыка
Продолжительность: 02:08:06
Перевод №1: Русский Профессиональный (полное дублирование) iTunes
Перевод №2: Украинский Профессиональный (многоголосый, закадровый) Цікава Ідея
Оригинальная дорожка: Есть
Cубтитры: русские (forced), украинские (forced, full), английские (full, SDH)
Режиссер: Дэмьен Шазелл / Damien Chazelle
В ролях: Райан Гослинг, Эмма Стоун, Джон Ледженд, Дж.К. Симмонс, Розмари ДеУитт, Финн Уиттрок, Калли Эрнандес, Соноя Мидзуно, Джессика Рот, Том Эверетт Скотт и другие .
Описание: Это история любви старлетки, которая между прослушиваниями подает кофе состоявшимся кинозвездам, и фанатичного джазового музыканта, вынужденного подрабатывать в заштатных барах. Но пришедший к влюбленным успех начинает подтачивать их отношения.
Релиз группы
Качество: BDRip / рип с BDRemux 1080p
Формат: MP4
Видео кодек: H.264
Аудио кодек: AAC
Видео: 960х376 AR:2.55 1100 kbps 23.976 fps
Аудио №1: [Russian] 2ch 48 kHz 128 kbps - Профессиональный (полное дублирование) iTunes
Аудио №2: [Ukrainian] 2ch 48 kHz 128 kbps - Профессиональный (многоголосый, закадровый) Цікава Ідея
Аудио №3: [English] 2ch 48 kHz 128 kbps - Оригинал
avs [info]: 960x376p 1:1 @ 2997/125 fps (cfr)
x264 [info]: using SAR=1/1
x264 [info]: using cpu capabilities: MMX2 SSE2Fast SSSE3 SSE4.2 AVX FMA3 AVX2 LZCNT BMI2
x264 [info]: profile High, level 4.1

x264 [info]: frame I:1067 Avg QP:16.16 size: 45408
x264 [info]: frame P:39039 Avg QP:20.19 size: 12983
x264 [info]: frame B:143745 Avg QP:21.83 size: 3467
x264 [info]: consecutive B-frames: 1.9% 3.1% 7.6% 16.9% 21.3% 29.0% 8.3% 4.5% 3.8% 3.8%
x264 [info]: mb I I16..4: 10.8% 65.2% 24.0%
x264 [info]: mb P I16..4: 1.0% 5.3% 1.2% P16..4: 34.9% 36.3% 10.5% 0.0% 0.0% skip:11.0%
x264 [info]: mb B I16..4: 0.1% 0.4% 0.1% B16..8: 31.9% 14.8% 2.4% direct: 3.1% skip:47.3% L0:43.0% L1:45.6% BI:11.3%
x264 [info]: 8x8 transform intra:70.0% inter:59.6%
x264 [info]: direct mvs spatial:95.6% temporal:4.4%
x264 [info]: coded y,uvDC,uvAC intra: 77.1% 79.7% 61.7% inter: 13.8% 15.3% 7.6%
x264 [info]: i16 v,h,dc,p: 19% 15% 10% 56%
x264 [info]: i8 v,h,dc,ddl,ddr,vr,hd,vl,hu: 11% 6% 7% 9% 14% 14% 14% 12% 12%
x264 [info]: i4 v,h,dc,ddl,ddr,vr,hd,vl,hu: 14% 8% 7% 8% 14% 13% 13% 10% 12%
x264 [info]: i8c dc,h,v,p: 37% 25% 19% 19%
x264 [info]: Weighted P-Frames: Y:10.9% UV:6.7%
x264 [info]: ref P L0: 51.5% 10.3% 17.0% 6.5% 5.0% 3.8% 3.5% 2.1% 0.3% 0.0%
x264 [info]: ref B L0: 73.8% 11.7% 6.6% 3.3% 2.5% 1.5% 0.6%
x264 [info]: ref B L1: 93.7% 6.3%
x264 [info]: kb/s:1099.25

encoded 183851 frames, 19.51 fps, 1099.25 kb/s
GeneralComplete name : D:\Torrents\La La Land.2016.BDRip.x264.960x.rip by Frost O.S.mp4Format : MPEG-4Format profile : Base MediaCodec ID : isom (isom/avc1/iso2)File size : 1.34 GiBDuration : 2 h 8 minOverall bit rate mode : VariableOverall bit rate : 1 495 kb/sMovie name : La La Land 2016 BDRip x264 960x rip by Frost O SDirector : Дэмьен Шазелл / Damien ChazelleActor : Райан Гослинг / Эмма Стоун / Джон Ледженд / Дж.К. Симмонс / Розмари ДеУитт / Финн Уиттрок / Калли Эрнандес / Соноя Мидзуно / Джессика Рот / Том Эверетт СкоттGenre : DramaContentType : Short FilmEncoded date : UTC 2017-04-29 17:01:15Tagged date : UTC 2017-04-29 17:03:16Writing application : MkvToMp4 version: 0.224 (x64)Cover : YesComment : rip by Frost O.SLongDescription : Это история любви старлетки, которая между прослушиваниями подает кофе состоявшимся кинозвездам, и фанатичного джазового музыканта, вынужденного подрабатывать в заштатных барах. Но пришедший к влюбленным успех начинает подтачивать их отношения.

VideoID : 1Format : AVCFormat/Info : Advanced Video CodecFormat profile : [email protected] settings, CABAC : YesFormat settings, ReFrames : 8 framesCodec ID : avc1Codec ID/Info : Advanced Video CodingDuration : 2 h 7 minBit rate : 1 100 kb/sMaximum bit rate : 6 892 kb/sWidth : 960 pixelsHeight : 376 pixelsDisplay aspect ratio : 2.553Frame rate mode : ConstantFrame rate : 23.976 (24000/1001) FPSOriginal frame rate : 23.976 (23976/1000) FPSColor space : YUVChroma subsampling : 4:2:0Bit depth : 8 bitsScan type : ProgressiveBits/(Pixel*Frame) : 0.127Stream size : 1 005 MiB (73%)Writing library : x264 core 148 r2744 b97ae06Encoding settings : cabac=1 / ref=8 / deblock=1:-1:-1 / analyse=0x3:0x113 / me=umh / subme=11 / psy=1 / psy_rd=0.90:0.00 / mixed_ref=1 / me_range=32 / chroma_me=1 / trellis=2 / 8x8dct=1 / cqm=0 / deadzone=21,11 / fast_pskip=0 / chroma_qp_offset=-2 / threads=6 / lookahead_threads=1 / sliced_threads=0 / nr=0 / decimate=0 / interlaced=0 / bluray_compat=0 / constrained_intra=0 / bframes=9 / b_pyramid=2 / b_adapt=2 / b_bias=0 / direct=3 / weightb=1 / open_gop=0 / weightp=2 / keyint=250 / keyint_min=23 / scenecut=40 / intra_refresh=0 / rc=2pass / mbtree=0 / bitrate=1100 / ratetol=1.0 / qcomp=0.70 / qpmin=0 / qpmax=69 / qpstep=4 / cplxblur=20.0 / qblur=0.5 / ip_ratio=1.40 / pb_ratio=1.30 / aq=2:0.70Language : EnglishEncoded date : UTC 2017-04-29 17:01:15Tagged date : UTC 2017-04-29 17:01:58Color range : LimitedColor primaries : BT.709Transfer characteristics : BT.709Matrix coefficients : BT.709

Audio #1ID : 2Format : AACFormat/Info : Advanced Audio CodecFormat profile : LCCodec ID : 40Duration : 2 h 8 minBit rate mode : VariableBit rate : 128 kb/sMaximum bit rate : 135 kb/sChannel(s) : 2 channelsChannel positions : Front: L RSampling rate : 48.0 kHzFrame rate : 46.875 FPS (1024 spf)Compression mode : LossyStream size : 117 MiB (9%)Title : Dub_ iTunes / Dub_ iTunesLanguage : RussianDefault : YesAlternate group : 1Encoded date : UTC 2017-04-29 17:01:31Tagged date : UTC 2017-04-29 17:01:58

Audio #2ID : 3Format : AACFormat/Info : Advanced Audio CodecFormat profile : LCCodec ID : 40Duration : 2 h 7 minBit rate mode : VariableBit rate : 128 kb/sMaximum bit rate : 135 kb/sChannel(s) : 2 channelsChannel positions : Front: L RSampling rate : 48.0 kHzFrame rate : 46.875 FPS (1024 spf)Compression mode : LossyStream size : 117 MiB (9%)Title : MVO_ Cikava_Ideya / MVO_ Cikava_IdeyaLanguage : UkrainianDefault : NoAlternate group : 1Encoded date : UTC 2017-04-29 17:01:42Tagged date : UTC 2017-04-29 17:01:58

Audio #3ID : 4Format : AACFormat/Info : Advanced Audio CodecFormat profile : LCCodec ID : 40Duration : 2 h 7 minBit rate mode : VariableBit rate : 128 kb/sMaximum bit rate : 135 kb/sChannel(s) : 2 channelsChannel positions : Front: L RSampling rate : 48.0 kHzFrame rate : 46.875 FPS (1024 spf)Compression mode : LossyStream size : 117 MiB (9%)Title : Original / OriginalLanguage : EnglishDefault : NoAlternate group : 1Encoded date : UTC 2017-04-29 17:01:49Tagged date : UTC 2017-04-29 17:01:58

Text #1ID : 5Format : Timed TextMuxing mode : sbtlCodec ID : tx3gDuration : 1 h 46 minBit rate mode : VariableBit rate : 16 b/sStream size : 12.3 KiB (0%)Title : forced / forcedLanguage : RussianDefault : YesForced : NoAlternate group : 2Encoded date : UTC 2017-04-29 17:01:58Tagged date : UTC 2017-04-29 17:01:58

Text #2ID : 6Format : Timed TextMuxing mode : sbtlCodec ID : tx3gDuration : 1 h 54 minBit rate mode : VariableBit rate : 18 b/sStream size : 14.7 KiB (0%)Title : forced / forcedLanguage : UkrainianDefault : NoForced : NoAlternate group : 2Encoded date : UTC 2017-04-29 17:01:58Tagged date : UTC 2017-04-29 17:01:58

Text #3ID : 7Format : Timed TextMuxing mode : sbtlCodec ID : tx3gDuration : 1 h 59 minBit rate mode : VariableBit rate : 72 b/sStream size : 63.5 KiB (0%)Title : full / fullLanguage : UkrainianDefault : NoForced : NoAlternate group : 2Encoded date : UTC 2017-04-29 17:01:58Tagged date : UTC 2017-04-29 17:01:58

Text #4ID : 8Format : Timed TextMuxing mode : sbtlCodec ID : tx3gDuration : 1 h 59 minBit rate mode : VariableBit rate : 58 b/sStream size : 50.8 KiB (0%)Title : full / fullLanguage : EnglishDefault : NoForced : NoAlternate group : 2Encoded date : UTC 2017-04-29 17:01:58Tagged date : UTC 2017-04-29 17:01:58

Text #5ID : 9Format : Timed TextMuxing mode : sbtlCodec ID : tx3gDuration : 2 h 0 minBit rate mode : VariableBit rate : 66 b/sStream size : 57.9 KiB (0%)Title : SDH / SDHLanguage : EnglishDefault : NoForced : NoAlternate group : 2Encoded date : UTC 2017-04-29 17:01:58Tagged date : UTC 2017-04-29 17:01:58


Трекер:  [ 29-Апр-2017 19:30 ]

  

Скачать .torrent

Размер .torrent файла 14 KB


Размер: 1.34 GB
Хэш (hash) релиза: b83c87c56dc490a8f7f2cade4b41836de0b7c70b

Еще никто не оставлял запись к записи скачать торрент [VIDEO] Ла-Ла Ленд La La Land . Будь первым!

!Обратная связь