iZombie – Season 2
Zombie Apocalypse 2011 1080p BluRay x264-NOSCREENS

Скачать через торрент [VIDEO] Ла-Ла Ленд La La Land бесплатно русская версия torrent активатор

Статистика раздачи
Размер:  490 MB   |    Зарегистрирован:  11 месяцев   |    .torrent скачан:  19 раз   |   
Раздают:  1  
   
загрузка...
 
Автор Сообщение

Galfimbul

avatar Galfimbul


Ла-Ла Ленд / La La Land
«Бесстрашным мечтателям посвящается…»

Год выпуска: 2016
Страна: США, Гонконг
Жанр: мюзикл, драма, мелодрама, комедия, музыка
Продолжительность: 02:08:06
Перевод: Русский Профессиональный (полное дублирование) iTunes
Cубтитры: нет
Режиссер: Дэмьен Шазелл / Damien Chazelle
В ролях: Райан Гослинг, Эмма Стоун, Джон Ледженд, Дж.К. Симмонс, Розмари ДеУитт, Финн Уиттрок, Калли Эрнандес, Соноя Мидзуно, Джессика Рот, Том Эверетт Скотт и другие .
Описание: Это история любви старлетки, которая между прослушиваниями подает кофе состоявшимся кинозвездам, и фанатичного джазового музыканта, вынужденного подрабатывать в заштатных барах. Но пришедший к влюбленным успех начинает подтачивать их отношения.
Релиз группы
Качество: HDRip / рип с BDRip 1080p
Формат: MP4
Видео кодек: XviD
Аудио кодек: AAC
Видео: 480х184 AR:2.609 400 kbps 23.976 fps
Аудио: [Russian] 2ch 48 kHz 128 kbps - Профессиональный (полное дублирование) iTunes
GeneralComplete name : D:\Torrents\La La Land.2016.HDRip.XviD.480x.rip by Frost O.S.mp4Format : MPEG-4Format profile : Base MediaCodec ID : isom (isom/iso2)File size : 490 MiBDuration : 2 h 8 minOverall bit rate mode : VariableOverall bit rate : 534 kb/sMovie name : La La Land 2016 HDRip XviD 480x rip by Frost O SDirector : Дэмьен Шазелл / Damien ChazelleActor : Райан Гослинг / Эмма Стоун / Джон Ледженд / Дж.К. Симмонс / Розмари ДеУитт / Финн Уиттрок / Калли Эрнандес / Соноя Мидзуно / Джессика Рот / Том Эверетт СкоттGenre : DramaContentType : Short FilmEncoded date : UTC 2017-04-29 17:10:42Tagged date : UTC 2017-04-29 17:11:15Writing application : MkvToMp4 version: 0.224 (x64)Cover : YesComment : rip by Frost O.SLongDescription : Это история любви старлетки, которая между прослушиваниями подает кофе состоявшимся кинозвездам, и фанатичного джазового музыканта, вынужденного подрабатывать в заштатных барах. Но пришедший к влюбленным успех начинает подтачивать их отношения.

VideoID : 1Format : MPEG-4 VisualFormat profile : Advanced [email protected] settings, BVOP : YesFormat settings, QPel : YesFormat settings, GMC : No warppointsFormat settings, Matrix : CustomCodec ID : 20Duration : 2 h 7 minBit rate mode : VariableBit rate : 400 kb/sMaximum bit rate : 193 Mb/sWidth : 480 pixelsHeight : 184 pixelsDisplay aspect ratio : 2.609Frame rate mode : VariableFrame rate : 23.976 (23976/1000) FPSMinimum frame rate : 11.988 FPSMaximum frame rate : 23.976 FPSColor space : YUVChroma subsampling : 4:2:0Bit depth : 8 bitsScan type : ProgressiveCompression mode : LossyBits/(Pixel*Frame) : 0.189Stream size : 365 MiB (75%)Title : avi_GPAC0.5.2_DEV_rev248_g39d5978_masterWriting library : XviD 1.2.1 (UTC 2008-12-04)Language : EnglishTagged date : UTC 2017-04-29 17:10:50

AudioID : 2Format : AACFormat/Info : Advanced Audio CodecFormat profile : LCCodec ID : 40Duration : 2 h 8 minBit rate mode : VariableBit rate : 128 kb/sMaximum bit rate : 135 kb/sChannel(s) : 2 channelsChannel positions : Front: L RSampling rate : 48.0 kHzFrame rate : 46.875 FPS (1024 spf)Compression mode : LossyStream size : 117 MiB (24%)Title : Dub_ iTunes / Dub_ iTunesLanguage : RussianDefault : YesAlternate group : 1Encoded date : UTC 2017-04-29 17:10:47Tagged date : UTC 2017-04-29 17:10:50


Трекер:  [ 29-Апр-2017 19:30 ]

  

Скачать .torrent

Размер .torrent файла 19 KB


Размер: 490 MB
Хэш (hash) релиза: 992a392d0f4e944b385e723b5cc926ae0d676f93

Еще никто не оставлял запись к записи скачать торрент [VIDEO] Ла-Ла Ленд La La Land . Будь первым!

!Обратная связь