Thrill Factor | Pornography On Trial A Handbook With Cases Laws And Documents | Vol. 1 Ch. 15.5 - Extra

Скачать через торрент [VIDEO] Мимино бесплатно русская версия torrent активатор

Статистика раздачи
Размер:  1.2 GB   |    Зарегистрирован:  1 год 2 месяца   |    .torrent скачан:  30 раз   |   
Раздают:  1  
   
загрузка...
 
Автор Сообщение

Galfimbul

avatar Galfimbul


Мимино

Год выпуска: 1977
Страна: СССР
Жанр: комедия
Продолжительность: 01:31:11
Перевод: не требуется
Cубтитры: нет
Режиссер: Георгий Данелия
В ролях: Вахтанг Кикабидзе, Фрунзик Мкртчян, Елена Проклова, Евгений Леонов, Руслан Микаберидзе, Закро Сахвадзе, Марина Дюжева, Арчил Гомиашвили, Валентина Титова, Владимир Басов, Вадим Спиридонов и другие .
Описание: «Мимино» - по-грузински «сокол». Так называют друзья героя фильма, летчика Валико Мизандари, по воле режиссера то и дело попадающего в смешные, грустные, а порой драматические ситуации.
Работая в родном горном селении, Мимино перевозит на вертолете почту, фрукты, овец. Но он давно мечтает о настоящей, большой авиации. Наконец ему удается воплотить свою мечту в жизнь.
Релиз группы
Качество: HDTVRip / рип с HDTV 1080i
Формат: MP4
Видео кодек: H.264
Аудио кодек: AAC
Видео: 734x536 AR:1.37 1740 kbps 25 fps
Аудио: 2ch 48 kHz 128 kbps
avs [info]: 734x536p 1:1 @ 25/1 fps (cfr)
x264 [info]: using SAR=1/1
x264 [info]: using cpu capabilities: MMX2 SSE2Fast SSSE3 SSE4.2 AVX FMA3 AVX2 LZCNT BMI2
x264 [info]: profile High, level 4.1

x264 [info]: frame I:843 Avg QP:16.56 size: 57069
x264 [info]: frame P:30581 Avg QP:19.56 size: 17219
x264 [info]: frame B:105355 Avg QP:21.10 size: 5841
x264 [info]: consecutive B-frames: 1.6% 3.1% 5.6% 32.5% 19.5% 26.7% 6.1% 4.4% 0.4%
x264 [info]: mb I I16..4: 1.7% 84.1% 14.3%
x264 [info]: mb P I16..4: 0.2% 5.3% 0.6% P16..4: 36.9% 42.4% 13.4% 0.0% 0.0% skip: 1.2%
x264 [info]: mb B I16..4: 0.0% 0.9% 0.0% B16..8: 38.0% 17.9% 2.3% direct: 5.8% skip:35.0% L0:41.3% L1:46.8% BI:11.9%
x264 [info]: 8x8 transform intra:88.1% inter:60.7%
x264 [info]: direct mvs spatial:99.0% temporal:1.0%
x264 [info]: coded y,uvDC,uvAC intra: 96.0% 78.6% 39.4% inter: 30.4% 25.9% 4.1%
x264 [info]: i16 v,h,dc,p: 24% 16% 5% 55%
x264 [info]: i8 v,h,dc,ddl,ddr,vr,hd,vl,hu: 12% 7% 7% 10% 14% 13% 13% 11% 12%
x264 [info]: i4 v,h,dc,ddl,ddr,vr,hd,vl,hu: 19% 7% 3% 9% 13% 14% 12% 11% 11%
x264 [info]: i8c dc,h,v,p: 32% 29% 23% 16%
x264 [info]: Weighted P-Frames: Y:15.3% UV:8.1%
x264 [info]: ref P L0: 47.2% 11.7% 14.6% 6.7% 5.3% 4.8% 4.1% 2.7% 2.6% 0.4% 0.0%
x264 [info]: ref B L0: 81.5% 8.1% 3.8% 2.0% 1.7% 1.5% 1.0% 0.4%
x264 [info]: ref B L1: 96.4% 3.6%
x264 [info]: kb/s:1740.20

encoded 136779 frames, 15.31 fps, 1740.20 kb/s
GeneralComplete name : D:\Torrents\Мимино.1977.HDTVRip.x264.960x.rip by Frost O.S.mp4Format : MPEG-4Format profile : Base MediaCodec ID : isom (isom/avc1)File size : 1.20 GiBDuration : 1 h 31 minOverall bit rate mode : VariableOverall bit rate : 1 877 kb/sMovie name : Мимино 1977 HDTVRip x264 960x rip by Frost O SDirector : Георгий ДанелияActor : Вахтанг Кикабидзе / Фрунзик Мкртчян / Елена Проклова / Евгений Леонов / Руслан Микаберидзе / Закро Сахвадзе / Марина Дюжева / Арчил Гомиашвили / Валентина Титова / Владимир Басов / Вадим СпиридоновGenre : ComedyContentType : Short FilmEncoded date : UTC 2017-04-28 16:00:31Tagged date : UTC 2017-04-28 16:06:13Writing application : MkvToMp4 version: 0.224 (x64)Cover : YesComment : rip by Frost O.SLongDescription : «Мимино» - по-грузински «сокол». Так называют друзья героя фильма, летчика Валико Мизандари, по воле режиссера то и дело попадающего в смешные, грустные, а порой драматические ситуации. Работая в родном горном селении, Мимино перевозит на вертолете почту, фрукты, овец. Но он давно мечтает о настоящей, большой авиации. Наконец ему удается воплотить свою мечту в жизнь.

VideoID : 1Format : AVCFormat/Info : Advanced Video CodecFormat profile : [email protected] settings, CABAC : YesFormat settings, ReFrames : 9 framesCodec ID : avc1Codec ID/Info : Advanced Video CodingDuration : 1 h 31 minBit rate : 1 740 kb/sMaximum bit rate : 7 309 kb/sWidth : 734 pixelsHeight : 536 pixelsDisplay aspect ratio : 4:3Frame rate mode : ConstantFrame rate : 25.000 FPSColor space : YUVChroma subsampling : 4:2:0Bit depth : 8 bitsScan type : ProgressiveBits/(Pixel*Frame) : 0.177Stream size : 1.11 GiB (93%)Writing library : x264 core 148 r2744 b97ae06Encoding settings : cabac=1 / ref=9 / deblock=1:-1:-1 / analyse=0x3:0x113 / me=umh / subme=11 / psy=1 / psy_rd=1.05:0.00 / mixed_ref=1 / me_range=32 / chroma_me=1 / trellis=2 / 8x8dct=1 / cqm=0 / deadzone=21,11 / fast_pskip=0 / chroma_qp_offset=-2 / threads=6 / lookahead_threads=1 / sliced_threads=0 / nr=0 / decimate=0 / interlaced=0 / bluray_compat=0 / constrained_intra=0 / bframes=8 / b_pyramid=2 / b_adapt=2 / b_bias=0 / direct=3 / weightb=1 / open_gop=0 / weightp=2 / keyint=250 / keyint_min=25 / scenecut=40 / intra_refresh=0 / rc=2pass / mbtree=0 / bitrate=1740 / ratetol=1.0 / qcomp=0.70 / qpmin=0 / qpmax=69 / qpstep=4 / cplxblur=20.0 / qblur=0.5 / ip_ratio=1.40 / pb_ratio=1.30 / aq=1:0.70Language : EnglishEncoded date : UTC 2017-04-28 16:00:31Tagged date : UTC 2017-04-28 16:04:29Color range : LimitedColor primaries : BT.709Transfer characteristics : BT.709Matrix coefficients : BT.709

AudioID : 2Format : AACFormat/Info : Advanced Audio CodecFormat profile : LCCodec ID : 40Duration : 1 h 31 minBit rate mode : VariableBit rate : 128 kb/sMaximum bit rate : 131 kb/sChannel(s) : 2 channelsChannel positions : Front: L RSampling rate : 48.0 kHzFrame rate : 46.875 FPS (1024 spf)Compression mode : LossyStream size : 83.5 MiB (7%)Language : RussianDefault : YesAlternate group : 1Encoded date : UTC 2017-04-28 16:04:10Tagged date : UTC 2017-04-28 16:04:29


Трекер:  [ 28-Апр-2017 19:30 ]

  

Скачать .torrent

Размер .torrent файла 12 KB


Размер: 1.2 GB
Хэш (hash) релиза: 184f5cfdbfa8acdd9f965112364e3cab43a7d94e

Торренты, похожие на [VIDEO] Мимино скачать торрент

Форум Название Автор Размер S L Добавлен
Видео (Фильмы/Клипы) ·· [VIDEO] Мимино (Георгий Данелия) [1977, комедия, HDTVRip] [MP4, 480x] Galfimbul 362849766346 MB 0 0 1493556353

15:45

30-Апр-17

Еще никто не оставлял запись к записи скачать торрент [VIDEO] Мимино . Будь первым!

!Обратная связь