tv episodes | Kevin Greutert | 2018 Delta Member Handbook - Delta Region Volleyball

Скачать через торрент [VIDEO] Кащей Бессмертный бесплатно русская версия torrent активатор

Статистика раздачи
Размер:  554 MB   |    Зарегистрирован:  1 год 2 месяца   |    .torrent скачан:  18 раз   |   
Раздают:  1  
   
загрузка...
 
Автор Сообщение

Galfimbul

avatar Galfimbul


Кащей Бессмертный / Оригинальная версия

Год выпуска: 1944
Страна: СССР
Жанр: сказка
Продолжительность: 01:03:39
Перевод: не требуется
Cубтитры: нет
Режиссер: Александр Роу
В ролях: Сергей Столяров, Александр Ширшов, Галина Григорьева, Георгий Милляр, Иван Рыжов, Сергей Юрцев, Сергей Троицкий, Лев Кровицкий, Сергей Филиппов, Пётр Галаджев, Иван Бобров, Эммануил Геллер .
Описание: Эпическая сказка, снятая в годы Второй Мировой войны. Русские богатыри Никита Кожемяка и Булат Балагур спасают землю русскую от вражьих полчищ Кащея Бессмертного и освобождают красавицу Марью Моревну.
Релиз группы
Качество: SATRip / рип с DVB [Оригинальная версия]
Формат: MP4
Видео кодек: H.264
Аудио кодек: AAC
Видео: 468x360 AR:4/3 1080 kbps 25 fps
Аудио: 2ch 48 kHz 128 kbps
avs [info]: 468x360p 1:1 @ 25/1 fps (cfr)
x264 [info]: using SAR=1/1
x264 [info]: using cpu capabilities: MMX2 SSE2Fast SSSE3 SSE4.2 AVX FMA3 AVX2 LZCNT BMI2
x264 [info]: profile High, level 4.1

x264 [info]: frame I:722 Avg QP:20.59 size: 21624
x264 [info]: frame P:18197 Avg QP:23.58 size: 9518
x264 [info]: frame B:76571 Avg QP:25.44 size: 4269
x264 [info]: consecutive B-frames: 1.5% 1.5% 4.7% 18.4% 13.6% 32.8% 8.3% 5.7% 4.9% 2.8% 2.5% 3.2%
x264 [info]: mb I I16..4: 1.6% 84.1% 14.3%
x264 [info]: mb P I16..4: 0.3% 12.5% 1.7% P16..4: 32.6% 37.9% 13.3% 1.3% 0.1% skip: 0.3%
x264 [info]: mb B I16..4: 0.1% 2.3% 0.3% B16..8: 40.5% 24.0% 4.0% direct:10.7% skip:18.1% L0:47.8% L1:39.4% BI:12.8%
x264 [info]: 8x8 transform intra:85.1% inter:64.8%
x264 [info]: direct mvs spatial:98.0% temporal:2.0%
x264 [info]: coded y,uvDC,uvAC intra: 92.8% 17.5% 1.4% inter: 46.7% 7.9% 0.2%
x264 [info]: i16 v,h,dc,p: 14% 31% 2% 53%
x264 [info]: i8 v,h,dc,ddl,ddr,vr,hd,vl,hu: 10% 9% 4% 10% 15% 15% 14% 11% 12%
x264 [info]: i4 v,h,dc,ddl,ddr,vr,hd,vl,hu: 10% 22% 3% 7% 13% 14% 11% 10% 11%
x264 [info]: i8c dc,h,v,p: 58% 32% 8% 2%
x264 [info]: Weighted P-Frames: Y:60.4% UV:0.0%
x264 [info]: ref P L0: 37.8% 12.6% 14.0% 9.3% 6.4% 5.7% 4.6% 3.0% 2.6% 2.6% 1.4% 0.0%
x264 [info]: ref B L0: 60.5% 14.3% 8.5% 4.9% 3.8% 3.4% 2.9% 1.4% 0.5%
x264 [info]: ref B L1: 92.1% 7.9%
x264 [info]: kb/s:1080.09

encoded 95490 frames, 24.19 fps, 1080.09 kb/s
GeneralComplete name : D:\Torrents\Кащей Бессмертный.(Оригинальная версия).1944.SATRip.x264.640x.rip by Frost O.S.mp4Format : MPEG-4Format profile : Base MediaCodec ID : isom (isom/avc1)File size : 554 MiBDuration : 1 h 3 minOverall bit rate mode : VariableOverall bit rate : 1 216 kb/sMovie name : Кащей Бессмертный (Оригинальная версия) 1944 SATRip x264 640x rip by Frost O SDirector : Александр РоуActor : Сергей Столяров / Александр Ширшов / Галина Григорьева / Георгий Милляр / Иван Рыжов / Сергей Юрцев / Сергей Троицкий / Лев Кровицкий / Сергей Филиппов / Пётр Галаджев / Иван Бобров / Эммануил ГеллерContentType : Short FilmEncoded date : UTC 2017-04-27 16:42:59Tagged date : UTC 2017-04-27 16:43:34Writing application : MkvToMp4 version: 0.224 (x64)Cover : YesComment : rip Frost O.SLongDescription : Эпическая сказка, снятая в годы Второй Мировой войны. Русские богатыри Никита Кожемяка и Булат Балагур спасают землю русскую от вражьих полчищ Кащея Бессмертного и освобождают красавицу Марью Моревну.

VideoID : 1Format : AVCFormat/Info : Advanced Video CodecFormat profile : [email protected] settings, CABAC : YesFormat settings, ReFrames : 10 framesCodec ID : avc1Codec ID/Info : Advanced Video CodingDuration : 1 h 3 minBit rate : 1 080 kb/sMaximum bit rate : 2 895 kb/sWidth : 468 pixelsHeight : 360 pixelsDisplay aspect ratio : 4:3Frame rate mode : ConstantFrame rate : 25.000 FPSColor space : YUVChroma subsampling : 4:2:0Bit depth : 8 bitsScan type : ProgressiveBits/(Pixel*Frame) : 0.256Stream size : 492 MiB (89%)Writing library : x264 core 148 r2744 b97ae06Encoding settings : cabac=1 / ref=10 / deblock=1:-2:-1 / analyse=0x3:0x133 / me=umh / subme=11 / psy=1 / psy_rd=1.10:0.00 / mixed_ref=1 / me_range=48 / chroma_me=1 / trellis=2 / 8x8dct=1 / cqm=0 / deadzone=21,11 / fast_pskip=0 / chroma_qp_offset=-2 / threads=6 / lookahead_threads=1 / sliced_threads=0 / nr=0 / decimate=0 / interlaced=0 / bluray_compat=0 / constrained_intra=0 / bframes=11 / b_pyramid=2 / b_adapt=2 / b_bias=0 / direct=3 / weightb=1 / open_gop=0 / weightp=2 / keyint=250 / keyint_min=25 / scenecut=40 / intra_refresh=0 / rc=2pass / mbtree=0 / bitrate=1080 / ratetol=1.0 / qcomp=0.60 / qpmin=0 / qpmax=69 / qpstep=4 / cplxblur=20.0 / qblur=0.5 / ip_ratio=1.40 / pb_ratio=1.30 / aq=1:0.90Language : EnglishEncoded date : UTC 2017-04-27 16:42:59Tagged date : UTC 2017-04-27 16:43:12Color range : LimitedColor primaries : BT.601 PALTransfer characteristics : BT.470 System B, BT.470 System GMatrix coefficients : BT.601

AudioID : 2Format : AACFormat/Info : Advanced Audio CodecFormat profile : LCCodec ID : 40Duration : 1 h 3 minBit rate mode : VariableBit rate : 128 kb/sMaximum bit rate : 130 kb/sChannel(s) : 2 channelsChannel positions : Front: L RSampling rate : 48.0 kHzFrame rate : 46.875 FPS (1024 spf)Compression mode : LossyStream size : 58.3 MiB (11%)Language : RussianDefault : YesAlternate group : 1Encoded date : UTC 2017-04-27 16:43:06Tagged date : UTC 2017-04-27 16:43:12


Трекер:  [ 27-Апр-2017 19:00 ]

  

Скачать .torrent

Размер .torrent файла 11 KB


Размер: 554 MB
Хэш (hash) релиза: 64219cc25609df805a33c7b747fbfcfe650b093f

Торренты, похожие на [VIDEO] Кащей Бессмертный скачать торрент

Форум Название Автор Размер S L Добавлен
Видео (Фильмы/Клипы) ·· [VIDEO] Кащей Бессмертный (Александр Роу) [1944, сказка, SATRip] [MP4, 640x] [Колоризированная версия] Galfimbul 577955578551 MB 0 0 1493493242

22:14

29-Апр-17

Еще никто не оставлял запись к записи скачать торрент [VIDEO] Кащей Бессмертный . Будь первым!

!Обратная связь