Marvel's Luke Cage - Saison 2 streaming complet vf | Mythica Una Proeza Heroica BluRay MicroHD | Featured Apps Games of the Day (2018/7/14)

Скачать через торрент [VIDEO] Обитель зла: Последняя глава Resident Evil: The Final Chapter бесплатно русская версия torrent активатор

Статистика раздачи
Размер:  461 MB   |    Зарегистрирован:  1 год 2 месяца   |    .torrent скачан:  19 раз   |   
Раздают:  1  
   
загрузка...
 
Автор Сообщение

Galfimbul

avatar Galfimbul


Обитель зла: Последняя глава / Resident Evil: The Final Chapter (Theatrical Cut)
«The beginning of the end»

Год выпуска: 2016
Страна: США, Германия, Франция, Великобритания, Япония, Канада, ЮАР, Австралия
Жанр: ужасы, фантастика, боевик, триллер
Продолжительность: 01:46:40
Перевод: Русский Профессиональный (полное дублирование) iTunes
Cубтитры: нет
Режиссер: Пол У. С. Андерсон / Paul W.S. Anderson
В ролях: Милла Йовович, Иэн Глен, Эли Лартер, Шон Робертс, Оуэн Мэкен, Фрайзер Джеймс, Руби Роуз, Уильям Леви, Рола, Эвер Андерсон и другие .
Роли дублировали: Ирина Киреева, Владимир Антоник, Людмила Шувалова, Юрий Деркач, Дмитрий Поляновский и другие .
Описание: Действия фильма разворачиваются с того момента, на котором закончилась предыдущая часть. После того как Вескер предал Элис в Вашингтоне, конец истории человечества стал еще ближе. Элис — последняя надежда на спасение мира. Она должна вернуться к точке отсчета, туда, где все и началось — город Раккун-Сити, где корпорация «Амбрелла» готовится к финальной атаке по тем, кому удалось выжить.

В гонке со временем Элис вооружится до зубов и объединится с друзьями и теми, кого не ожидала увидеть в роли своих союзников. Вместе они будут биться против армии мертвецов и новых чудовищных мутантов. Находясь под угрозой потери своих способностей и готовясь к неминуемой атаке корпорации, Элис столкнется с еще более трудными проблемами, а человечество тем временем будет находиться на грани гибели.
Релиз группы
Качество: HDRip / рип с BDRip 720p [Theatrical Cut]
Формат: MP4
Видео кодек: XviD
Аудио кодек: AAC
Видео: 480х200 AR:2.40 469 kbps 23.976 fps
Аудио: [Russian] 2ch 48 kHz 128 kbps - Профессиональный (полное дублирование) iTunes
GeneralComplete name : D:\Torrents\Resident Evil The Final Chapter.2016.HDRip.XviD.480x. rip by Frost O.S.mp4Format : MPEG-4Format profile : Base MediaCodec ID : isom (isom/iso2)File size : 461 MiBDuration : 1 h 46 minOverall bit rate mode : VariableOverall bit rate : 604 kb/sMovie name : Resident Evil The Final Chapter 2016 HDRip XviD 480x rip by Frost O SDirector : Пол У. С. Андерсон / Paul W.S. AndersonActor : Милла Йовович / Иэн Глен / Эли Лартер / Шон Робертс / Оуэн Мэкен / Фрайзер Джеймс / Руби Роуз / Уильям Леви / Рола / Эвер АндерсонGenre : ActionContentType : Short FilmEncoded date : UTC 2017-04-27 14:32:00Tagged date : UTC 2017-04-27 14:32:25Writing application : MkvToMp4 version: 0.224 (x64)Cover : YesComment : rip by Frost O.SLongDescription : Действия фильма разворачиваются с того момента, на котором закончилась предыдущая часть. После того как Вескер предал Элис в Вашингтоне, конец истории человечества стал еще ближе. Элис — последняя надежда на спасение мира. Она должна вернуться к точке отсчета, туда, где все и началось — город Раккун-Сити, где корпорация «Амбрелла» готовится к финальной атаке по тем, кому удалось выжить. / В гонке со временем Элис вооружится до зубов и объединится с друзьями и теми, кого не ожидала увидеть в роли своих союзников. Вместе они будут биться против армии мертвецов и новых чудовищных мутантов. Находясь под угрозой потери своих способностей и готовясь к неминуемой атаке корпорации, Элис столкнется с еще более трудными проблемами, а человечество тем временем будет находиться на грани гибели.

VideoID : 1Format : MPEG-4 VisualFormat profile : Advanced [email protected] settings, BVOP : YesFormat settings, QPel : YesFormat settings, GMC : No warppointsFormat settings, Matrix : CustomCodec ID : 20Duration : 1 h 46 minBit rate mode : VariableBit rate : 469 kb/sMaximum bit rate : 194 Mb/sWidth : 480 pixelsHeight : 200 pixelsDisplay aspect ratio : 2.40:1Frame rate mode : VariableFrame rate : 23.976 (23976/1000) FPSMinimum frame rate : 11.988 FPSMaximum frame rate : 23.976 FPSColor space : YUVChroma subsampling : 4:2:0Bit depth : 8 bitsScan type : ProgressiveCompression mode : LossyBits/(Pixel*Frame) : 0.204Stream size : 358 MiB (78%)Title : avi_GPAC0.5.2_DEV_rev248_g39d5978_masterWriting library : XviD 1.2.1 (UTC 2008-12-04)Language : EnglishTagged date : UTC 2017-04-27 14:32:09

AudioID : 2Format : AACFormat/Info : Advanced Audio CodecFormat profile : LCCodec ID : 40Duration : 1 h 46 minBit rate mode : VariableBit rate : 128 kb/sMaximum bit rate : 135 kb/sChannel(s) : 2 channelsChannel positions : Front: L RSampling rate : 48.0 kHzFrame rate : 46.875 FPS (1024 spf)Compression mode : LossyStream size : 97.7 MiB (21%)Title : Dub_ iTunes / Dub_ iTunesLanguage : RussianDefault : YesAlternate group : 1Encoded date : UTC 2017-04-27 14:32:07Tagged date : UTC 2017-04-27 14:32:09


Трекер:  [ 27-Апр-2017 16:30 ]

  

Скачать .torrent

Размер .torrent файла 18 KB


Размер: 461 MB
Хэш (hash) релиза: 43ff096942e27ec65406bcf7858598b7fd0e676c

Торренты, похожие на [VIDEO] Обитель зла: Последняя глава Resident Evil: The Final Chapter скачать торрент

Форум Название Автор Размер S L Добавлен
Видео (Фильмы/Клипы) ·· [VIDEO] Обитель зла: Последняя глава / Resident Evil: The Final Chapter (Пол У. С. Андерсон / Paul W.S. Anderson) [2016, ужасы, фантастика, боевик, триллер, BDRip] [MP4, 960x] [Theatrical Cut] Galfimbul 17737924551.65 GB 0 0 1496964246

02:24

9-Июн-17

Видео (Фильмы/Клипы) ·· [VIDEO] Обитель зла: Последняя глава / Resident Evil: The Final Chapter (Пол У. С. Андерсон / Paul W.S. Anderson) [2016, ужасы, фантастика, боевик, триллер, HDRip] [MP4, 480x] [Theatrical Cut] Dub BD CEE Galfimbul 483503706461 MB 0 0 1496964218

02:23

9-Июн-17

Видео (Фильмы/Клипы) ·· [VIDEO] Обитель зла: Последняя глава / Resident Evil: The Final Chapter (Пол У. С. Андерсон / Paul W.S. Anderson) [2016, ужасы, фантастика, боевик, триллер, BDRip] [MP4, 1280x] Galfimbul 22149273412.06 GB 0 0 1494666822

12:13

13-Май-17

Видео (Фильмы/Клипы) ·· [VIDEO] Обитель зла: Последняя глава / Resident Evil: The Final Chapter (Пол У. С. Андерсон / Paul W.S. Anderson) [2016, ужасы, фантастика, боевик, триллер, BDRip] [MP4, 960x] [Theatrical Cut] Dub (Rus, Ukr), Original, Sub (rus, eng) Galfimbul 15631786111.46 GB 0 0 1493304477

17:47

27-Апр-17

Еще никто не оставлял запись к записи скачать торрент [VIDEO] Обитель зла: Последняя глава Resident Evil: The Final Chapter . Будь первым!

!Обратная связь