Cupido HDTV | Drama (368) | Final Space

Скачать через торрент [VIDEO] Кин-дза-дза! бесплатно русская версия torrent активатор

Статистика раздачи
Размер:  588 MB   |    Зарегистрирован:  1 год 2 месяца   |    .torrent скачан:  27 раз   |   
Раздают:  1  
   
загрузка...
 
Автор Сообщение

Galfimbul

avatar Galfimbul


Кин-дза-дза!

Год выпуска: 1986
Страна: СССР
Жанр: фантастика, драма, комедия
Продолжительность: первая серия 01:06:13 и вторая серия 01:06:37
Перевод: не требуется
Cубтитры: нет
Режиссер: Георгий Данелия
В ролях: Станислав Любшин, Евгений Леонов, Юрий Яковлев, Леван Габриадзе, Ольга Машная, Ирина Шмелева, Лев Перфилов, Георгий Данелия, Александра Дорохина, Галина Данелия-Юркова и другие .
Описание: Прораб Владимир Николаевич Машков и не подозревал, что обычный путь до универсама за хлебом и макаронами обернется межгалактическими путешествиями. А все эта встреча со студентом в кроличьей шапке с большой сумкой и с каким-то маленьким устройством — «машинкой перемещения», как он ее сам называл.
Короче, нажал на кнопку — и оказался вместе с молодым человеком в пустыне, и не в каких-нибудь Каракумах, а на планете-пустыне Плюк в тентуре, галактика Кин-дза-дза в спирали…
Релиз группы
Качество: HDRip / рип с BDRip 720p
Формат: MP4
Видео кодек: XviD
Аудио кодек: AAC
<div class="post-box" style="border-color: #1B2838;">Первая серия
Видео: 440x320 AR:1.375 468 kbps 23.976 fps
Аудио: 2ch 48 kHz 128 kbps</div>

<div class="post-box" style="border-color: #1B2838;">Вторая серия
Видео: 432x320 AR:1.35 498 kbps 23.976 fps
Аудио: 2ch 48 kHz 128 kbps</div>
<div class="sp-wrap">
<div class="sp-head folded">ТХ/MediaInfo</div>
<div class="sp-body">

GeneralComplete name : D:\Torrents\Кин-дза-дза!.1986.HDRip.XviD.480x\Кин-дза-дза!.(1 серия).1986.HDRip.XviD.480x.rip by Frost O.S.mp4Format : MPEG-4Format profile : Base MediaCodec ID : isom (isom)File size : 286 MiBDuration : 1 h 6 minOverall bit rate mode : VariableOverall bit rate : 604 kb/sMovie name : Кин-дза-дза! (1 серия) 1986 HDRip XviD 480x rip by Frost O SDirector : Георгий ДанелияActor : Станислав Любшин / Евгений Леонов / Юрий Яковлев / Леван Габриадзе / Ольга Машная / Ирина Шмелева / Лев Перфилов / Георгий Данелия / Александра Дорохина / Галина Данелия-ЮрковаGenre : FantasyContentType : Short FilmEncoded date : UTC 2017-04-27 06:23:21Tagged date : UTC 2017-04-27 06:23:35Writing application : MkvToMp4 version: 0.224 (x64)Cover : YesComment : rip by Frost O.SLongDescription : Прораб Владимир Николаевич Машков и не подозревал, что обычный путь до универсама за хлебом и макаронами обернется межгалактическими путешествиями. А все эта встреча со студентом в кроличьей шапке с большой сумкой и с каким-то маленьким устройством — «машинкой перемещения», как он ее сам называл. Короче, нажал на кнопку — и оказался вместе с молодым человеком в пустыне, и не в каких-нибудь Каракумах, а на планете-пустыне Плюк в тентуре, галактика Кин-дза-дза в спирали…

VideoID : 1Format : MPEG-4 VisualFormat profile : Advanced [email protected] settings, BVOP : YesFormat settings, QPel : NoFormat settings, GMC : No warppointsFormat settings, Matrix : CustomCodec ID : 20Duration : 1 h 6 minBit rate mode : VariableBit rate : 468 kb/sMaximum bit rate : 2 025 kb/sWidth : 440 pixelsHeight : 320 pixelsDisplay aspect ratio : 1.375Frame rate mode : ConstantFrame rate : 23.976 (24000/1001) FPSOriginal frame rate : 23.976 (23976/1000) FPSColor space : YUVChroma subsampling : 4:2:0Bit depth : 8 bitsScan type : ProgressiveCompression mode : LossyBits/(Pixel*Frame) : 0.139Stream size : 222 MiB (77%)Title : avi_GPAC0.5.2_DEV_rev248_g39d5978_masterWriting library : XviD 1.2.1 (UTC 2008-12-04)Language : EnglishTagged date : UTC 2017-04-27 06:23:25

AudioID : 2Format : AACFormat/Info : Advanced Audio CodecFormat profile : LCCodec ID : 40Duration : 1 h 6 minBit rate mode : VariableBit rate : 128 kb/sMaximum bit rate : 135 kb/sChannel(s) : 2 channelsChannel positions : Front: L RSampling rate : 48.0 kHzFrame rate : 46.875 FPS (1024 spf)Compression mode : LossyStream size : 60.6 MiB (21%)Language : RussianDefault : YesAlternate group : 1Encoded date : UTC 2017-04-27 06:23:23Tagged date : UTC 2017-04-27 06:23:25
</div>
</div>
<div class="sp-wrap">
<div class="sp-head folded">ТХ/MediaInfo</div>
<div class="sp-body">

GeneralComplete name : D:\Torrents\Кин-дза-дза!.1986.HDRip.XviD.480x\Кин-дза-дза!.(2 серия).1986.HDRip.XviD.480x.rip by Frost O.S.mp4Format : MPEG-4Format profile : Base MediaCodec ID : isom (isom)File size : 302 MiBDuration : 1 h 6 minOverall bit rate mode : VariableOverall bit rate : 634 kb/sMovie name : Кин-дза-дза! (2 серия) 1986 HDRip XviD 480x rip by Frost O SDirector : Георгий ДанелияActor : Станислав Любшин / Евгений Леонов / Юрий Яковлев / Леван Габриадзе / Ольга Машная / Ирина Шмелева / Лев Перфилов / Георгий Данелия / Александра Дорохина / Галина Данелия-ЮрковаGenre : FantasyContentType : Short FilmEncoded date : UTC 2017-04-27 06:26:30Tagged date : UTC 2017-04-27 06:26:52Writing application : MkvToMp4 version: 0.224 (x64)Cover : YesComment : rip by Frost O.SLongDescription : Прораб Владимир Николаевич Машков и не подозревал, что обычный путь до универсама за хлебом и макаронами обернется межгалактическими путешествиями. А все эта встреча со студентом в кроличьей шапке с большой сумкой и с каким-то маленьким устройством — «машинкой перемещения», как он ее сам называл. / Короче, нажал на кнопку — и оказался вместе с молодым человеком в пустыне, и не в каких-нибудь Каракумах, а на планете-пустыне Плюк в тентуре, галактика Кин-дза-дза в спирали…

VideoID : 1Format : MPEG-4 VisualFormat profile : Advanced [email protected] settings, BVOP : YesFormat settings, QPel : NoFormat settings, GMC : No warppointsFormat settings, Matrix : CustomCodec ID : 20Duration : 1 h 6 minBit rate mode : VariableBit rate : 498 kb/sMaximum bit rate : 2 212 kb/sWidth : 432 pixelsHeight : 320 pixelsDisplay aspect ratio : 4:3Frame rate mode : ConstantFrame rate : 23.976 (24000/1001) FPSOriginal frame rate : 23.976 (23976/1000) FPSColor space : YUVChroma subsampling : 4:2:0Bit depth : 8 bitsScan type : ProgressiveCompression mode : LossyBits/(Pixel*Frame) : 0.150Stream size : 237 MiB (79%)Title : avi_GPAC0.5.2_DEV_rev248_g39d5978_masterWriting library : XviD 1.2.1 (UTC 2008-12-04)Language : EnglishTagged date : UTC 2017-04-27 06:26:34

AudioID : 2Format : AACFormat/Info : Advanced Audio CodecFormat profile : LCCodec ID : 40Duration : 1 h 6 minBit rate mode : VariableBit rate : 128 kb/sMaximum bit rate : 135 kb/sChannel(s) : 2 channelsChannel positions : Front: L RSampling rate : 48.0 kHzFrame rate : 46.875 FPS (1024 spf)Compression mode : LossyStream size : 61.0 MiB (20%)Language : RussianDefault : YesAlternate group : 1Encoded date : UTC 2017-04-27 06:26:33Tagged date : UTC 2017-04-27 06:26:34
</div>
</div>

Трекер:  [ 27-Апр-2017 09:00 ]

  

Скачать .torrent

Размер .torrent файла 12 KB


Размер: 588 MB
Хэш (hash) релиза: 35a02829f0f466b42de510e29dfb938ed4fe4f2d

Торренты, похожие на [VIDEO] Кин-дза-дза! скачать торрент

Форум Название Автор Размер S L Добавлен
Видео (Фильмы/Клипы) ·· [VIDEO] Кин-дза-дза! (Георгий Данелия) [1986, фантастика, драма, комедия, BDRip] [MP4, 960x] Galfimbul 17487135241.63 GB 0 0 1493223162

19:12

26-Апр-17

Видео (Фильмы/Клипы) ·· [VIDEO] Кин-дза-дза! (Георгий Данелия) [1986, фантастика, драма, комедия, DVDRip] [MP4, 320x] Galfimbul 468322160447 MB 0 0 1344614040

18:54

10-Авг-12

Еще никто не оставлял запись к записи скачать торрент [VIDEO] Кин-дза-дза! . Будь первым!

!Обратная связь