Télécharger Part 13 | Godzilla.City.on.the.Edge.of.Battle.2018.HDRip.XviD.AC3-EVO[EtMovies] | Feel_And_Johnny_Norberg-One_Dream-(TM058)-WEB-2016-UKHx

Скачать через торрент [VIDEO] Чародеи бесплатно русская версия torrent активатор

Статистика раздачи
Размер:  612 MB   |    Зарегистрирован:  1 год 2 месяца   |    .torrent скачан:  33 раза   |   
Раздают:  1  
   
загрузка...
 
Автор Сообщение

Galfimbul

avatar Galfimbul


Чародеи

Год выпуска: 1982
Страна: СССР
Жанр: мюзикл, фантастика, мелодрама, комедия
Продолжительность: 01:10:22
Перевод: не требуется
Cубтитры: нет
Режиссер: Константин Бромберг
В ролях: Александра Яковлева, Александр Абдулов, Валентин Гафт, Екатерина Васильева, Валерий Золотухин, Эммануил Виторган, Михаил Светин, Роман Филиппов, Семен Фарада, Аня Ашимова, Е.Абрамова, И.Бельгер, В.Смоляницкая, Лилия Макеева, Леонид Харитонов, Николай Парфенов и другие .
Описание: Новогодняя сказка о том, что настоящая любовь может творить чудеса. В институте «НУИНУ» (научный универсальный институт необыкновенных услуг) кипит бурная работа по изготовлению волшебной палочки. Презентация изобретения намечена на 31 декабря, в Новогодний вечер. Но тут в дело вступают противники директора института, преследующие свои цели…
Релиз группы
Качество: DVDRip / рип с DVD9
Формат: MP4
Видео кодек: H.264
Аудио кодек: AAC
Видео: 480x360 AR:1.33 1080 kbps 25 fps
Аудио: 2ch 48 kHz 128 kbps
avs [info]: 480x360p 1:1 @ 25/1 fps (cfr)
x264 [info]: using SAR=1/1
x264 [info]: using cpu capabilities: MMX2 SSE2Fast SSSE3 SSE4.2 AVX FMA3 AVX2 LZCNT BMI2
x264 [info]: profile High, level 4.1

x264 [info]: frame I:683 Avg QP:17.53 size: 33002
x264 [info]: frame P:22124 Avg QP:20.47 size: 11749
x264 [info]: frame B:82748 Avg QP:22.87 size: 3471
x264 [info]: consecutive B-frames: 1.3% 1.8% 6.4% 22.2% 18.3% 40.2% 6.0% 2.3% 1.4%
x264 [info]: mb I I16..4: 1.6% 73.8% 24.6%
x264 [info]: mb P I16..4: 0.3% 7.7% 1.3% P16..4: 31.0% 37.9% 17.4% 3.2% 0.4% skip: 0.8%
x264 [info]: mb B I16..4: 0.0% 0.7% 0.1% B16..8: 35.1% 22.7% 4.0% direct: 6.9% skip:30.5% L0:35.3% L1:40.9% BI:23.8%
x264 [info]: 8x8 transform intra:81.4% inter:51.7%
x264 [info]: direct mvs spatial:98.1% temporal:1.9%
x264 [info]: coded y,uvDC,uvAC intra: 96.6% 81.2% 49.8% inter: 31.3% 18.8% 5.1%
x264 [info]: i16 v,h,dc,p: 20% 42% 4% 34%
x264 [info]: i8 v,h,dc,ddl,ddr,vr,hd,vl,hu: 13% 8% 7% 9% 13% 13% 12% 11% 12%
x264 [info]: i4 v,h,dc,ddl,ddr,vr,hd,vl,hu: 16% 11% 3% 9% 13% 13% 12% 11% 12%
x264 [info]: i8c dc,h,v,p: 31% 27% 24% 18%
x264 [info]: Weighted P-Frames: Y:28.5% UV:9.4%
x264 [info]: ref P L0: 45.4% 12.5% 16.9% 7.2% 5.5% 4.0% 3.5% 2.1% 2.2% 0.7% 0.0%
x264 [info]: ref B L0: 85.9% 7.4% 2.7% 1.4% 0.9% 0.8% 0.5% 0.2%
x264 [info]: ref B L1: 97.1% 2.9%
x264 [info]: kb/s:1079.47

encoded 105555 frames, 25.57 fps, 1079.47 kb/s
GeneralComplete name : D:\Torrents\Чародеи.1982.DVDRip.x264.640x.rip by Frost O.S.mp4Format : MPEG-4Format profile : Base MediaCodec ID : isom (isom/avc1)File size : 612 MiBDuration : 1 h 10 minOverall bit rate mode : VariableOverall bit rate : 1 215 kb/sMovie name : Чародеи 1982 DVDRip x264 640x rip by Frost O SDirector : Константин БромбергActor : Александра Яковлева / Александр Абдулов / Валентин Гафт / Екатерина Васильева / Валерий Золотухин / Эммануил Виторган / Михаил Светин / Роман Филиппов / Семен Фарада / Аня Ашимова / Е.Абрамова / И.Бельгер / В.Смоляницкая / Лилия Макеева / Леонид Харитонов / Николай ПарфеновGenre : ComedyContentType : Short FilmEncoded date : UTC 2017-04-26 17:59:16Tagged date : UTC 2017-04-26 17:59:56Writing application : MkvToMp4 version: 0.224 (x64)Cover : YesComment : rip by Frost O.SLongDescription : Новогодняя сказка о том, что настоящая любовь может творить чудеса. В институте «НУИНУ» (научный универсальный институт необыкновенных услуг) кипит бурная работа по изготовлению волшебной палочки. Презентация изобретения намечена на 31 декабря, в Новогодний вечер. Но тут в дело вступают противники директора института, преследующие свои цели…

VideoID : 1Format : AVCFormat/Info : Advanced Video CodecFormat profile : [email protected] settings, CABAC : YesFormat settings, ReFrames : 9 framesCodec ID : avc1Codec ID/Info : Advanced Video CodingDuration : 1 h 10 minBit rate : 1 080 kb/sMaximum bit rate : 3 703 kb/sWidth : 480 pixelsHeight : 360 pixelsDisplay aspect ratio : 4:3Frame rate mode : ConstantFrame rate : 25.000 FPSColor space : YUVChroma subsampling : 4:2:0Bit depth : 8 bitsScan type : ProgressiveBits/(Pixel*Frame) : 0.250Stream size : 543 MiB (89%)Writing library : x264 core 148 r2744 b97ae06Encoding settings : cabac=1 / ref=9 / deblock=1:-1:-1 / analyse=0x3:0x133 / me=umh / subme=11 / psy=1 / psy_rd=1.00:0.00 / mixed_ref=1 / me_range=48 / chroma_me=1 / trellis=2 / 8x8dct=1 / cqm=0 / deadzone=21,11 / fast_pskip=0 / chroma_qp_offset=-2 / threads=6 / lookahead_threads=1 / sliced_threads=0 / nr=0 / decimate=0 / interlaced=0 / bluray_compat=0 / constrained_intra=0 / bframes=8 / b_pyramid=2 / b_adapt=2 / b_bias=0 / direct=3 / weightb=1 / open_gop=0 / weightp=2 / keyint=250 / keyint_min=25 / scenecut=40 / intra_refresh=0 / rc=2pass / mbtree=0 / bitrate=1080 / ratetol=1.0 / qcomp=0.70 / qpmin=0 / qpmax=69 / qpstep=4 / cplxblur=20.0 / qblur=0.5 / ip_ratio=1.40 / pb_ratio=1.30 / aq=2:0.90Language : EnglishEncoded date : UTC 2017-04-26 17:59:16Tagged date : UTC 2017-04-26 17:59:35Color range : LimitedColor primaries : BT.601 PALTransfer characteristics : BT.470 System B, BT.470 System GMatrix coefficients : BT.601

AudioID : 2Format : AACFormat/Info : Advanced Audio CodecFormat profile : LCCodec ID : 40Duration : 1 h 10 minBit rate mode : VariableBit rate : 128 kb/sMaximum bit rate : 135 kb/sChannel(s) : 2 channelsChannel positions : Front: L RSampling rate : 48.0 kHzFrame rate : 46.875 FPS (1024 spf)Compression mode : LossyStream size : 64.4 MiB (11%)Language : RussianDefault : YesAlternate group : 1Encoded date : UTC 2017-04-26 17:59:27Tagged date : UTC 2017-04-26 17:59:35


Трекер:  [ 26-Апр-2017 20:00 ]

  

Скачать .torrent

Размер .torrent файла 12 KB


Размер: 612 MB
Хэш (hash) релиза: 6975b6dd9aaae4b6a20557179b905bde9cfd85ce

Торренты, похожие на [VIDEO] Чародеи скачать торрент

Форум Название Автор Размер S L Добавлен
Видео (Фильмы/Клипы) ·· [VIDEO] Чародеи (Константин Бромберг) [1982, мюзикл, фантастика, мелодрама, комедия, DVDRip] [MP4, 640x] Galfimbul 13324190351.24 GB 0 0 1526731581

15:06

19-Май-18

Еще никто не оставлял запись к записи скачать торрент [VIDEO] Чародеи . Будь первым!

!Обратная связь