• Ackley Bridge 5.4 | Aldnoah.Zero | Watch movie

Скачать через торрент [VIDEO] Кин-дза-дза! бесплатно русская версия torrent активатор

Статистика раздачи
Размер:  1.63 GB   |    Зарегистрирован:  1 год 2 месяца   |    .torrent скачан:  38 раз   |   
Раздают:  1  
   
загрузка...
 
Автор Сообщение

Galfimbul

avatar Galfimbul


Кин-дза-дза!

Год выпуска: 1986
Страна: СССР
Жанр: фантастика, драма, комедия
Продолжительность: первая серия 01:06:13 и вторая серия 01:06:37
Перевод: не требуется
Cубтитры: нет
Режиссер: Георгий Данелия
В ролях: Станислав Любшин, Евгений Леонов, Юрий Яковлев, Леван Габриадзе, Ольга Машная, Ирина Шмелева, Лев Перфилов, Георгий Данелия, Александра Дорохина, Галина Данелия-Юркова и другие .
Описание: Прораб Владимир Николаевич Машков и не подозревал, что обычный путь до универсама за хлебом и макаронами обернется межгалактическими путешествиями. А все эта встреча со студентом в кроличьей шапке с большой сумкой и с каким-то маленьким устройством — «машинкой перемещения», как он ее сам называл.
Короче, нажал на кнопку — и оказался вместе с молодым человеком в пустыне, и не в каких-нибудь Каракумах, а на планете-пустыне Плюк в тентуре, галактика Кин-дза-дза в спирали…
Релиз группы
Качество: BDRip / рип с Blu-ray disc 1080p
Формат: MP4
Видео кодек: H.264
Аудио кодек: AAC
<div class="post-box" style="border-color: #1B2838;">Первая серия
Видео: 736x536 AR:1.37 1740 kbps 23.976 fps
Аудио: 2ch 48 kHz 128 kbps</div>

<div class="post-box" style="border-color: #1B2838;">Вторая серия
Видео: 714x536 AR:1.33 1500 kbps 23.976 fps
Аудио: 2ch 48 kHz 128 kbps</div>
<div class="sp-wrap">
<div class="sp-head folded">Logx264</div>
<div class="sp-body">avs [info]: 736x536p 1:1 @ 2997/125 fps (cfr)
x264 [info]: using SAR=1/1
x264 [info]: using cpu capabilities: MMX2 SSE2Fast SSSE3 SSE4.2 AVX FMA3 AVX2 LZCNT BMI2
x264 [info]: profile High, level 4.1

x264 [info]: frame I:576 Avg QP:17.26 size: 65447
x264 [info]: frame P:19956 Avg QP:20.45 size: 22227
x264 [info]: frame B:74724 Avg QP:22.27 size: 5124
x264 [info]: consecutive B-frames: 1.7% 2.5% 8.1% 11.9% 16.9% 50.2% 7.9% 0.9%
x264 [info]: mb I I16..4: 1.6% 82.3% 16.1%
x264 [info]: mb P I16..4: 0.1% 7.0% 0.7% P16..4: 32.3% 41.1% 17.5% 0.0% 0.0% skip: 1.2%
x264 [info]: mb B I16..4: 0.0% 0.3% 0.0% B16..8: 37.7% 20.7% 4.5% direct: 4.7% skip:32.1% L0:39.0% L1:50.0% BI:11.0%
x264 [info]: 8x8 transform intra:87.4% inter:56.0%
x264 [info]: direct mvs spatial:97.6% temporal:2.4%
x264 [info]: coded y,uvDC,uvAC intra: 97.8% 64.1% 27.0% inter: 25.0% 11.9% 2.2%
x264 [info]: i16 v,h,dc,p: 16% 17% 8% 59%
x264 [info]: i8 v,h,dc,ddl,ddr,vr,hd,vl,hu: 10% 7% 10% 11% 14% 13% 13% 11% 12%
x264 [info]: i4 v,h,dc,ddl,ddr,vr,hd,vl,hu: 14% 6% 3% 9% 15% 15% 13% 12% 12%
x264 [info]: i8c dc,h,v,p: 30% 37% 19% 14%
x264 [info]: Weighted P-Frames: Y:4.9% UV:1.6%
x264 [info]: ref P L0: 48.8% 13.0% 16.5% 5.3% 5.0% 3.4% 3.7% 1.9% 2.3% 0.1% 0.0%
x264 [info]: ref B L0: 81.7% 9.0% 3.7% 1.9% 1.4% 1.2% 0.8% 0.3%
x264 [info]: ref B L1: 95.7% 4.3%
x264 [info]: kb/s:1740.09

encoded 95256 frames, 13.93 fps, 1740.09 kb/s
GeneralComplete name : D:\Torrents\Кин-дза-дза!.1986.BDRip.x264.960x\Кин-дза-дза!.(1 серия).1986.BDRip.x264.960x.rip by Frost O.S.mp4Format : MPEG-4Format profile : Base MediaCodec ID : isom (isom/avc1)File size : 888 MiBDuration : 1 h 6 minOverall bit rate mode : VariableOverall bit rate : 1 876 kb/sMovie name : Кин-дза-дза! (1 серия) 1986 BDRip x264 960x rip by Frost O SDirector : Георгий ДанелияActor : Станислав Любшин / Евгений Леонов / Юрий Яковлев / Леван Габриадзе / Ольга Машная / Ирина Шмелева / Лев Перфилов / Георгий Данелия / Александра Дорохина / Галина Данелия-ЮрковаGenre : FantasyContentType : Short FilmEncoded date : UTC 2017-04-26 15:53:50Tagged date : UTC 2017-04-26 15:54:44Writing application : MkvToMp4 version: 0.224 (x64)Cover : YesComment : rip by Frost O.SLongDescription : Прораб Владимир Николаевич Машков и не подозревал, что обычный путь до универсама за хлебом и макаронами обернется межгалактическими путешествиями. А все эта встреча со студентом в кроличьей шапке с большой сумкой и с каким-то маленьким устройством — «машинкой перемещения», как он ее сам называл. Короче, нажал на кнопку — и оказался вместе с молодым человеком в пустыне, и не в каких-нибудь Каракумах, а на планете-пустыне Плюк в тентуре, галактика Кин-дза-дза в спирали…

VideoID : 1Format : AVCFormat/Info : Advanced Video CodecFormat profile : [email protected] settings, CABAC : YesFormat settings, ReFrames : 9 framesCodec ID : avc1Codec ID/Info : Advanced Video CodingDuration : 1 h 6 minBit rate : 1 740 kb/sMaximum bit rate : 4 418 kb/sWidth : 736 pixelsHeight : 536 pixelsDisplay aspect ratio : 1.373Frame rate mode : ConstantFrame rate : 23.976 (24000/1001) FPSOriginal frame rate : 23.976 (23976/1000) FPSColor space : YUVChroma subsampling : 4:2:0Bit depth : 8 bitsScan type : ProgressiveBits/(Pixel*Frame) : 0.184Stream size : 824 MiB (93%)Writing library : x264 core 148 r2744 b97ae06Encoding settings : cabac=1 / ref=9 / deblock=1:-1:-1 / analyse=0x3:0x113 / me=umh / subme=11 / psy=1 / psy_rd=1.00:0.00 / mixed_ref=1 / me_range=32 / chroma_me=1 / trellis=2 / 8x8dct=1 / cqm=0 / deadzone=21,11 / fast_pskip=0 / chroma_qp_offset=-2 / threads=6 / lookahead_threads=1 / sliced_threads=0 / nr=0 / decimate=0 / interlaced=0 / bluray_compat=0 / constrained_intra=0 / bframes=7 / b_pyramid=2 / b_adapt=2 / b_bias=0 / direct=3 / weightb=1 / open_gop=0 / weightp=2 / keyint=250 / keyint_min=23 / scenecut=40 / intra_refresh=0 / rc=2pass / mbtree=0 / bitrate=1740 / ratetol=1.0 / qcomp=0.70 / qpmin=0 / qpmax=69 / qpstep=4 / cplxblur=20.0 / qblur=0.5 / ip_ratio=1.40 / pb_ratio=1.30 / aq=3:0.80Language : EnglishEncoded date : UTC 2017-04-26 15:53:50Tagged date : UTC 2017-04-26 15:54:15Color range : LimitedColor primaries : BT.709Transfer characteristics : BT.709Matrix coefficients : BT.709

AudioID : 2Format : AACFormat/Info : Advanced Audio CodecFormat profile : LCCodec ID : 40Duration : 1 h 6 minBit rate mode : VariableBit rate : 128 kb/sMaximum bit rate : 135 kb/sChannel(s) : 2 channelsChannel positions : Front: L RSampling rate : 48.0 kHzFrame rate : 46.875 FPS (1024 spf)Compression mode : LossyStream size : 60.6 MiB (7%)Language : RussianDefault : YesAlternate group : 1Encoded date : UTC 2017-04-26 15:54:06Tagged date : UTC 2017-04-26 15:54:15
</div>
</div>
<div class="sp-wrap">
<div class="sp-head folded">Logx264</div>
<div class="sp-body">avs [info]: 714x536p 1:1 @ 2997/125 fps (cfr)
x264 [info]: using SAR=1/1
x264 [info]: using cpu capabilities: MMX2 SSE2Fast SSSE3 SSE4.2 AVX FMA3 AVX2 LZCNT BMI2
x264 [info]: profile High, level 4.1

x264 [info]: frame I:544 Avg QP:17.28 size: 61411
x264 [info]: frame P:21172 Avg QP:20.67 size: 18040
x264 [info]: frame B:74101 Avg QP:22.67 size: 4509
x264 [info]: consecutive B-frames: 2.1% 3.0% 9.8% 17.4% 16.0% 42.8% 3.9% 2.3% 2.8%
x264 [info]: mb I I16..4: 2.8% 78.5% 18.7%
x264 [info]: mb P I16..4: 0.2% 5.1% 0.9% P16..4: 35.9% 41.6% 14.7% 0.0% 0.0% skip: 1.7%
x264 [info]: mb B I16..4: 0.0% 0.4% 0.1% B16..8: 37.0% 19.0% 3.2% direct: 4.6% skip:35.7% L0:41.3% L1:48.5% BI:10.2%
x264 [info]: 8x8 transform intra:80.0% inter:61.0%
x264 [info]: direct mvs spatial:98.1% temporal:1.9%
x264 [info]: coded y,uvDC,uvAC intra: 95.7% 76.9% 40.5% inter: 23.7% 14.7% 3.1%
x264 [info]: i16 v,h,dc,p: 11% 28% 3% 57%
x264 [info]: i8 v,h,dc,ddl,ddr,vr,hd,vl,hu: 9% 7% 5% 11% 16% 15% 14% 12% 12%
x264 [info]: i4 v,h,dc,ddl,ddr,vr,hd,vl,hu: 12% 8% 2% 9% 15% 15% 14% 12% 12%
x264 [info]: i8c dc,h,v,p: 32% 28% 21% 19%
x264 [info]: Weighted P-Frames: Y:11.4% UV:6.3%
x264 [info]: ref P L0: 48.3% 12.1% 15.8% 5.8% 5.3% 3.8% 3.9% 2.1% 2.5% 0.4% 0.0%
x264 [info]: ref B L0: 76.5% 10.3% 4.9% 2.7% 2.0% 1.8% 1.2% 0.5%
x264 [info]: ref B L1: 95.1% 4.9%
x264 [info]: kb/s:1500.30

encoded 95817 frames, 15.22 fps, 1500.30 kb/s
GeneralComplete name : D:\Torrents\Кин-дза-дза!.1986.BDRip.x264.960x\Кин-дза-дза!.(2 серия).1986.BDRip.x264.960x.rip by Frost O.S.mp4Format : MPEG-4Format profile : Base MediaCodec ID : isom (isom/avc1)File size : 779 MiBDuration : 1 h 6 minOverall bit rate mode : VariableOverall bit rate : 1 636 kb/sMovie name : Кин-дза-дза! (2 серия) 1986 BDRip x264 960x rip by Frost O SDirector : Георгий ДанелияActor : Станислав Любшин / Евгений Леонов / Юрий Яковлев / Леван Габриадзе / Ольга Машная / Ирина Шмелева / Лев Перфилов / Георгий Данелия / Александра Дорохина / Галина Данелия-ЮрковаGenre : FantasyContentType : Short FilmEncoded date : UTC 2017-04-26 15:57:34Tagged date : UTC 2017-04-26 15:58:22Writing application : MkvToMp4 version: 0.224 (x64)Cover : YesComment : rip by Frost O.SLongDescription : Прораб Владимир Николаевич Машков и не подозревал, что обычный путь до универсама за хлебом и макаронами обернется межгалактическими путешествиями. А все эта встреча со студентом в кроличьей шапке с большой сумкой и с каким-то маленьким устройством — «машинкой перемещения», как он ее сам называл. / Короче, нажал на кнопку — и оказался вместе с молодым человеком в пустыне, и не в каких-нибудь Каракумах, а на планете-пустыне Плюк в тентуре, галактика Кин-дза-дза в спирали…

VideoID : 1Format : AVCFormat/Info : Advanced Video CodecFormat profile : [email protected] settings, CABAC : YesFormat settings, ReFrames : 9 framesCodec ID : avc1Codec ID/Info : Advanced Video CodingDuration : 1 h 6 minBit rate : 1 500 kb/sMaximum bit rate : 4 241 kb/sWidth : 714 pixelsHeight : 536 pixelsDisplay aspect ratio : 4:3Frame rate mode : ConstantFrame rate : 23.976 (24000/1001) FPSOriginal frame rate : 23.976 (23976/1000) FPSColor space : YUVChroma subsampling : 4:2:0Bit depth : 8 bitsScan type : ProgressiveBits/(Pixel*Frame) : 0.163Stream size : 715 MiB (92%)Writing library : x264 core 148 r2744 b97ae06Encoding settings : cabac=1 / ref=9 / deblock=1:-1:-1 / analyse=0x3:0x113 / me=umh / subme=11 / psy=1 / psy_rd=1.00:0.00 / mixed_ref=1 / me_range=32 / chroma_me=1 / trellis=2 / 8x8dct=1 / cqm=0 / deadzone=21,11 / fast_pskip=0 / chroma_qp_offset=-2 / threads=6 / lookahead_threads=1 / sliced_threads=0 / nr=0 / decimate=0 / interlaced=0 / bluray_compat=0 / constrained_intra=0 / bframes=8 / b_pyramid=2 / b_adapt=2 / b_bias=0 / direct=3 / weightb=1 / open_gop=0 / weightp=2 / keyint=250 / keyint_min=23 / scenecut=40 / intra_refresh=0 / rc=2pass / mbtree=0 / bitrate=1500 / ratetol=1.0 / qcomp=0.70 / qpmin=0 / qpmax=69 / qpstep=4 / cplxblur=20.0 / qblur=0.5 / ip_ratio=1.40 / pb_ratio=1.30 / aq=2:0.80Language : EnglishEncoded date : UTC 2017-04-26 15:57:34Tagged date : UTC 2017-04-26 15:57:51Color range : LimitedColor primaries : BT.709Transfer characteristics : BT.709Matrix coefficients : BT.709

AudioID : 2Format : AACFormat/Info : Advanced Audio CodecFormat profile : LCCodec ID : 40Duration : 1 h 6 minBit rate mode : VariableBit rate : 128 kb/sMaximum bit rate : 135 kb/sChannel(s) : 2 channelsChannel positions : Front: L RSampling rate : 48.0 kHzFrame rate : 46.875 FPS (1024 spf)Compression mode : LossyStream size : 61.0 MiB (8%)Language : RussianDefault : YesAlternate group : 1Encoded date : UTC 2017-04-26 15:57:44Tagged date : UTC 2017-04-26 15:57:51
</div>
</div>

Трекер:  [ 26-Апр-2017 18:00 ]

  

Скачать .torrent

Размер .torrent файла 17 KB


Размер: 1.63 GB
Хэш (hash) релиза: c036b9adf48ca1296c426e0d8e375c438e55b5e1

Торренты, похожие на [VIDEO] Кин-дза-дза! скачать торрент

Форум Название Автор Размер S L Добавлен
Видео (Фильмы/Клипы) ·· [VIDEO] Кин-дза-дза! (Георгий Данелия) [1986, фантастика, драма, комедия, HDRip] [MP4, 480x] Galfimbul 616471756588 MB 0 0 1493277420

10:17

27-Апр-17

Видео (Фильмы/Клипы) ·· [VIDEO] Кин-дза-дза! (Георгий Данелия) [1986, фантастика, драма, комедия, DVDRip] [MP4, 320x] Galfimbul 468322160447 MB 0 0 1344614040

18:54

10-Авг-12

Еще никто не оставлял запись к записи скачать торрент [VIDEO] Кин-дза-дза! . Будь первым!

!Обратная связь