Télécharger Part 12 | Mobilism | Unter der Trikolore

Скачать через торрент музыку SHUNSUKE KIKUCHI BGM COLLECTION 菊池俊輔BGMコレクョン - 1991, FLAC бесплатно без регистрации torrent

Статистика раздачи
Размер:  674 MB   |    Зарегистрирован:  1 год 2 месяца   |    .torrent скачан:  24 раза   |   
Раздают:  1  
   
загрузка...
 
Автор Сообщение

Galfimbul

avatar Galfimbul


SHUNSUKE KIKUCHI BGM COLLECTION / 菊池俊輔BGMコレクョン (1991)

Название альбома: 菊池俊輔BGMコレクョン
Композитор: Shunsuke Kikuchi
Год выпуска: 1991 (First Press, COCC-7239~40)
Страна: Япония
Аудио кодек: FLAC (*.flac)
Тип рипа: tracks+.cue
Битрейт аудио: lossless
Продолжительность: 02:32:52
Наличие сканов в содержимом раздачи: передняя под спойлером (от репринта 1995 года)
Издание 1991 года. Теги проставлены на японском языке. Обложка вшита (от репринта 1995 года).

CD1 (COCC-7239)
TIGER MASK (01~09) 01,09 lyrics by Nashio Kitani, vocal by Hiroshi Nitta
CASSHERN (10~18) 10,18 lyrics by Tatsunoko Pro Dakushon Kikaku Bungeibu (竜の子プロダクション企画文芸部), vocal by Isao Sasaki
BONUS TRACK 19 TIGER MASK 20 GETTER ROBO 21 GETTER ROBO G

CD2 (COCC-7240)
GETTER ROBO (01~09) 01 lyrics by Go Nagai, vocal by Isao Sasaki 09 lyrics by Takashi Izumi (和泉高志), vocal by Isao Sasaki, Columbia Yurikago-kai
UFO ROBOT GRENDIZER (10~18) 10 lyrics by Kougo Hotomi, vocal by Isao Sasaki, Columbia Yurikago-kai 18 lyrics by Kougo Hotomi, vocal by Isao Sasaki, Koorogi '73
BONUS TRACK 19 THE GREAT BATTLE OF THE FLYING SAUCERS 20 UFO ROBOT GRENDIZER 21 PLANET ROBO DANGUARD ACE

vgmdb
Accurate RIPs made with the excellent XLD software (MacOSX equivalent –and better– to EAC for Windows) from my own retail CD (the first press one, but the reprint is exactly the same album).
All files are properly tagged in Japanese to match exactly with original inlet tracklistings.
CUE and LOG files are coded in Unicode (UTF-8) because of Japanese and special typography.
- DaveKramer, ffshrine
01 オープニング・テーマ「タイガーマスク」 1:2902 テーマ・ヴァリエーション ①タイガー・マスクは行く ②去りゆくタイガー・マスク ③みなしごのバラード 3:1503 アクションBGM ①勝ち進むタイガー・マスク ②「虎の穴」の訓練 ③対立 ④対決の時 ⑤迫る悪の影 ⑥悪の攻撃 6:3904 情景描写BGM ①スリラー ②忍び寄る影 ③悪の行動 ④尾行 ⑤「虎の穴」の恐怖 5:4705 心理描写BGM ①緊迫 ②孤独 ③悲しみのライバル ④暗い過去 4:3106 人物その他テーマ ①直人ひとりさびしく ②ルリ子寂しく ③虎の穴 3:0807 ブリッジ、コード ①~⑤ 1:1508 エンディング ①緊迫高まって ②静かに 0:5009 エンディング、テーマ「みなしごのバラード」 1:1910 オープニング・テーマ「たたかえ! キャシャーン」 1:0511 テーマ・ヴァリエーション ①重い心のキャシャーン ②悲しみ高まって ③平和 3:4412 アクションBGM ①作り出されるロボット群 ②フレンダーとともに ③ずっこけ悪 ④追跡 ⑤敵地潜入 4:5613 情景描写BGM ①眠るキャシャーン ②異様な気配 ③廃虚 ④重苦しい戦い ⑤つかの間の平和 4:5914 心理描写BGM ①幻想 ②甘い思い出 ③母への思い ④続く緊張 ⑤悲しみの中で 6:3715 人物のテーマ ①ルナ淋しく ②母と子 2:5216 ブリッジ・コード ①~⑤ 1:1417 エンディング ①力つきて悲痛な戦い ②明日への希望ふくらんで ③大団円 2:3018 エンディング・テーマ「おれは新造人間」 0:4519 「タイガーマスク」未収録音楽 ①~⑦ 8:0520 「ゲッター・ロボ」未収録音楽 ①~⑥ 5:1721 「ゲッター・ロボG」未収録音楽 ①~⑥ 0:57
01 オープニング・テーマ「ゲッター・ロボ!」 1:1002 テーマ・ヴァリエーション ①悲しみ ②戦闘 3:2903 アクションBGM ①悪の総攻撃 ②対決 ③大危険 ④空中戦 ⑤悪の追撃 6:0804 情景描写BGM ①百鬼ロボット出撃 ②ゲットマシーン発進 ③合体訓練 ④悪の出現 ⑤危機迫る 5:2505 心理描写BGM ①哀しみ ②不安 2:5006 人物・その他のテーマ ①ベンケイのテーマ ②文次のテーマ ③メカザウルス ④大魔人ユラー ⑤ヒドラー元帥 6:1907 ブリッジ、コード ①~⑤ 1:1508 エンディング ①迫り来る悪の恐怖 0:4109 エンディング・テーマ「合体! ゲッター・ロボ」/「不滅のマシン・ゲッター・ロボ」 2:2310 オープニング・テーマ「とべ! グレンダイザー」 1:0811 テーマ・ヴァリエーション ①グレンダイザー発進 ②戦闘 ③戦い終わって 4:5812 アクションBGM ①勇ましい訓練 ②追撃 ③団兵衛の立廻り ④悪の襲来 ⑤襲来してくるUFO 6:1013 情景描写BGM ①洞穴探索 ②白樺牧場 ③宇宙に浮かぶUFO ④危機感 ⑤闇の恐怖 5:4314 心理描写BGM ①忍びよる影 ②遥かな想い 2:2715 人物のテーマ ①デューク・フリードのテーマ ②ヒカルのテーマ 2:1416 ブリッジ、コード ①~⑤ 1:0517 エンディング ①つのる不安 ②迫る危機 ③喜びあふれて ④希望を胸に 3:3218 エンディング・テーマ「宇宙の王者グレンダイザー」 1:0919 「宇宙円盤大戦争」未収録音楽 ①~④ 2:3820 「UFOロボグレンダイザー」未収録音楽 ①~⑤ 5:3721 「惑星ロボダンガードA」主要音楽 ①~⑧ 9:48
01 OPENING THEME [TIGER MASK] 1:2902 THEME VARIATION ①Go Tiger Mask ②Tiger Mask goes away ③Ballad of orphans 3:1503 ACTION BGM ①The furtest Tiger Mask ②Training in the Tiger cave ③Conflict ④Time of confrontation ⑤Shadow of evil urges ⑥Attack of the evil 6:3904 SCENE DESCRIPTION BGM ①Thriller ②Creeping shadows ③Behaviour of evil ④Shadowing ⑤Fear of the Tiger cave 5:4705 PSYCHOLOGICAL DESCRIPTION BGM ①Tension ②Lonely ③Rivals of sorrow ④Dark past 4:3106 THEME OF CHARACTERS AND OTHER ①Naoto the lonely one ②Lonely Ruriko ③Tiger cave 3:0807 BRIDGE CHORDS ①~⑤ 1:1508 ENDING ①Rising tension ②In the quiet 0:5009 ENDING THEME [BALLAD OF ORPHANS] 1:1910 OPENING THEME [FIGHT! CASSHERN] 1:0511 THEME VARIATION ①Casshern heavy heart ②Growing sadness ③Peace 3:4412 ACTION BGM ①Robots are produced ②With Furenda ③Foolish evil ④Tracking ⑤Enemy territory infiltration 4:5613 SCENE DESCRIPTION BGM ①Casshern sleep ②Strange signs ③Ruin ④Heavy battle ⑤Brief peace 4:5914 PSYCHOLOGICAL DESCRIPTION BGM ①Fantasy ②Sweet memories ③Her mother ④Continued tension ⑤In sorrow 6:3715 THEME OF CHARACTERS ①Lonely Luna ②Mother and child 2:5216 BRIDGE CHORDS ①~⑤ 1:1417 ENDING ①Heartbreaking battle exhaustion ②The puffy hope for tomorrow ③Grand Finale 2:3018 ENDING THEME [I AM A NEO SAPIEN] 0:4519 [TIGER MASK] UNRELEASED MUSIC ①~⑦ 8:0520 [GETTER ROBO] UNRELEASED MUSIC ①~⑥ 5:1721 [GETTER ROBO G] UNRELEASED MUSIC ①~⑥ 0:57
01 OPENING THEME [GETTER ROBO!] 1:1002 THEME VARIATION ①Sadness ②Combat 3:2903 ACTION BGM ①Total attack of the evil ②Showdown ③Great danger ④Air combat ⑤Evil Chase 6:0804 SCENE DESCRIPTION BGM ①Hyakki robotic missions ②Get machine launch ③Combined training ④Appearance of evil ⑤Approaching crisis 5:2505 PSYCHOLOGICAL DESCRIPTION BGM ①Sorrow ②Anxiety 2:5006 THEME OF CHARACTERS AND OTHER ①Theme of Benkei ②Theme of Monji ③Mechasaurus ④Great Demon Yura ⑤Hidler marshal 6:1907 BRIDGE CHORDS ①~⑤ 1:1508 ENDING ①Fear of evil looming 0:4109 ENDING THEME [GATTAI! GETTER ROBO]/[IMMORTAL MACHINE GETTER ROBO] 2:2310 OPENING THEME [FLY! GRENDIZER] 1:0811 THEME VARIATION ①Grendizer launch ②Combat ③After the battle 4:5812 ACTION BGM ①Brave training ②Chase ③Danbei stand around ④Onslaught of evil ⑤UFO the coming onslaught 6:1013 SCENE DESCRIPTION BGM ①Cave search ②Birch ranch ③UFO floats in outer space ④Sense of danger ⑤Fear of darkness 5:4314 PSYCHOLOGICAL DESCRIPTION BGM ①Creeping shadows ②Faraway thoughts 2:2715 THEME OF CHARACTERS ①Theme of Duke Fleed ②Theme of Hikaru 2:1416 BRIDGE CHORDS ①~⑤ 1:0517 ENDING ①Growing anxiety ②Looming crisis ③Full of joy ④Hope in the heart 3:3218 ENDING THEME [KING OF THE UNIVERSE GRENDIZER] 1:0919 [THE GREAT BATTLE OF FLYING SAUCERS] UNRELEASED MUSIC ①~④ 2:3820 [UFO ROBOT GRENDIZER] UNRELEASED MUSIC ①~⑤ 5:3721 [PLANET ROBO DANGUARD ACE] MAIN MUSIC ①~⑧ 9:48
X Lossless Decoder version 20141129 (148.1)

XLD extraction logfile from 2015-02-04 17:49:07 +0100

菊池俊輔 / 菊池俊輔BGMコレクョン

Used drive : Optiarc DVD RW AD-7170S (revision 1.03)Media type : Pressed CD

Ripper mode : XLD Secure RipperDisable audio cache : OK for the drive with a cache less than 1375KiBMake use of C2 pointers : NORead offset correction : 48Max retry count : 100Gap status : Analyzed, Appended

TOC of the extracted CD Track | Start | Length | Start sector | End sector --------------------------------------------------------- 1 | 00:00:00 | 01:31:55 | 0 | 6879 2 | 01:31:55 | 03:15:65 | 6880 | 21569 3 | 04:47:45 | 06:41:18 | 21570 | 51662 4 | 11:28:63 | 05:47:30 | 51663 | 77717 5 | 17:16:18 | 04:33:57 | 77718 | 98249 6 | 21:50:00 | 03:10:08 | 98250 | 112507 7 | 25:00:08 | 01:17:55 | 112508 | 118337 8 | 26:17:63 | 00:52:67 | 118338 | 122304 9 | 27:10:55 | 01:23:60 | 122305 | 128589 10 | 28:34:40 | 01:06:60 | 128590 | 133599 11 | 29:41:25 | 03:44:68 | 133600 | 150467 12 | 33:26:18 | 04:57:72 | 150468 | 172814 13 | 38:24:15 | 04:58:20 | 172815 | 195184 14 | 43:22:35 | 06:37:55 | 195185 | 225014 15 | 50:00:15 | 02:53:18 | 225015 | 238007 16 | 52:53:33 | 01:16:30 | 238008 | 243737 17 | 54:09:63 | 02:32:17 | 243738 | 255154 18 | 56:42:05 | 00:49:70 | 255155 | 258899 19 | 57:32:00 | 06:58:55 | 258900 | 290304 20 | 64:30:55 | 05:20:70 | 290305 | 314374 21 | 69:51:50 | 05:57:25 | 314375 | 341174

AccurateRip Summary Disc not found in AccurateRip DB.

All Tracks Album gain : -3.06 dB Peak : 1.000000 Statistics Read error : 0 Jitter error (maybe fixed) : 2 Retry sector count : 6 Damaged sector count : 0

Track 01 Filename : 01 オープニング・テーマ「タイガーマスク」.flac Pre-gap length : 00:02:00

Track gain : -4.08 dB Peak : 0.789154 CRC32 hash : 18593E1C CRC32 hash (skip zero) : 51E07629 AccurateRip v1 signature : E173C77D AccurateRip v2 signature : 677B30CA ->Track not present in AccurateRip database. Statistics Read error : 0 Jitter error (maybe fixed) : 0 Retry sector count : 0 Damaged sector count : 0

Track 02 Filename : 02 テーマ・ヴァリエーション ①タイガー・マスクは行く ②去りゆくタイガー・マスク ③みなしごのバラード.flac Pre-gap length : 00:00:30

Track gain : -1.33 dB Peak : 0.721436 CRC32 hash : 0304E524 CRC32 hash (skip zero) : F9D75372 AccurateRip v1 signature : 77F1AFC1 AccurateRip v2 signature : E3A0609B ->Track not present in AccurateRip database. Statistics Read error : 0 Jitter error (maybe fixed) : 0 Retry sector count : 0 Damaged sector count : 0

Track 03 Filename : 03 アクションBGM ①勝ち進むタイガー・マスク ②「虎の穴」の訓練 ③対立 ④対決の時 ⑤迫る悪の影 ⑥悪の攻撃.flac Pre-gap length : 00:00:50

Track gain : -2.41 dB Peak : 0.824066 CRC32 hash : AC11FA5D CRC32 hash (skip zero) : 9F2CB410 AccurateRip v1 signature : 43BE18A2 AccurateRip v2 signature : C248858C ->Track not present in AccurateRip database. Statistics Read error : 0 Jitter error (maybe fixed) : 0 Retry sector count : 0 Damaged sector count : 0

Track 04 Filename : 04 情景描写BGM ①スリラー ②忍び寄る影 ③悪の行動 ④尾行 ⑤「虎の穴」の恐怖.flac Pre-gap length : 00:00:25

Track gain : 1.80 dB Peak : 0.690247 CRC32 hash : 39456644 CRC32 hash (skip zero) : EB7E1E46 AccurateRip v1 signature : 3824741A AccurateRip v2 signature : 274D0F66 ->Track not present in AccurateRip database. Statistics Read error : 0 Jitter error (maybe fixed) : 0 Retry sector count : 0 Damaged sector count : 0

Track 05 Filename : 05 心理描写BGM ①緊迫 ②孤独 ③悲しみのライバル ④暗い過去.flac Pre-gap length : 00:01:38

Track gain : 0.66 dB Peak : 0.703613 CRC32 hash : B26C3418 CRC32 hash (skip zero) : ADCAD4C0 AccurateRip v1 signature : 48301385 AccurateRip v2 signature : 0C907E23 ->Track not present in AccurateRip database. Statistics Read error : 0 Jitter error (maybe fixed) : 0 Retry sector count : 0 Damaged sector count : 0

Track 06 Filename : 06 人物その他テーマ ①直人ひとりさびしく ②ルリ子寂しく ③虎の穴.flac Pre-gap length : 00:01:25

Track gain : 0.57 dB Peak : 0.770782 CRC32 hash : 8009CA89 CRC32 hash (skip zero) : 708A8907 AccurateRip v1 signature : D41C17A9 AccurateRip v2 signature : D2E4ACD5 ->Track not present in AccurateRip database. Statistics Read error : 0 Jitter error (maybe fixed) : 0 Retry sector count : 0 Damaged sector count : 0

Track 07 Filename : 07 ブリッジ、コード ①~⑤.flac Pre-gap length : 00:01:33

Track gain : -1.76 dB Peak : 0.715240 CRC32 hash : B1D9F675 CRC32 hash (skip zero) : 7869FCE4 AccurateRip v1 signature : 70F2596A AccurateRip v2 signature : 7E7D4964 ->Track not present in AccurateRip database. Statistics Read error : 0 Jitter error (maybe fixed) : 0 Retry sector count : 0 Damaged sector count : 0

Track 08 Filename : 08 エンディング ①緊迫高まって ②静かに.flac Pre-gap length : 00:00:43

Track gain : -4.76 dB Peak : 0.999817 CRC32 hash : 28211218 CRC32 hash (skip zero) : 1E7620EC AccurateRip v1 signature : 3641D161 AccurateRip v2 signature : C42351CF ->Track not present in AccurateRip database. Statistics Read error : 0 Jitter error (maybe fixed) : 0 Retry sector count : 0 Damaged sector count : 0

Track 09 Filename : 09 エンディング、テーマ「みなしごのバラード」.flac Pre-gap length : 00:00:50

Track gain : 0.35 dB Peak : 0.638428 CRC32 hash : 17104EEB CRC32 hash (skip zero) : FF384A3E AccurateRip v1 signature : 2BED9C9A AccurateRip v2 signature : C611FC07 ->Track not present in AccurateRip database. Statistics Read error : 0 Jitter error (maybe fixed) : 0 Retry sector count : 0 Damaged sector count : 0

Track 10 Filename : 10 オープニング・テーマ「たたかえ!キャシャーン」.flac Pre-gap length : 00:02:35

Track gain : -4.18 dB Peak : 0.871002 CRC32 hash : CD2E8A5C CRC32 hash (skip zero) : CA12982F AccurateRip v1 signature : A7764079 AccurateRip v2 signature : A1E455E3 ->Track not present in AccurateRip database. Statistics Read error : 0 Jitter error (maybe fixed) : 0 Retry sector count : 0 Damaged sector count : 0

Track 11 Filename : 11 テーマ・ヴァリエーション ①重い心のキャシャーン ②悲しみ高まって ③平和.flac Pre-gap length : 00:01:22

Track gain : -2.87 dB Peak : 0.982666 CRC32 hash : 0A3EF937 CRC32 hash (skip zero) : 2DB46AA8 AccurateRip v1 signature : 855BD584 AccurateRip v2 signature : C2DC2E59 ->Track not present in AccurateRip database. Statistics Read error : 0 Jitter error (maybe fixed) : 0 Retry sector count : 0 Damaged sector count : 0

Track 12 Filename : 12 アクションBGM ①作り出されるロボット群 ②フレンダーとともに ③ずっこけ悪 ④追跡 ⑤敵地潜入.flac Pre-gap length : 00:01:05

Track gain : -2.04 dB Peak : 0.844574 CRC32 hash : 8A928000 CRC32 hash (skip zero) : D4485340 AccurateRip v1 signature : D81E39CB AccurateRip v2 signature : 2F0643AA ->Track not present in AccurateRip database. Statistics Read error : 0 Jitter error (maybe fixed) : 0 Retry sector count : 0 Damaged sector count : 0

Track 13 Filename : 13 情景描写BGM ①眠るキャシャーン ②異様な気配 ③廃虚 ④重苦しい戦い ⑤つかの間の平和.flac Pre-gap length : 00:01:47

Track gain : -2.59 dB Peak : 0.936005 CRC32 hash : 5416A70B CRC32 hash (skip zero) : 512EBB52 AccurateRip v1 signature : 47D5FE52 AccurateRip v2 signature : 42E0BEEF ->Track not present in AccurateRip database. Statistics Read error : 0 Jitter error (maybe fixed) : 0 Retry sector count : 0 Damaged sector count : 0

Track 14 Filename : 14 心理描写BGM ①幻想 ②甘い思い出 ③母への思い ④続く緊張 ⑤悲しみの中で.flac Pre-gap length : 00:00:65

Track gain : -2.62 dB Peak : 0.831787 CRC32 hash : 520DD9BC CRC32 hash (skip zero) : 1E4AEA5C AccurateRip v1 signature : 352885A7 AccurateRip v2 signature : 7D275990 ->Track not present in AccurateRip database. Statistics Read error : 0 Jitter error (maybe fixed) : 0 Retry sector count : 0 Damaged sector count : 0

Track 15 Filename : 15 人物のテーマ ①ルナ淋しく ②母と子.flac Pre-gap length : 00:00:37

Track gain : -0.95 dB Peak : 0.650421 CRC32 hash : 3B70DB7F CRC32 hash (skip zero) : 1C571805 AccurateRip v1 signature : 41CF4B21 AccurateRip v2 signature : CDA1E9F9 ->Track not present in AccurateRip database. Statistics Read error : 0 Jitter error (maybe fixed) : 0 Retry sector count : 0 Damaged sector count : 0

Track 16 Filename : 16 ブリッジ・コード ①~⑤.flac Pre-gap length : 00:01:10

Track gain : -2.48 dB Peak : 0.803711 CRC32 hash : B5299295 CRC32 hash (skip zero) : 08668942 AccurateRip v1 signature : C1F09420 AccurateRip v2 signature : D4ADFB69 ->Track not present in AccurateRip database. Statistics Read error : 0 Jitter error (maybe fixed) : 0 Retry sector count : 0 Damaged sector count : 0

Track 17 Filename : 17 エンディング ①力つきて悲痛な戦い ②明日への希望ふくらんで ③大団円.flac Pre-gap length : 00:01:25

Track gain : -4.80 dB Peak : 0.867645 CRC32 hash : ED6CBCA7 CRC32 hash (skip zero) : 28B6F47D AccurateRip v1 signature : 45A7F352 AccurateRip v2 signature : 91A02847 ->Track not present in AccurateRip database. Statistics Read error : 0 Jitter error (maybe fixed) : 0 Retry sector count : 0 Damaged sector count : 0

Track 18 Filename : 18 エンディング・テーマ「おれは新造人間」.flac Pre-gap length : 00:01:22

Track gain : -3.95 dB Peak : 0.924225 CRC32 hash : 3108E810 CRC32 hash (skip zero) : F9511375 AccurateRip v1 signature : 1151E046 AccurateRip v2 signature : E0D56BFB ->Track not present in AccurateRip database. Statistics Read error : 0 Jitter error (maybe fixed) : 0 Retry sector count : 0 Damaged sector count : 0

Track 19 Filename : 19 「タイガーマスク」未収録音楽 ①~⑦.flac Pre-gap length : 00:04:22

Track gain : -3.99 dB Peak : 0.999878 CRC32 hash : B0E71C3D CRC32 hash (skip zero) : 350F212E AccurateRip v1 signature : 3389FAA5 AccurateRip v2 signature : 4D11E0F7 ->Track not present in AccurateRip database. Statistics Read error : 0 Jitter error (maybe fixed) : 2 Retry sector count : 0 Damaged sector count : 0

Track 20 Filename : 20 「ゲッター・ロボ」未収録音楽 ①~⑥.flac Pre-gap length : 00:03:67

Track gain : -4.28 dB Peak : 1.000000 CRC32 hash : 521E83AC CRC32 hash (skip zero) : F8B336D7 AccurateRip v1 signature : 182B5579 AccurateRip v2 signature : 14DCDBB2 ->Track not present in AccurateRip database. Statistics Read error : 0 Jitter error (maybe fixed) : 0 Retry sector count : 0 Damaged sector count : 0

Track 21 Filename : 21 「ゲッター・ロボG」未収録音楽 ①~⑥.flac Pre-gap length : 00:01:35

Track gain : -3.55 dB Peak : 0.909485 CRC32 hash : 776DFE4E CRC32 hash (skip zero) : B8875097 AccurateRip v1 signature : CB36977A AccurateRip v2 signature : 23319246 ->Track not present in AccurateRip database. Statistics Read error : 0 Jitter error (maybe fixed) : 0 Retry sector count : 6 Damaged sector count : 0

No errors occurred

End of status report

-----BEGIN XLD SIGNATURE-----VzY3674D3K1k0CfLODqenaSkpNnal_hWxlOqpmEM5EqfFNRTqMkXsBb1aZjUcBoryFz8Zu72ij5MLzS.0z7oXbPKZFodTStw5P2Tu6e-----END XLD SIGNATURE-----
X Lossless Decoder version 20141129 (148.1)

XLD extraction logfile from 2015-02-04 18:01:07 +0100

菊池俊輔 / 菊池俊輔BGMコレクョン

Used drive : Optiarc DVD RW AD-7170S (revision 1.03)Media type : Pressed CD

Ripper mode : XLD Secure RipperDisable audio cache : OK for the drive with a cache less than 1375KiBMake use of C2 pointers : NORead offset correction : 48Max retry count : 100Gap status : Analyzed, Appended

TOC of the extracted CD Track | Start | Length | Start sector | End sector --------------------------------------------------------- 1 | 00:00:00 | 01:12:58 | 0 | 5457 2 | 01:12:58 | 03:31:07 | 5458 | 21289 3 | 04:43:65 | 06:09:38 | 21290 | 49002 4 | 10:53:28 | 05:26:25 | 49003 | 73477 5 | 16:19:53 | 02:51:60 | 73478 | 86362 6 | 19:11:38 | 06:19:62 | 86363 | 114849 7 | 25:31:25 | 01:18:05 | 114850 | 120704 8 | 26:49:30 | 00:44:43 | 120705 | 124047 9 | 27:33:73 | 02:23:67 | 124048 | 134839 10 | 29:57:65 | 01:13:00 | 134840 | 140314 11 | 31:10:65 | 04:58:58 | 140315 | 162722 12 | 36:09:48 | 06:12:20 | 162723 | 190642 13 | 42:21:68 | 05:45:17 | 190643 | 216534 14 | 48:07:10 | 02:29:18 | 216535 | 227727 15 | 50:36:28 | 02:16:32 | 227728 | 237959 16 | 52:52:60 | 01:09:10 | 237960 | 243144 17 | 54:01:70 | 03:33:20 | 243145 | 259139 18 | 57:35:15 | 01:15:38 | 259140 | 264802 19 | 58:50:53 | 02:41:00 | 264803 | 276877 20 | 61:31:53 | 05:41:60 | 276878 | 302512 21 | 67:13:38 | 09:49:02 | 302513 | 346689

AccurateRip Summary Disc not found in AccurateRip DB.

All Tracks Album gain : -3.95 dB Peak : 1.000000 Statistics Read error : 0 Jitter error (maybe fixed) : 0 Retry sector count : 0 Damaged sector count : 0

Track 01 Filename : 01 オープニング・テーマ「ゲッター・ロボ!」.flac Pre-gap length : 00:02:00

Track gain : -4.47 dB Peak : 0.885681 CRC32 hash : 2DE74694 CRC32 hash (skip zero) : 02ACA7E5 AccurateRip v1 signature : 3AFABEDB AccurateRip v2 signature : FE84EF0A ->Track not present in AccurateRip database. Statistics Read error : 0 Jitter error (maybe fixed) : 0 Retry sector count : 0 Damaged sector count : 0

Track 02 Filename : 02 テーマ・ヴァリエーション ①悲しみ ②戦闘.flac Pre-gap length : 00:02:25

Track gain : -3.85 dB Peak : 0.862488 CRC32 hash : 4AFF5D22 CRC32 hash (skip zero) : EAB9A852 AccurateRip v1 signature : 793C14FD AccurateRip v2 signature : F70E26CF ->Track not present in AccurateRip database. Statistics Read error : 0 Jitter error (maybe fixed) : 0 Retry sector count : 0 Damaged sector count : 0

Track 03 Filename : 03 アクションBGM ①悪の総攻撃 ②対決 ③大危険 ④空中戦 ⑤悪の追撃.flac Pre-gap length : 00:02:27

Track gain : -3.58 dB Peak : 0.943085 CRC32 hash : C4C88090 CRC32 hash (skip zero) : 142067E0 AccurateRip v1 signature : 17BE225A AccurateRip v2 signature : 74CB9E3C ->Track not present in AccurateRip database. Statistics Read error : 0 Jitter error (maybe fixed) : 0 Retry sector count : 0 Damaged sector count : 0

Track 04 Filename : 04 情景描写BGM ①百鬼ロボット出撃 ②ゲットマシーン発進 ③合体訓練 ④悪の出現 ⑤危機迫る.flac Pre-gap length : 00:01:65

Track gain : -3.84 dB Peak : 0.999969 CRC32 hash : 7E79A606 CRC32 hash (skip zero) : 69EA0890 AccurateRip v1 signature : 3690ECF5 AccurateRip v2 signature : F5D683DE ->Track not present in AccurateRip database. Statistics Read error : 0 Jitter error (maybe fixed) : 0 Retry sector count : 0 Damaged sector count : 0

Track 05 Filename : 05 心理描写BGM ①哀しみ ②不安.flac Pre-gap length : 00:01:55

Track gain : 0.91 dB Peak : 0.570496 CRC32 hash : 2CBD502E CRC32 hash (skip zero) : 93146C6A AccurateRip v1 signature : 5589BFA2 AccurateRip v2 signature : 8527485F ->Track not present in AccurateRip database. Statistics Read error : 0 Jitter error (maybe fixed) : 0 Retry sector count : 0 Damaged sector count : 0

Track 06 Filename : 06 人物・その他のテーマ ①ベンケイのテーマ ②文次のテーマ ③メカザウルス ④大魔人ユラー ⑤ヒドラー元帥.flac Pre-gap length : 00:01:50

Track gain : -1.84 dB Peak : 0.999969 CRC32 hash : D7A48FE7 CRC32 hash (skip zero) : 280D2CF8 AccurateRip v1 signature : FF355314 AccurateRip v2 signature : 0405904B ->Track not present in AccurateRip database. Statistics Read error : 0 Jitter error (maybe fixed) : 0 Retry sector count : 0 Damaged sector count : 0

Track 07 Filename : 07 ブリッジ、コード ①~⑤.flac Pre-gap length : 00:02:02

Track gain : -1.68 dB Peak : 0.871307 CRC32 hash : C1B3912D CRC32 hash (skip zero) : A1289043 AccurateRip v1 signature : A279CAA2 AccurateRip v2 signature : FB911223 ->Track not present in AccurateRip database. Statistics Read error : 0 Jitter error (maybe fixed) : 0 Retry sector count : 0 Damaged sector count : 0

Track 08 Filename : 08 エンディング ①迫り来る悪の恐怖.flac Pre-gap length : 00:02:42

Track gain : -3.14 dB Peak : 0.752258 CRC32 hash : 95DC56B9 CRC32 hash (skip zero) : 805735F0 AccurateRip v1 signature : 017A4578 AccurateRip v2 signature : 01451384 ->Track not present in AccurateRip database. Statistics Read error : 0 Jitter error (maybe fixed) : 0 Retry sector count : 0 Damaged sector count : 0

Track 09 Filename : 09 エンディング・テーマ「合体!ゲッター・ロボ」/「不滅のマシン・ゲッター・ロボ」.flac Pre-gap length : 00:01:65

Track gain : -5.55 dB Peak : 0.878632 CRC32 hash : 4120B497 CRC32 hash (skip zero) : B3C5CA26 AccurateRip v1 signature : 480B071F AccurateRip v2 signature : 2E9E0D66 ->Track not present in AccurateRip database. Statistics Read error : 0 Jitter error (maybe fixed) : 0 Retry sector count : 0 Damaged sector count : 0

Track 10 Filename : 10 オープニング・テーマ「とべ!グレンダイザー」.flac Pre-gap length : 00:03:70

Track gain : -6.50 dB Peak : 0.999969 CRC32 hash : 84BC1D74 CRC32 hash (skip zero) : 08DD2794 AccurateRip v1 signature : 819BA759 AccurateRip v2 signature : 05BF64B9 ->Track not present in AccurateRip database. Statistics Read error : 0 Jitter error (maybe fixed) : 0 Retry sector count : 0 Damaged sector count : 0

Track 11 Filename : 11 テーマ・ヴァリエーション ①グレンダイザー発進 ②戦闘 ③戦い終わって.flac Pre-gap length : 00:02:12

Track gain : -2.19 dB Peak : 0.998932 CRC32 hash : 41650EAA CRC32 hash (skip zero) : 8539B6EE AccurateRip v1 signature : 9B6D4630 AccurateRip v2 signature : C386E106 ->Track not present in AccurateRip database. Statistics Read error : 0 Jitter error (maybe fixed) : 0 Retry sector count : 0 Damaged sector count : 0

Track 12 Filename : 12 アクションBGM ①勇ましい訓練 ②追撃 ③団兵衛の立廻り ④悪の襲来 ⑤襲来してくるUFO.flac Pre-gap length : 00:01:60

Track gain : -3.44 dB Peak : 0.880402 CRC32 hash : 13B529C0 CRC32 hash (skip zero) : 6B3828A8 AccurateRip v1 signature : 27757745 AccurateRip v2 signature : D6687DFE ->Track not present in AccurateRip database. Statistics Read error : 0 Jitter error (maybe fixed) : 0 Retry sector count : 0 Damaged sector count : 0

Track 13 Filename : 13 情景描写BGM ①洞穴探索 ②白樺牧場 ③宇宙に浮かぶUFO ④危機感 ⑤闇の恐怖.flac Pre-gap length : 00:02:40

Track gain : -1.52 dB Peak : 0.839111 CRC32 hash : 439350FC CRC32 hash (skip zero) : CC00EA81 AccurateRip v1 signature : 368A2F16 AccurateRip v2 signature : 4CCD8597 ->Track not present in AccurateRip database. Statistics Read error : 0 Jitter error (maybe fixed) : 0 Retry sector count : 0 Damaged sector count : 0

Track 14 Filename : 14 心理描写BGM ①忍びよる影 ②遥かな想い.flac Pre-gap length : 00:01:22

Track gain : 0.77 dB Peak : 0.570923 CRC32 hash : C0E6AED6 CRC32 hash (skip zero) : EA65D6C1 AccurateRip v1 signature : 4C9B54EA AccurateRip v2 signature : D7123E44 ->Track not present in AccurateRip database. Statistics Read error : 0 Jitter error (maybe fixed) : 0 Retry sector count : 0 Damaged sector count : 0

Track 15 Filename : 15 人物のテーマ ①デューク・フリードのテーマ ②ヒカルのテーマ.flac Pre-gap length : 00:01:70

Track gain : -1.33 dB Peak : 0.768463 CRC32 hash : 3DBCDAF5 CRC32 hash (skip zero) : 30DD9D0D AccurateRip v1 signature : FE64FEF5 AccurateRip v2 signature : 48C10CAC ->Track not present in AccurateRip database. Statistics Read error : 0 Jitter error (maybe fixed) : 0 Retry sector count : 0 Damaged sector count : 0

Track 16 Filename : 16 ブリッジ、コード ①~⑤.flac Pre-gap length : 00:03:02

Track gain : -3.62 dB Peak : 0.979858 CRC32 hash : CB021713 CRC32 hash (skip zero) : 50672F47 AccurateRip v1 signature : 938D8B6A AccurateRip v2 signature : E41F0F6A ->Track not present in AccurateRip database. Statistics Read error : 0 Jitter error (maybe fixed) : 0 Retry sector count : 0 Damaged sector count : 0

Track 17 Filename : 17 エンディング ①つのる不安 ②迫る危機 ③喜びあふれて ④希望を胸に.flac Pre-gap length : 00:02:45

Track gain : -3.31 dB Peak : 0.925262 CRC32 hash : 304A1F9F CRC32 hash (skip zero) : 8C682CA6 AccurateRip v1 signature : E2FCD9CD AccurateRip v2 signature : 0E74D6B0 ->Track not present in AccurateRip database. Statistics Read error : 0 Jitter error (maybe fixed) : 0 Retry sector count : 0 Damaged sector count : 0

Track 18 Filename : 18 エンディング・テーマ「宇宙の王者グレンダイザー」.flac Pre-gap length : 00:01:27

Track gain : -7.44 dB Peak : 0.921906 CRC32 hash : B0D37851 CRC32 hash (skip zero) : 59C9CD90 AccurateRip v1 signature : F9CF2ED8 AccurateRip v2 signature : 019EC6C8 ->Track not present in AccurateRip database. Statistics Read error : 0 Jitter error (maybe fixed) : 0 Retry sector count : 0 Damaged sector count : 0

Track 19 Filename : 19 「宇宙円盤大戦争」未収録音楽 ①~④.flac Pre-gap length : 00:04:55

Track gain : -5.16 dB Peak : 0.992218 CRC32 hash : AB4BAE1F CRC32 hash (skip zero) : 53AB415C AccurateRip v1 signature : CC028D2E AccurateRip v2 signature : 81D8BDAD ->Track not present in AccurateRip database. Statistics Read error : 0 Jitter error (maybe fixed) : 0 Retry sector count : 0 Damaged sector count : 0

Track 20 Filename : 20 「UFOロボグレンダイザー」未収録音楽 ①~⑤.flac Pre-gap length : 00:03:18

Track gain : -4.96 dB Peak : 1.000000 CRC32 hash : 94BA009E CRC32 hash (skip zero) : 50730324 AccurateRip v1 signature : 57BE13C8 AccurateRip v2 signature : 6843A7B3 ->Track not present in AccurateRip database. Statistics Read error : 0 Jitter error (maybe fixed) : 0 Retry sector count : 0 Damaged sector count : 0

Track 21 Filename : 21 「惑星ロボダンガードA」主要音楽 ①~⑧.flac Pre-gap length : 00:04:20

Track gain : -3.90 dB Peak : 0.999969 CRC32 hash : 71B17935 CRC32 hash (skip zero) : 9C994AF1 AccurateRip v1 signature : D64B198A AccurateRip v2 signature : C2E0A1A1 ->Track not present in AccurateRip database. Statistics Read error : 0 Jitter error (maybe fixed) : 0 Retry sector count : 0 Damaged sector count : 0

No errors occurred

End of status report

-----BEGIN XLD SIGNATURE-----URI3aSDbnTHDztzL62qZHR8126jjeQGH.A6QdXgVtvjBUhrFAwGZz_TYZSOmAB_6AUBoa2.oVF7uBN56Y_T49y72.cn_Zv0yRaC2khW-----END XLD SIGNATURE-----
<div class="sp-wrap">
<div class="sp-head folded">01 オープニング・テーマ「タイガーマスク」</div>
<div class="sp-body">
</div>
</div>
foobar2000 1.3.14 / Замер динамического диапазона (DR) 1.1.1Дата отчёта: 2017-04-26 18:06:45

--------------------------------------------------------------------------------Анализ: ささきいさお・菊池俊輔 / 菊池俊輔BGMコレクョン (1-2) 新田洋・菊池俊輔 / 菊池俊輔BGMコレクョン (3-4) 菊池俊輔 / 菊池俊輔BGMコレクョン (5-21)--------------------------------------------------------------------------------

DR Пики RMS Продолжительность трека--------------------------------------------------------------------------------DR12 -1.20 дБ -15.26 дБ 1:07 10-オープニング・テーマ「たたかえ!キャシャーン」DR12 -0.68 дБ -14.94 дБ 0:50 18-エンディング・テーマ「おれは新造人間」DR12 -2.06 дБ -17.04 дБ 1:32 01-オープニング・テーマ「タイガーマスク」DR11 -3.90 дБ -18.63 дБ 1:24 09-エンディング、テーマ「みなしごのバラード」DR12 -2.84 дБ -18.09 дБ 3:16 02-テーマ・ヴァリエーション ①タイガー・マスクは行く ②去りゆくタイガー・マスク ③みなしごのバラードDR12 -1.68 дБ -16.55 дБ 6:41 03-アクションBGM ①勝ち進むタイガー・マスク ②「虎の穴」の訓練 ③対立 ④対決の時 ⑤迫る悪の影 ⑥悪の攻撃DR13 -3.22 дБ -20.63 дБ 5:47 04-情景描写BGM ①スリラー ②忍び寄る影 ③悪の行動 ④尾行 ⑤「虎の穴」の恐怖DR14 -3.05 дБ -20.43 дБ 4:34 05-心理描写BGM ①緊迫 ②孤独 ③悲しみのライバル ④暗い過去DR14 -2.26 дБ -20.45 дБ 3:10 06-人物その他テーマ ①直人ひとりさびしく ②ルリ子寂しく ③虎の穴DR12 -2.91 дБ -19.59 дБ 1:18 07-ブリッジ、コード ①~⑤DR10 0.00 дБ -16.66 дБ 0:53 08-エンディング ①緊迫高まって ②静かにDR13 -0.15 дБ -16.80 дБ 3:45 11-テーマ・ヴァリエーション ①重い心のキャシャーン ②悲しみ高まって ③平和DR13 -1.47 дБ -18.59 дБ 4:58 12-アクションBGM ①作り出されるロボット群 ②フレンダーとともに ③ずっこけ悪 ④追跡 ⑤敵地潜入DR12 -0.57 дБ -16.69 дБ 4:58 13-情景描写BGM ①眠るキャシャーン ②異様な気配 ③廃虚 ④重苦しい戦い ⑤つかの間の平和DR11 -1.60 дБ -18.03 дБ 6:38 14-心理描写BGM ①幻想 ②甘い思い出 ③母への思い ④続く緊張 ⑤悲しみの中でDR11 -3.74 дБ -18.75 дБ 2:53 15-人物のテーマ ①ルナ淋しく ②母と子DR12 -1.90 дБ -18.73 дБ 1:16 16-ブリッジ・コード ①~⑤DR10 -1.23 дБ -15.41 дБ 2:32 17-エンディング ①力つきて悲痛な戦い ②明日への希望ふくらんで ③大団円DR12 0.00 дБ -15.33 дБ 6:59 19-「タイガーマスク」未収録音楽 ①~⑦DR13 0.00 дБ -15.02 дБ 5:21 20-「ゲッター・ロボ」未収録音楽 ①~⑥DR13 -0.82 дБ -17.16 дБ 5:57 21-「ゲッター・ロボG」未収録音楽 ①~⑥--------------------------------------------------------------------------------

Количество треков: 21Реальные значения DR: DR12

Частота: 44100 ГцКаналов: 2Разрядность: 16Битрейт: 656 кбит/сКодек: FLAC================================================================================
foobar2000 1.3.14 / Замер динамического диапазона (DR) 1.1.1Дата отчёта: 2017-04-26 18:07:09

--------------------------------------------------------------------------------Анализ: ささきいさお・菊池俊輔 / 菊池俊輔BGMコレクョン (1-4) 菊池俊輔 / 菊池俊輔BGMコレクョン (5-21)--------------------------------------------------------------------------------

DR Пики RMS Продолжительность трека--------------------------------------------------------------------------------DR12 -1.05 дБ -15.44 дБ 1:13 01-オープニング・テーマ「ゲッター・ロボ!」DR12 -1.12 дБ -15.08 дБ 2:24 09-エンディング・テーマ「合体!ゲッター・ロボ」/「不滅のマシン・ゲッター・ロボ」DR12 0.00 дБ -13.86 дБ 1:13 10-オープニング・テーマ「とべ!グレンダイザー」DR11 -0.71 дБ -14.67 дБ 1:16 18-エンディング・テーマ「宇宙の王者グレンダイザー」DR12 -1.28 дБ -15.81 дБ 3:31 02-テーマ・ヴァリエーション ①悲しみ ②戦闘DR13 -0.51 дБ -16.01 дБ 6:10 03-アクションBGM ①悪の総攻撃 ②対決 ③大危険 ④空中戦 ⑤悪の追撃DR14 0.00 дБ -16.11 дБ 5:26 04-情景描写BGM ①百鬼ロボット出撃 ②ゲットマシーン発進 ③合体訓練 ④悪の出現 ⑤危機迫るDR11 -4.87 дБ -19.78 дБ 2:52 05-心理描写BGM ①哀しみ ②不安DR14 0.00 дБ -16.95 дБ 6:20 06-人物・その他のテーマ ①ベンケイのテーマ ②文次のテーマ ③メカザウルス ④大魔人ユラー ⑤ヒドラー元帥DR12 -1.20 дБ -18.86 дБ 1:18 07-ブリッジ、コード ①~⑤DR11 -2.47 дБ -17.26 дБ 0:45 08-エンディング ①迫り来る悪の恐怖DR15 -0.01 дБ -17.82 дБ 4:59 11-テーマ・ヴァリエーション ①グレンダイザー発進 ②戦闘 ③戦い終わってDR13 -1.11 дБ -16.68 дБ 6:12 12-アクションBGM ①勇ましい訓練 ②追撃 ③団兵衛の立廻り ④悪の襲来 ⑤襲来してくるUFODR13 -1.52 дБ -18.90 дБ 5:45 13-情景描写BGM ①洞穴探索 ②白樺牧場 ③宇宙に浮かぶUFO ④危機感 ⑤闇の恐怖DR11 -4.87 дБ -20.43 дБ 2:29 14-心理描写BGM ①忍びよる影 ②遥かな想いDR13 -2.29 дБ -18.66 дБ 2:16 15-人物のテーマ ①デューク・フリードのテーマ ②ヒカルのテーマDR12 -0.18 дБ -19.21 дБ 1:09 16-ブリッジ、コード ①~⑤DR12 -0.67 дБ -16.52 дБ 3:33 17-エンディング ①つのる不安 ②迫る危機 ③喜びあふれて ④希望を胸にDR12 -0.07 дБ -15.31 дБ 2:41 19-「宇宙円盤大戦争」未収録音楽 ①~④DR13 0.00 дБ -15.44 дБ 5:42 20-「UFOロボグレンダイザー」未収録音楽 ①~⑤DR13 0.00 дБ -16.10 дБ 9:49 21-「惑星ロボダンガードA」主要音楽 ①~⑧--------------------------------------------------------------------------------

Количество треков: 21Реальные значения DR: DR12

Частота: 44100 ГцКаналов: 2Разрядность: 16Битрейт: 663 кбит/сКодек: FLAC================================================================================
rutracker.org/forum/viewtopic.php?t=5394323

Трекер:  [ 26-Апр-2017 17:00 ]

  

Скачать .torrent

Размер .torrent файла 19 KB


Размер: 674 MB
Хэш (hash) релиза: 4665a86e0c53ece31ba9d96e6030866dd865c758

Еще никто не оставлял запись к записи скачать торрент SHUNSUKE KIKUCHI BGM COLLECTION 菊池俊輔BGMコレクョン - 1991, FLAC . Будь первым!

!Обратная связь