Shine or Go Crazy | ConvertXtoDVD v5.0.0.45. | Derek Vortimer MBA Manager of Worlds

Скачать через торрент [VIDEO] Морпех 5: Поле битвы The Marine 5: Battleground бесплатно русская версия torrent активатор

Статистика раздачи
Размер:  1.7 GB   |    Зарегистрирован:  1 год 2 месяца   |    .torrent скачан:  27 раз   |   
Раздают:  1  
   
загрузка...
 
Автор Сообщение

Galfimbul

avatar Galfimbul


Морпех 5: Поле битвы / The Marine 5: Battleground
Год выпуска: 2017
Оригинальное название: The Marine 5: Battleground
Страна: США
Жанр: боевик
Возраст: 18+

Режиссер: Джеймс Нанн

В ролях: Мариз Уэлле Мизанин, Майк Мизанин, Анна Ван Хуфт, Тринити Фату, Сэнди Робсон, Нэйтан Митчелл, Брэд Келли, Хит Миллер, Тэйлор Ротунда, Джо Хенниг

Описание: В прошлом Джейк Картер служил в армии США и занимался медицинским обучением иностранных военных стажеров, но теперь он простой работник скорой медицинской помощи. Джейк, ответив на сигнал бедствия, был вынужден защищать интересы человека от байкерской банды, которая безжалостно преследует их.

Продолжительность: 01:31:38
Перевод: Профессиональный многоголосый [Лицензия]
Оригинальная дорожка: нет

Автор рипа:

Качество видео: BDRip Исходник: Blu-Ray (1080p) Формат: mp4
Видео кодек: MPEG-4 AVC Аудио кодек: AAC
Видео: 1280x720 (16:9) at 23.976 fps, AVC at 2 512 kbps avg, 0.114 bit/pixel
Аудио №1 Rus: 48.0 KHz, AAC, 2 ch, 128.0 Kbps
Аудио №2 Eng: 48.0 KHz, AAC, 2 ch, 128.0 Kbps
Субтитры: нет
Навигация по главам: есть
Размер: 1.70 GiB
avs [info]: 1280x720p 1:1 @ 24000/1001 fps (cfr)
x264 [info]: using SAR=1/1
x264 [info]: using cpu capabilities: MMX2 SSE2Fast SSSE3 Cache64
x264 [info]: profile High, level 4.1
x264 [info]: frame I:1213 Avg QP:15.59 size: 95169
x264 [info]: frame P:28856 Avg QP:19.03 size: 26128
x264 [info]: frame B:101763 Avg QP:20.60 size: 8426
x264 [info]: consecutive B-frames: 2.2% 2.7% 7.5% 25.7% 17.2% 29.5% 6.2% 7.4% 1.5%
x264 [info]: mb I I16..4: 8.2% 73.5% 18.3%
x264 [info]: mb P I16..4: 3.0% 10.9% 1.4% P16..4: 48.2% 17.9% 12.4% 0.0% 0.0% skip: 6.1%
x264 [info]: mb B I16..4: 0.2% 0.6% 0.1% B16..8: 46.4% 6.0% 1.0% direct: 4.4% skip:41.3% L0:45.7% L1:50.1% BI: 4.3%
x264 [info]: 8x8 transform intra:71.3% inter:73.0%
x264 [info]: coded y,uvDC,uvAC intra: 65.0% 77.4% 46.1% inter: 16.5% 26.4% 2.0%
x264 [info]: i16 v,h,dc,p: 28% 17% 7% 49%
x264 [info]: i8 v,h,dc,ddl,ddr,vr,hd,vl,hu: 17% 15% 21% 6% 9% 9% 9% 8% 7%
x264 [info]: i4 v,h,dc,ddl,ddr,vr,hd,vl,hu: 26% 17% 16% 6% 9% 8% 7% 6% 4%
x264 [info]: i8c dc,h,v,p: 52% 19% 20% 9%
x264 [info]: Weighted P-Frames: Y:3.4% UV:2.3%
x264 [info]: ref P L0: 52.5% 9.3% 16.1% 6.3% 4.8% 3.8% 3.2% 1.9% 1.9% 0.1% 0.0%
x264 [info]: ref B L0: 81.1% 9.0% 4.3% 2.0% 1.5% 1.1% 0.7% 0.2%
x264 [info]: ref B L1: 95.3% 4.7%
x264 [info]: kb/s:2512.49
encoded 131832 frames, 1.14 fps, 2512.49 kb/s
GeneralComplete name : ...Morpex_5_pole_bitvy_2017_KinoGadget.mp4Format : MPEG-4Format profile : Base MediaCodec ID : isom (isom)File size : 1.70 GiBDuration : 1 h 31 minOverall bit rate mode : VariableOverall bit rate : 2 648 kb/sMovie name : Морпех 5: Поле битвы | KinoGadgetPerformer : Джеймс НаннDirector : Джеймс НаннActor : Мариз Уэлле Мизанин / Майк Мизанин / Анна Ван Хуфт / Тринити Фату / Сэнди Робсон / Нэйтан Митчелл / Брэд Келли / Хит Миллер / Тэйлор Ротунда / Джо ХеннигScreenplay by : Скотт Вайпер / Эдвард МакГенри / Рори МакГенриProducer : Майкл Луизи / Джэми Эллиот / Ричард ЛоуеллGenre : ActionContentType : Short FilmRecorded date : 2017Encoded date : UTC 2017-04-26 04:30:14Tagged date : UTC 2017-04-26 04:35:56Cover : YesContentRating : mpaa|R|400|LongDescription : Джейк Картер, работник скорой помощи, отвечает на экстренный вызов. Теперь он вынужден защищать подозреваемого, за которым охотится безжалостная банда байкеров.HDVideo : Yes

VideoID : 1Format : AVCFormat/Info : Advanced Video CodecFormat profile : [email protected] settings, CABAC : YesFormat settings, ReFrames : 9 framesCodec ID : avc1Codec ID/Info : Advanced Video CodingDuration : 1 h 31 minBit rate : 2 512 kb/sMaximum bit rate : 8 942 kb/sWidth : 1 280 pixelsHeight : 720 pixelsDisplay aspect ratio : 16:9Frame rate mode : ConstantFrame rate : 23.976 (24000/1001) FPSColor space : YUVChroma subsampling : 4:2:0Bit depth : 8 bitsScan type : ProgressiveBits/(Pixel*Frame) : 0.114Stream size : 1.61 GiB (95%)Writing library : x264 core 148 r2744 b97ae06Encoding settings : cabac=1 / ref=9 / deblock=1:-1:-1 / analyse=0x3:0x113 / me=umh / subme=7 / psy=1 / psy_rd=1.00:0.00 / mixed_ref=1 / me_range=32 / chroma_me=1 / trellis=2 / 8x8dct=1 / cqm=0 / deadzone=21,11 / fast_pskip=0 / chroma_qp_offset=-2 / threads=3 / lookahead_threads=1 / sliced_threads=0 / nr=0 / decimate=1 / interlaced=0 / bluray_compat=0 / constrained_intra=0 / bframes=8 / b_pyramid=2 / b_adapt=2 / b_bias=0 / direct=1 / weightb=1 / open_gop=0 / weightp=2 / keyint=250 / keyint_min=25 / scenecut=40 / intra_refresh=0 / rc_lookahead=60 / rc=crf / mbtree=1 / crf=19.0 / qcomp=0.60 / qpmin=0 / qpmax=69 / qpstep=4 / vbv_maxrate=62500 / vbv_bufsize=78125 / crf_max=0.0 / nal_hrd=none / filler=0 / ip_ratio=1.40 / aq=1:1.00Encoded date : UTC 2017-04-26 02:42:23Tagged date : UTC 2017-04-26 04:30:58

AudioID : 2Format : AACFormat/Info : Advanced Audio CodecFormat profile : LCCodec ID : 40Duration : 1 h 31 minBit rate mode : VariableBit rate : 128 kb/sMaximum bit rate : 135 kb/sChannel(s) : 2 channelsChannel positions : Front: L RSampling rate : 48.0 kHzFrame rate : 46.875 FPS (1024 spf)Compression mode : LossyStream size : 83.9 MiB (5%)Language : RussianEncoded date : UTC 2017-04-26 02:47:17Tagged date : UTC 2017-04-26 04:30:58

Menu


Трекер:  [ 26-Апр-2017 07:30 ]

  

Скачать .torrent

Размер .torrent файла 17 KB


Размер: 1.7 GB
Хэш (hash) релиза: ab141819b29b35eab733a65841a4665c4dcaf824

Еще никто не оставлял запись к записи скачать торрент [VIDEO] Морпех 5: Поле битвы The Marine 5: Battleground . Будь первым!

!Обратная связь