서울 밤도깨비 야시장 30가지 한방에 정리한다 | Les Cigares du Pharaon | Cisdem PDF Converter OCR 5.3

Скачать через торрент [VIDEO] Человек с бульвара Капуцинов бесплатно русская версия torrent активатор

Статистика раздачи
Размер:  441 MB   |    Зарегистрирован:  1 год 2 месяца   |    .torrent скачан:  25 раз   |   
Раздают:  1  
   
загрузка...
 
Автор Сообщение

Galfimbul

avatar Galfimbul


Человек с бульвара Капуцинов

Год выпуска: 1987
Страна: СССР
Студия: Мосфильм
Жанр: комедия, мелодрама, мюзикл, вестерн
Продолжительность: 01:37:47
Перевод: не требуется
Cубтитры: нет
Режиссер: Алла Сурикова
В ролях: Андрей Миронов, Александра Яковлева, Николай Караченцов, Олег Табаков, Леонид Ярмольник, Михаил Боярский, Спартак Мишулин, Наталья Крачковская, Михаил Светин, Игорь Кваша, Лев Дуров, Галина Польских, Наталья Фатеева, Альберт Филозов, Борислав Брондуков, Олег Анофриев, Семен Фарада, Александр Иншаков, Н. Астапов, Мария Булатова, Юрий Думчев, Анатолий Калмыков, Михаил Херхеулидзе, Валерий Лысенков, А. Малышев, Юрий Медведев, Александр Павлов, Александр Сластин, Николай Сысоев и другие .
Описание: В одном из ковбойских городков Дикого Запада с его традиционной стрельбой, сквернословием и мордобоем появляется тихий миссионер кино мистер Фёст. Неведомое прежде ковбоям «синема» до неузнаваемости меняет уклад их жизни, нравы и привычки.

Правда, позднее благородный мистер Фёст будет изгнан недоброжелателями. Но обитатели городка уже никогда не смогут забыть, что на свете есть великое искусство — КИНО…
Релиз группы
Качество: HDRip / рип с BDRip 720p
Формат: MP4
Видео кодек: XviD
Аудио кодек: AAC
Видео: 480x288 AR:1.67 494 kbps 23.976 fps
Аудио: 2ch 48 kHz 128 kbps
GeneralComplete name : D:\Torrents\Человек с бульвара Капуцинов.1987.HDRip.XviD.480x.rip by Frost O.S.mp4Format : MPEG-4Format profile : Base MediaCodec ID : isom (isom)File size : 441 MiBDuration : 1 h 37 minOverall bit rate mode : VariableOverall bit rate : 630 kb/sMovie name : Человек с бульвара Капуцинов 1987 HDRip XviD 480x rip by Frost O SDirector : Алла СуриковаActor : Андрей Миронов / Александра Яковлева / Николай Караченцов / Олег Табаков / Леонид Ярмольник / Михаил Боярский / Спартак Мишулин / Наталья Крачковская / Михаил Светин / Игорь Кваша / Лев Дуров / Галина Польских / Наталья Фатеева / Альберт Филозов / Борислав Брондуков / Олег Анофриев / Семен Фарада / Александр Иншаков / Н. Астапов / Мария Булатова / Юрий Думчев / Анатолий Калмыков / Михаил Херхеулидзе / Валерий Лысенков / А. Малышев / Юрий Медведев / Александр Павлов / Александр Сластин / Николай СысоевGenre : ComedyContentType : Short FilmEncoded date : UTC 2017-04-25 12:32:23Tagged date : UTC 2017-04-25 12:33:07Writing application : MkvToMp4 version: 0.224 (x64)Cover : YesLongDescription : В одном из ковбойских городков Дикого Запада с его традиционной стрельбой, сквернословием и мордобоем появляется тихий миссионер кино мистер Фёст. Неведомое прежде ковбоям «синема» до неузнаваемости меняет уклад их жизни, нравы и привычки. / Правда, позднее благородный мистер Фёст будет изгнан недоброжелателями. Но обитатели городка уже никогда не смогут забыть, что на свете есть великое искусство — КИНО…

VideoID : 1Format : MPEG-4 VisualFormat profile : Advanced [email protected] settings, BVOP : YesFormat settings, QPel : YesFormat settings, GMC : No warppointsFormat settings, Matrix : CustomCodec ID : 20Duration : 1 h 37 minBit rate mode : VariableBit rate : 494 kb/sMaximum bit rate : 2 550 kb/sWidth : 480 pixelsHeight : 288 pixelsDisplay aspect ratio : 5:3Frame rate mode : ConstantFrame rate : 23.976 (24000/1001) FPSOriginal frame rate : 23.976 (23976/1000) FPSColor space : YUVChroma subsampling : 4:2:0Bit depth : 8 bitsScan type : ProgressiveCompression mode : LossyBits/(Pixel*Frame) : 0.149Stream size : 346 MiB (78%)Title : avi_GPAC0.5.2_DEV_rev248_g39d5978_masterWriting library : XviD 1.2.1 (UTC 2008-12-04)Language : EnglishTagged date : UTC 2017-04-25 12:32:32

AudioID : 2Format : AACFormat/Info : Advanced Audio CodecFormat profile : LCCodec ID : 40Duration : 1 h 37 minBit rate mode : VariableBit rate : 128 kb/sMaximum bit rate : 135 kb/sChannel(s) : 2 channelsChannel positions : Front: L RSampling rate : 48.0 kHzFrame rate : 46.875 FPS (1024 spf)Compression mode : LossyStream size : 89.5 MiB (20%)Language : RussianDefault : YesAlternate group : 1Encoded date : UTC 2017-04-25 12:32:30Tagged date : UTC 2017-04-25 12:32:32


Трекер:  [ 25-Апр-2017 15:30 ]

  

Скачать .torrent

Размер .torrent файла 17 KB


Размер: 441 MB
Хэш (hash) релиза: 6e0d791d9e70075f079d8411705a215bb0738b6d

Торренты, похожие на [VIDEO] Человек с бульвара Капуцинов скачать торрент

Форум Название Автор Размер S L Добавлен
Видео (Фильмы/Клипы) ·· [VIDEO] Человек с бульвара Капуцинов (Алла Сурикова) [1987, комедия, мелодрама, мюзикл, вестерн, BDRip] [MP4, 960x] Galfimbul 13765346851.28 GB 0 0 1492879744

19:49

22-Апр-17

Еще никто не оставлял запись к записи скачать торрент [VIDEO] Человек с бульвара Капуцинов . Будь первым!

!Обратная связь