The Lion Guard | ギャル | Forgot your password?

Скачать через торрент музыку Super Eurobeat Presents - Initial D Original Soundtracks Lossless Collection, 1998-2009, FLAC бесплатно без регистрации torrent

Статистика раздачи
Размер:  25.29 GB   |    Зарегистрирован:  6 лет 11 месяцев   |    .torrent скачан:  84 раза   |   
Раздают:  1  
   
загрузка...
 
Автор Сообщение

Galfimbul

avatar Galfimbul



Initial D Original Soundtracks Lossless Collection

Жанр: Electronic | Стиль: Italo-Disco, Hi NRG, Synth-pop, Eurobeat | Лейбл: Avex Trax | Год выпуска: 1998-2009 | Производитель: Япония | Аудио кодек: FLAC
Тип рипа: tracks/image+.cue | Битрейт аудио: lossless | Продолжительность: 02:03:48:16 | Источник: Собственные диски\просторы сети

Трэклист:
Track Listing
01. Kelly Wright - Live In Tokyo (2:31) 1122 kBit/s
02. Dave Rodgers - The Race Is Over (1:27) 1152 kBit/s
03. Dave Rodgers - Space Boy (2:27) 1132 kBit/s
04. Nico - Night Of Fire (2:03) 1190 kBit/s
05. Lou Grant - Don't Stop The Music (2:15) 1153 kBit/s
06. Priscilla - Love Is In Danger (2:46) 1124 kBit/s
07. Leslie Parrish - Killing My Love (2:24) 1146 kBit/s
08. Max Coveri - Running In The 90's (2:13) 1145 kBit/s
09. Mega NRG Man - Grand Prix (2:00) 1144 kBit/s
10. Dave Rodgers - Beat Of The Rising Sun (2:32) 1129 kBit/s
11. Nathalie - Heartbeat (2:27) 1161 kBit/s
12. Dusty - Rock Me To The Top (2:39) 1120 kBit/s
13. Derreck Simons - Station To Station (1:23) 1142 kBit/s
14. Mega NRG Man - Back On To The Rocks (2:05) 1131 kBit/s
15. Dusty - Crazy For Love (2:06) 1142 kBit/s
16. Dr. Love - Don't Stand So Close (2:22) 1085 kBit/s
17. Marko Polo - Speedy Speed Boy (1:39) 1186 kBit/s
18. Dave Mc Loud - Mikado (2:12) 1144 kBit/s
19. Mega NRG Man - Burning Desire (1:49) 1135 kBit/s
20. Victoria - Stay (2:00) 1124 kBit/s
21. Mega NRG Man - Get Me Power (2:29) 1160 kBit/s
22. Edo Boys - No One Sleep In Tokyo (2:35) 1157 kBit/s
23. Dave Simon - I Need Your Love (2:28) 1155 kBit/s
24. Dave Rodgers - 100 (2:28) 1098 kBit/s
25. Digital Planet - West End Guys (2:05) 1130 kBit/s
26. Boys Band - Crazy Night (2:13) 1173 kBit/s
27. Leslie Parrish - Remember Me (2:41) 1187 kBit/s
28. Leslie Parrish - Save Me (2:28) 1143 kBit/s
29. Sophie - Don't You (2:42) 1149 kBit/s
30. Robert Patton - Big In Japan (2:15) 1130 kBit/s
31. Mega NRG Man - Express Love (2:07) 1156 kBit/s
32. Morris - Crazy For Your Love (2:31) 1169 kBit/s
33. Mr. Groove - White Light (2:14) 1127 kBit/s
Release Date - 23.01.2008
Catalogue Number - AVCA-AVCA-26478

 
Exact Audio Copy V0.99 prebeta 4 from 23. January 2008

EAC extraction logfile from 18. May 2008, 19:46

Various / Initial D Special Stage Non-Stop Mega Mix

Used drive : PLEXTOR DVDR PX-716A Adapter: 0 ID: 0

Read mode : SecureUtilize accurate stream : YesDefeat audio cache : YesMake use of C2 pointers : No

Read offset correction : 30Overread into Lead-In and Lead-Out : NoFill up missing offset samples with silence : YesDelete leading and trailing silent blocks : NoNull samples used in CRC calculations : YesUsed interface : Native Win32 interface for Win NT & 2000

Used output format : Internal WAV RoutinesSample format : 44.100 Hz; 16 Bit; Stereo

TOC of the extracted CD

Track | Start | Length | Start sector | End sector --------------------------------------------------------- 1 | 0:00.00 | 2:30.43 | 0 | 11292 2 | 2:30.43 | 1:27.17 | 11293 | 17834 3 | 3:57.60 | 2:27.03 | 17835 | 28862 4 | 6:24.63 | 2:02.64 | 28863 | 38076 5 | 8:27.52 | 2:15.19 | 38077 | 48220 6 | 10:42.71 | 2:46.06 | 48221 | 60676 7 | 13:29.02 | 2:24.33 | 60677 | 71509 8 | 15:53.35 | 2:13.13 | 71510 | 81497 9 | 18:06.48 | 1:59.73 | 81498 | 90495 10 | 20:06.46 | 2:32.07 | 90496 | 101902 11 | 22:38.53 | 2:26.52 | 101903 | 112904 12 | 25:05.30 | 2:39.23 | 112905 | 124852 13 | 27:44.53 | 1:22.54 | 124853 | 131056 14 | 29:07.32 | 2:04.40 | 131057 | 140396 15 | 31:11.72 | 2:06.01 | 140397 | 149847 16 | 33:17.73 | 2:21.45 | 149848 | 160467 17 | 35:39.43 | 1:39.28 | 160468 | 167920 18 | 37:18.71 | 2:12.30 | 167921 | 177850 19 | 39:31.26 | 1:48.41 | 177851 | 185991 20 | 41:19.67 | 1:59.71 | 185992 | 194987 21 | 43:19.63 | 2:28.45 | 194988 | 206132 22 | 45:48.33 | 2:34.58 | 206133 | 217740 23 | 48:23.16 | 2:28.24 | 217741 | 228864 24 | 50:51.40 | 2:27.41 | 228865 | 239930 25 | 53:19.06 | 2:05.37 | 239931 | 249342 26 | 55:24.43 | 2:12.54 | 249343 | 259296 27 | 57:37.22 | 2:41.31 | 259297 | 271402 28 | 60:18.53 | 2:27.68 | 271403 | 282495 29 | 62:46.46 | 2:41.41 | 282496 | 294611 30 | 65:28.12 | 2:14.43 | 294612 | 304704 31 | 67:42.55 | 2:06.67 | 304705 | 314221 32 | 69:49.47 | 2:31.21 | 314222 | 325567 33 | 72:20.68 | 2:14.01 | 325568 | 335618

Range status and errors

Selected range

Filename C:\EACrips\Various - Initial D Special Stage Non-Stop Mega Mix.wav

Peak level 100.0 % Range quality 99.9 % Copy CRC D9966E14 Copy OK

No errors occurred

End of status report
*Образ был порезан на треки с помощью CUETools_2.0.4ax86.
Track Listing
Disc 1:
01. Symbol - Forever Love Me (5:34) 1079 kBit/s
02. Go 2 - Power (5:40) 1147 kBit/s
03. Digital Planet - Take Me Forever (5:38) 1023 kBit/s
04. Fastway - Shock Out (5:33) 1158 kBit/s
05. Mr. M - Welcome People (5:35) 1053 kBit/s
06. Lou Grant - Don't Stop The Music 2006 (5:15) 1097 kBit/s
07. Melissa White & Ace - Switch! (5:05) 1113 kBit/s
08. Go 2 - Let It Burn (4:43) 1134 kBit/s
09. Dave Rodgers - Disco Fire (4:47) 1063 kBit/s
10. Phil - Crazy & Ready (5:38) 1121 kBit/s
11. Idol - Idol (5:47) 1101 kBit/s
12. Kasanova - Love Shining (5:21) 1113 kBit/s

Disc 2:
01. Mr. M - Be The One (5:33) 1034 kBit/s
02. Manuel - Sun In The Rain (5:08) 1118 kBit/s
03. Go 2 - Play Loud (5:18) 1111 kBit/s
04. Lisa & Ace - Getting The Fever (5:12) 1084 kBit/s
05. Annalise - Promised Land (5:01) 1066 kBit/s
06. Vivi - Just For Me (5:18) 1109 kBit/s
07. Helena - Lonely Night 2006 (5:24) 1129 kBit/s
08. Dave - Pride (5:25) 1085 kBit/s
09. Money Man - Love For Money (5:24) 1129 kBit/s
10. Mega NRG Man - Back On The Rocks (5:03) 1062 kBit/s
11. Dave Simon - Live For You (5:23) 1093 kBit/s
12. Ace - Futureland (5:45) 1137 kBit/s
Release Date - 05.09.2007
Catalogue Number - AVCA-26476/7

 
Exact Audio Copy V0.99 prebeta 5 from 4. May 2009

EAC extraction logfile from 21. May 2009, 22:50

Various / Inital D Battle Stage 2 (Disc 1)

Used drive : ASUS DRW-1814BLT Adapter: 1 ID: 2

Read mode : SecureUtilize accurate stream : YesDefeat audio cache : YesMake use of C2 pointers : No

Read offset correction : 6Overread into Lead-In and Lead-Out : NoFill up missing offset samples with silence : YesDelete leading and trailing silent blocks : NoNull samples used in CRC calculations : YesUsed interface : Installed external ASPI interfaceGap handling : Appended to previous track

Used output format : User Defined EncoderSelected bitrate : 128 kBit/sQuality : HighAdd ID3 tag : NoCommand line compressor : C:\Program Files\FLAC\flac.exeAdditional command line options : -8 -V -T "ARTIST=%a" -T "TITLE=%t" -T "ALBUM=%g" -T "DATE=%y" -T "TRACKNUMBER=%n" -T "GENRE=%m" -T "COMMENT=ripper by K1RZA" %s

TOC of the extracted CD

Track | Start | Length | Start sector | End sector --------------------------------------------------------- 1 | 0:00.00 | 5:34.28 | 0 | 25077 2 | 5:34.28 | 5:39.54 | 25078 | 50556 3 | 11:14.07 | 5:38.21 | 50557 | 75927 4 | 16:52.28 | 5:32.60 | 75928 | 100887 5 | 22:25.13 | 5:35.10 | 100888 | 126022 6 | 28:00.23 | 5:15.30 | 126023 | 149677 7 | 33:15.53 | 5:04.57 | 149678 | 172534 8 | 38:20.35 | 4:43.10 | 172535 | 193769 9 | 43:03.45 | 4:46.60 | 193770 | 215279 10 | 47:50.30 | 5:37.62 | 215280 | 240616 11 | 53:28.17 | 5:47.11 | 240617 | 266652 12 | 59:15.28 | 5:20.70 | 266653 | 290722

Track 1

Filename C:\EACrips\01. Symbol - Forever Love Me.wav

Pre-gap length 0:00:02.00

Peak level 100.0 % Track quality 99.9 % Test CRC B6B3BD29 Copy CRC B6B3BD29 Accurately ripped (confidence 1) [2AB0EBFD] Copy OK

Track 2

Filename C:\EACrips\02. Go 2 - Power.wav

Pre-gap length 0:00:02.61

Peak level 100.0 % Track quality 99.9 % Test CRC 860916F3 Copy CRC 860916F3 Accurately ripped (confidence 1) [FD7820A2] Copy OK

Track 3

Filename C:\EACrips\03. Digital Planet - Take Me Forever.wav

Pre-gap length 0:00:02.60

Peak level 100.0 % Track quality 100.0 % Test CRC EC73EF28 Copy CRC EC73EF28 Accurately ripped (confidence 1) [61E1AABA] Copy OK

Track 4

Filename C:\EACrips\04. Fastway - Shock Out.wav

Pre-gap length 0:00:02.61

Peak level 100.0 % Track quality 100.0 % Test CRC F00201A6 Copy CRC F00201A6 Accurately ripped (confidence 1) [9115ADEC] Copy OK

Track 5

Filename C:\EACrips\05. Mr. M - Welcome People.wav

Pre-gap length 0:00:01.58

Peak level 100.0 % Track quality 100.0 % Test CRC 5B0DA45A Copy CRC 5B0DA45A Accurately ripped (confidence 1) [E4B57769] Copy OK

Track 6

Filename C:\EACrips\06. Lou Grant - Don't Stop The Music 2006.wav

Pre-gap length 0:00:02.58

Peak level 100.0 % Track quality 100.0 % Test CRC 9B75761D Copy CRC 9B75761D Accurately ripped (confidence 1) [A1822E02] Copy OK

Track 7

Filename C:\EACrips\07. Melissa White & Ace - Switch!.wav

Pre-gap length 0:00:02.58

Peak level 100.0 % Track quality 100.0 % Test CRC D5723424 Copy CRC D5723424 Accurately ripped (confidence 1) [6C2E84C9] Copy OK

Track 8

Filename C:\EACrips\08. Go 2 - Let It Burn.wav

Pre-gap length 0:00:02.58

Peak level 100.0 % Track quality 100.0 % Test CRC 1EC88B97 Copy CRC 1EC88B97 Accurately ripped (confidence 1) [7846D669] Copy OK

Track 9

Filename C:\EACrips\09. Dave Rodgers - Disco Fire.wav

Pre-gap length 0:00:02.58

Peak level 100.0 % Track quality 100.0 % Test CRC FADA9F99 Copy CRC FADA9F99 Accurately ripped (confidence 1) [D1E02C01] Copy OK

Track 10

Filename C:\EACrips\10. Phil - Crazy & Ready.wav

Pre-gap length 0:00:02.60

Peak level 100.0 % Track quality 100.0 % Test CRC 478D1C3A Copy CRC 478D1C3A Accurately ripped (confidence 1) [EDDE174A] Copy OK

Track 11

Filename C:\EACrips\11. Idol - Idol.wav

Pre-gap length 0:00:02.58

Peak level 100.0 % Track quality 100.0 % Test CRC CEBD7E26 Copy CRC CEBD7E26 Accurately ripped (confidence 1) [16A03EA0] Copy OK

Track 12

Filename C:\EACrips\12. Kasanova - Love Shining.wav

Pre-gap length 0:00:02.58

Peak level 100.0 % Track quality 100.0 % Test CRC E4905689 Copy CRC E4905689 Accurately ripped (confidence 1) [F7C18507] Copy OK

All tracks accurately ripped

No errors occurred

End of status report
 
Exact Audio Copy V0.99 prebeta 5 from 4. May 2009

EAC extraction logfile from 21. May 2009, 23:10

Various / Initial D Battle Stage 2 (Disc 2)

Used drive : ASUS DRW-1814BLT Adapter: 1 ID: 2

Read mode : SecureUtilize accurate stream : YesDefeat audio cache : YesMake use of C2 pointers : No

Read offset correction : 6Overread into Lead-In and Lead-Out : NoFill up missing offset samples with silence : YesDelete leading and trailing silent blocks : NoNull samples used in CRC calculations : YesUsed interface : Installed external ASPI interfaceGap handling : Appended to previous track

Used output format : User Defined EncoderSelected bitrate : 128 kBit/sQuality : HighAdd ID3 tag : NoCommand line compressor : C:\Program Files\FLAC\flac.exeAdditional command line options : -8 -V -T "ARTIST=%a" -T "TITLE=%t" -T "ALBUM=%g" -T "DATE=%y" -T "TRACKNUMBER=%n" -T "GENRE=%m" -T "COMMENT=ripper by K1RZA" %s

TOC of the extracted CD

Track | Start | Length | Start sector | End sector --------------------------------------------------------- 1 | 0:00.00 | 5:32.38 | 0 | 24937 2 | 5:32.38 | 5:07.57 | 24938 | 48019 3 | 10:40.20 | 5:18.12 | 48020 | 71881 4 | 15:58.32 | 5:11.57 | 71882 | 95263 5 | 21:10.14 | 5:01.28 | 95264 | 117866 6 | 26:11.42 | 5:17.52 | 117867 | 141693 7 | 31:29.19 | 5:23.60 | 141694 | 165978 8 | 36:53.04 | 5:24.43 | 165979 | 190321 9 | 42:17.47 | 5:23.65 | 190322 | 214611 10 | 47:41.37 | 5:03.20 | 214612 | 237356 11 | 52:44.57 | 5:23.37 | 237357 | 261618 12 | 58:08.19 | 5:45.10 | 261619 | 287503

Track 1

Filename C:\EACrips\01. Mr. M - Be The One.wav

Pre-gap length 0:00:02.00

Peak level 100.0 % Track quality 100.0 % Test CRC 6C52D899 Copy CRC 6C52D899 Accurately ripped (confidence 1) [688F10F5] Copy OK

Track 2

Filename C:\EACrips\02. Manuel - Sun In The Rain.wav

Pre-gap length 0:00:02.60

Peak level 100.0 % Track quality 100.0 % Test CRC 7573334B Copy CRC 7573334B Accurately ripped (confidence 1) [1602A5CB] Copy OK

Track 3

Filename C:\EACrips\03. Go 2 - Play Loud.wav

Pre-gap length 0:00:02.60

Peak level 100.0 % Track quality 100.0 % Test CRC 02AB5431 Copy CRC 02AB5431 Accurately ripped (confidence 1) [8037799C] Copy OK

Track 4

Filename C:\EACrips\04. Lisa & Ace - Getting The Fever.wav

Pre-gap length 0:00:02.60

Peak level 100.0 % Track quality 100.0 % Test CRC 74621CAC Copy CRC 74621CAC Accurately ripped (confidence 1) [28CB3D06] Copy OK

Track 5

Filename C:\EACrips\05. Annalise - Promised Land.wav

Pre-gap length 0:00:02.58

Peak level 100.0 % Track quality 100.0 % Test CRC A0AE3BA1 Copy CRC A0AE3BA1 Accurately ripped (confidence 1) [C062D4B6] Copy OK

Track 6

Filename C:\EACrips\06. Vivi - Just For Me.wav

Pre-gap length 0:00:02.57

Peak level 100.0 % Track quality 100.0 % Test CRC E724EDE1 Copy CRC E724EDE1 Accurately ripped (confidence 1) [D30331A1] Copy OK

Track 7

Filename C:\EACrips\07. Helena - Lonely Night 2006.wav

Pre-gap length 0:00:02.58

Peak level 100.0 % Track quality 100.0 % Test CRC 23EC5149 Copy CRC 23EC5149 Accurately ripped (confidence 1) [EC69EC7F] Copy OK

Track 8

Filename C:\EACrips\08. Dave - Pride.wav

Pre-gap length 0:00:02.58

Peak level 100.0 % Track quality 100.0 % Test CRC D13EC89A Copy CRC D13EC89A Accurately ripped (confidence 1) [50B63377] Copy OK

Track 9

Filename C:\EACrips\09. Money Man - Love For Money.wav

Pre-gap length 0:00:02.08

Peak level 100.0 % Track quality 100.0 % Test CRC 42979A1B Copy CRC 42979A1B Accurately ripped (confidence 1) [18914FB8] Copy OK

Track 10

Filename C:\EACrips\10. Mega NRG Man - Back On The Rocks.wav

Pre-gap length 0:00:02.58

Peak level 100.0 % Track quality 100.0 % Test CRC 5166C71D Copy CRC 5166C71D Accurately ripped (confidence 1) [7CDDD8AC] Copy OK

Track 11

Filename C:\EACrips\11. Dave Simon - Live For You.wav

Pre-gap length 0:00:02.09

Peak level 100.0 % Track quality 100.0 % Test CRC 92584BA8 Copy CRC 92584BA8 Accurately ripped (confidence 1) [850E7D81] Copy OK

Track 12

Filename C:\EACrips\12. Ace - Futureland.wav

Pre-gap length 0:00:02.57

Peak level 100.0 % Track quality 100.0 % Test CRC CA58855A Copy CRC CA58855A Accurately ripped (confidence 1) [24E3E026] Copy OK

All tracks accurately ripped

No errors occurred

End of status report
Track Listing
Disc 1:
01. Manuel - Let's Go, Come On (4:00) 1133 kBit/s
02. Fastway - Go Beat Crazy (3:23) 1127 kBit/s
03. Digital Planet - We'll See Heaven (3:17) 1138 kBit/s
04. Spock - The Fire's On Me (3:06) 1148 kBit/s
05. D-Team - Speed Car (3:27) 1124 kBit/s
06. Fastway - Revolution (2:51) 1123 kBit/s
07. Symbol - Forever Young (3:20) 1146 kBit/s
08. Mega NRG Man - Supertonic Lady (3:31) 1149 kBit/s
09. Dusty - Midnight Lover (2:58) 1124 kBit/s
10. Digital Planet - Fly Away (3:23) 1145 kBit/s
11. Dark Angels - Right Now (2:45) 1111 kBit/s
12. Ace - Power Of Sound (3:23) 1099 kBit/s
13. Jean Love - Steel Blade (2:46) 1121 kBit/s
14. Ace - Tokyo Lights (3:08) 1107 kBit/s
15. Ace - Drivin' Crazy (3:09) 1123 kBit/s
16. Fastway - Raising Hell (2:58) 1129 kBit/s
17. Jean Love - Movin' Up Moving Now (2:30) 1133 kBit/s
18. Manuel - On My Wings (2:49) 1165 kBit/s
19. Brian Ice - I Believe In Lovin' You (2:57) 1134 kBit/s
20. Manuel - What You Need (2:32) 1148 kBit/s
21. Dave Rodgers - Wild Reputation 2005 (2:49) 1142 kBit/s
22. Chris T. - I Wanna Be The Night (3:10) 1140 kBit/s
23. Manuel - No Control (3:32) 1093 kBit/s

Disc 2:
01. Powerful T. - Blood And Fire (3:32) 1101 kBit/s
02. Fastway - Kingo King'O Beat (3:02) 1156 kBit/s
03. Norma Sheffield - I Just Wanna Call You Now (3:08) 1157 kBit/s
04. Nick Mansell - Mission Impossible (3:21) 1153 kBit/s
05. Karen - Fly In The Sky (2:40) 1145 kBit/s
06. Matt Land - City Lover City Rider (3:04) 1179 kBit/s
07. Neo - Go Go Money (Friday Night Version) (4:14) 1141 kBit/s
08. Mega NRG Man - Back On The Rocks (3:03) 1096 kBit/s
09. Pamsy - So Fragile (3:38) 1174 kBit/s
10. Go 2 - Looka Bomba (3:51) 1123 kBit/s
11. Ace - Rider Of The Sky (2:24) 1145 kBit/s
12. Eurofunk - Stop To Give Up (3:17) 1099 kBit/s
13. Dave Rodgers - Eldorado (3:15) 1098 kBit/s
14. Kevin & Cherry - Chemical Love (3:06) 1139 kBit/s
15. Mr. M - All That I Want (2:33) 1131 kBit/s
16. Dave Rodgers - Lucky Man (3:44) 1142 kBit/s
17. Neo - Takumi (4:31) 1104 kBit/s
18. Various - Special Mega-Mix From Battle Digest (7:50) 1098 kBit/s

Disc 3 (DVD):
Initial D Fourth Stage Battle Digest - 632 МБ(ISO)
CRC32: 78BB0289
MD5: 2062F42737EA932D2F32151FF7936D13
SHA-1: D2FE424FFCF46E10FA25F38506F1F549180EA307
Release Date - 28.02.2007
Catalogue Number - AVCA-26165/6/B

 
Exact Audio Copy V0.99 prebeta 5 from 4. May 2009

EAC extraction logfile from 15. August 2009, 19:16

Various / Initial D Fourth Non-Stop Mega Mix With Battle Digest (Disc 1)

Used drive : ASUS DRW-1814BLT Adapter: 2 ID: 1

Read mode : SecureUtilize accurate stream : YesDefeat audio cache : YesMake use of C2 pointers : No

Read offset correction : 6Overread into Lead-In and Lead-Out : NoFill up missing offset samples with silence : YesDelete leading and trailing silent blocks : NoNull samples used in CRC calculations : YesUsed interface : Installed external ASPI interfaceGap handling : Appended to previous track

Used output format : User Defined EncoderSelected bitrate : 128 kBit/sQuality : HighAdd ID3 tag : NoCommand line compressor : C:\Program Files\Exact Audio Copy\Flac\flac.exeAdditional command line options : -8 -V -T "ARTIST=%a" -T "TITLE=%t" -T "ALBUM=%g" -T "DATE=%y" -T "TRACKNUMBER=%n" -T "GENRE=%m" -T "COMMENT=ripper by K1RZA" %s

TOC of the extracted CD

Track | Start | Length | Start sector | End sector --------------------------------------------------------- 1 | 0:00.00 | 4:00.02 | 0 | 18001 2 | 4:00.02 | 3:23.05 | 18002 | 33231 3 | 7:23.07 | 3:16.68 | 33232 | 47999 4 | 10:40.00 | 3:06.02 | 48000 | 61951 5 | 13:46.02 | 3:27.20 | 61952 | 77496 6 | 17:13.22 | 2:51.23 | 77497 | 90344 7 | 20:04.45 | 3:19.60 | 90345 | 105329 8 | 23:24.30 | 3:31.35 | 105330 | 121189 9 | 26:55.65 | 2:58.37 | 121190 | 134576 10 | 29:54.27 | 3:23.05 | 134577 | 149806 11 | 33:17.32 | 2:44.40 | 149807 | 162146 12 | 36:01.72 | 3:23.03 | 162147 | 177374 13 | 39:25.00 | 2:46.12 | 177375 | 189836 14 | 42:11.12 | 3:08.23 | 189837 | 203959 15 | 45:19.35 | 3:08.60 | 203960 | 218119 16 | 48:28.20 | 2:58.32 | 218120 | 231501 17 | 51:26.52 | 2:29.73 | 231502 | 242749 18 | 53:56.50 | 2:48.72 | 242750 | 255421 19 | 56:45.47 | 2:56.60 | 255422 | 268681 20 | 59:42.32 | 2:32.28 | 268682 | 280109 21 | 62:14.60 | 2:48.40 | 280110 | 292749 22 | 65:03.25 | 3:10.32 | 292750 | 307031 23 | 68:13.57 | 3:31.65 | 307032 | 322921

Track 1

Filename C:\EACRips\01. Manuel - Let's Go, Come On.wav

Pre-gap length 0:00:02.00

Peak level 100.0 % Track quality 100.0 % Test CRC 887E9AD0 Copy CRC 887E9AD0 Accurately ripped (confidence 3) [2F9CC389] Copy OK

Track 2

Filename C:\EACRips\02. Fastway - Go Beat Crazy.wav

Peak level 100.0 % Track quality 100.0 % Test CRC 04F6D851 Copy CRC 04F6D851 Accurately ripped (confidence 3) [B9229772] Copy OK

Track 3

Filename C:\EACRips\03. Digital Planet - We'll See Heaven.wav

Peak level 100.0 % Track quality 99.9 % Test CRC 0D971F0B Copy CRC 0D971F0B Accurately ripped (confidence 3) [F62CE8E0] Copy OK

Track 4

Filename C:\EACRips\04. Spock - The Fire's On Me.wav

Peak level 100.0 % Track quality 100.0 % Test CRC D2B1F033 Copy CRC D2B1F033 Accurately ripped (confidence 3) [9AAF208D] Copy OK

Track 5

Filename C:\EACRips\05. D-Team - Speed Car.wav

Peak level 100.0 % Track quality 100.0 % Test CRC 6028B6B9 Copy CRC 6028B6B9 Accurately ripped (confidence 3) [D25BB472] Copy OK

Track 6

Filename C:\EACRips\06. Fastway - Revolution.wav

Peak level 100.0 % Track quality 100.0 % Test CRC D77741DC Copy CRC D77741DC Accurately ripped (confidence 3) [CE497321] Copy OK

Track 7

Filename C:\EACRips\07. Symbol - Forever Young.wav

Peak level 100.0 % Track quality 100.0 % Test CRC B8C77CC8 Copy CRC B8C77CC8 Accurately ripped (confidence 3) [8323F0A8] Copy OK

Track 8

Filename C:\EACRips\08. Mega NRG Man - Supertonic Lady.wav

Peak level 100.0 % Track quality 100.0 % Test CRC CCECA209 Copy CRC CCECA209 Accurately ripped (confidence 3) [00C65A23] Copy OK

Track 9

Filename C:\EACRips\09. Dusty - Midnight Lover.wav

Peak level 100.0 % Track quality 100.0 % Test CRC 1C4DB89D Copy CRC 1C4DB89D Accurately ripped (confidence 3) [209B4072] Copy OK

Track 10

Filename C:\EACRips\10. Digital Planet - Fly Away.wav

Peak level 100.0 % Track quality 100.0 % Test CRC 6CB2B8E3 Copy CRC 6CB2B8E3 Accurately ripped (confidence 3) [CDF65D78] Copy OK

Track 11

Filename C:\EACRips\11. Dark Angels - Right Now.wav

Peak level 100.0 % Track quality 100.0 % Test CRC 2DA6DD42 Copy CRC 2DA6DD42 Accurately ripped (confidence 3) [4DF4A76E] Copy OK

Track 12

Filename C:\EACRips\12. Ace - Power Of Sound.wav

Peak level 100.0 % Track quality 100.0 % Test CRC 62AB7B7A Copy CRC 62AB7B7A Accurately ripped (confidence 3) [6D76D565] Copy OK

Track 13

Filename C:\EACRips\13. Jean Love - Steel Blade.wav

Peak level 100.0 % Track quality 100.0 % Test CRC 97CDB254 Copy CRC 97CDB254 Accurately ripped (confidence 3) [3F47569C] Copy OK

Track 14

Filename C:\EACRips\14. Ace - Tokyo Lights.wav

Peak level 100.0 % Track quality 100.0 % Test CRC 0A47E794 Copy CRC 0A47E794 Accurately ripped (confidence 3) [8262E865] Copy OK

Track 15

Filename C:\EACRips\15. Ace - Drivin' Crazy.wav

Peak level 100.0 % Track quality 100.0 % Test CRC F2F185D4 Copy CRC F2F185D4 Accurately ripped (confidence 3) [F98C0D1D] Copy OK

Track 16

Filename C:\EACRips\16. Fastway - Raising Hell.wav

Peak level 100.0 % Track quality 100.0 % Test CRC 432A84EE Copy CRC 432A84EE Accurately ripped (confidence 3) [8F3DD359] Copy OK

Track 17

Filename C:\EACRips\17. Jean Love - Movin' Up Moving Now.wav

Peak level 100.0 % Track quality 100.0 % Test CRC F9FA1BFC Copy CRC F9FA1BFC Accurately ripped (confidence 3) [E83191FF] Copy OK

Track 18

Filename C:\EACRips\18. Manuel - On My Wings.wav

Peak level 100.0 % Track quality 100.0 % Test CRC 0B7E81C3 Copy CRC 0B7E81C3 Accurately ripped (confidence 3) [112E42E9] Copy OK

Track 19

Filename C:\EACRips\19. Brian Ice - I Believe In Lovin' You.wav

Peak level 100.0 % Track quality 100.0 % Test CRC E74325DB Copy CRC E74325DB Accurately ripped (confidence 3) [8D22D200] Copy OK

Track 20

Filename C:\EACRips\20. Manuel - What You Need.wav

Peak level 100.0 % Track quality 100.0 % Test CRC 808E2492 Copy CRC 808E2492 Accurately ripped (confidence 3) [728F812F] Copy OK

Track 21

Filename C:\EACRips\21. Dave Rodgers - Wild Reputation 2005.wav

Peak level 100.0 % Track quality 100.0 % Test CRC A6F915B5 Copy CRC A6F915B5 Accurately ripped (confidence 3) [0191B769] Copy OK

Track 22

Filename C:\EACRips\22. Chris T. - I Wanna Be The Night.wav

Peak level 100.0 % Track quality 100.0 % Test CRC 29D4FC70 Copy CRC 29D4FC70 Accurately ripped (confidence 3) [47D2995D] Copy OK

Track 23

Filename C:\EACRips\23. Manuel - No Control.wav

Peak level 100.0 % Track quality 99.9 % Test CRC B3F6A80B Copy CRC B3F6A80B Accurately ripped (confidence 3) [B6E81470] Copy OK

All tracks accurately ripped

No errors occurred

End of status report
 
Exact Audio Copy V0.99 prebeta 5 from 4. May 2009

EAC extraction logfile from 15. August 2009, 19:38

Various / Initial D Fourth Non-Stop Mega Mix With Battle Digest (Disc 2)

Used drive : ASUS DRW-1814BLT Adapter: 2 ID: 1

Read mode : SecureUtilize accurate stream : YesDefeat audio cache : YesMake use of C2 pointers : No

Read offset correction : 6Overread into Lead-In and Lead-Out : NoFill up missing offset samples with silence : YesDelete leading and trailing silent blocks : NoNull samples used in CRC calculations : YesUsed interface : Installed external ASPI interfaceGap handling : Appended to previous track

Used output format : User Defined EncoderSelected bitrate : 128 kBit/sQuality : HighAdd ID3 tag : NoCommand line compressor : C:\Program Files\Exact Audio Copy\Flac\flac.exeAdditional command line options : -8 -V -T "ARTIST=%a" -T "TITLE=%t" -T "ALBUM=%g" -T "DATE=%y" -T "TRACKNUMBER=%n" -T "GENRE=%m" -T "COMMENT=ripper by K1RZA" %s

TOC of the extracted CD

Track | Start | Length | Start sector | End sector --------------------------------------------------------- 1 | 0:00.00 | 3:31.72 | 0 | 15896 2 | 3:31.72 | 3:02.03 | 15897 | 29549 3 | 6:34.00 | 3:08.00 | 29550 | 43649 4 | 9:42.00 | 3:20.50 | 43650 | 58699 5 | 13:02.50 | 2:40.37 | 58700 | 70736 6 | 15:43.12 | 3:04.05 | 70737 | 84541 7 | 18:47.17 | 4:14.13 | 84542 | 103604 8 | 23:01.30 | 3:02.42 | 103605 | 117296 9 | 26:03.72 | 3:38.10 | 117297 | 133656 10 | 29:42.07 | 3:50.68 | 133657 | 150974 11 | 33:33.00 | 2:23.55 | 150975 | 161754 12 | 35:56.55 | 3:17.05 | 161755 | 176534 13 | 39:13.60 | 3:15.07 | 176535 | 191166 14 | 42:28.67 | 3:05.48 | 191167 | 205089 15 | 45:34.40 | 2:32.52 | 205090 | 216541 16 | 48:07.17 | 3:43.45 | 216542 | 233311 17 | 51:50.62 | 4:30.40 | 233312 | 253601 18 | 56:21.27 | 7:50.08 | 253602 | 288859

Track 1

Filename C:\EACRips\01. Powerful T. - Blood And Fire.wav

Pre-gap length 0:00:02.00

Peak level 100.0 % Track quality 100.0 % Test CRC F81C11C6 Copy CRC F81C11C6 Accurately ripped (confidence 3) [80EF8F4F] Copy OK

Track 2

Filename C:\EACRips\02. Fastway - Kingo King'O Beat.wav

Peak level 100.0 % Track quality 100.0 % Test CRC F668482F Copy CRC F668482F Accurately ripped (confidence 3) [889B1806] Copy OK

Track 3

Filename C:\EACRips\03. Norma Sheffield - I Just Wanna Call You Now.wav

Peak level 100.0 % Track quality 100.0 % Test CRC BD48B7D7 Copy CRC BD48B7D7 Accurately ripped (confidence 3) [CAA52F95] Copy OK

Track 4

Filename C:\EACRips\04. Nick Mansell - Mission Impossible.wav

Peak level 100.0 % Track quality 100.0 % Test CRC DFE8E800 Copy CRC DFE8E800 Accurately ripped (confidence 3) [3784775A] Copy OK

Track 5

Filename C:\EACRips\05. Karen - Fly In The Sky.wav

Peak level 100.0 % Track quality 100.0 % Test CRC 3FF57564 Copy CRC 3FF57564 Accurately ripped (confidence 3) [73BC3571] Copy OK

Track 6

Filename C:\EACRips\06. Matt Land - City Lover City Rider.wav

Peak level 100.0 % Track quality 100.0 % Test CRC 38595384 Copy CRC 38595384 Accurately ripped (confidence 3) [6EA24FDF] Copy OK

Track 7

Filename C:\EACRips\07. Neo - Go Go Money (Friday Night Version).wav

Peak level 100.0 % Track quality 100.0 % Test CRC 9AC6FC1F Copy CRC 9AC6FC1F Accurately ripped (confidence 3) [55E3A7D1] Copy OK

Track 8

Filename C:\EACRips\08. Mega NRG Man - Back On The Rocks.wav

Peak level 100.0 % Track quality 100.0 % Test CRC 4BF0830E Copy CRC 4BF0830E Accurately ripped (confidence 3) [2A54A365] Copy OK

Track 9

Filename C:\EACRips\09. Pamsy - So Fragile.wav

Peak level 100.0 % Track quality 99.9 % Test CRC C34B4CDD Copy CRC C34B4CDD Accurately ripped (confidence 3) [E9E5E90D] Copy OK

Track 10

Filename C:\EACRips\10. Go 2 - Looka Bomba.wav

Peak level 100.0 % Track quality 100.0 % Test CRC 7E3D1C0C Copy CRC 7E3D1C0C Accurately ripped (confidence 3) [555FBD41] Copy OK

Track 11

Filename C:\EACRips\11. Ace - Rider Of The Sky.wav

Peak level 100.0 % Track quality 100.0 % Test CRC 123806D8 Copy CRC 123806D8 Accurately ripped (confidence 3) [8DB2C534] Copy OK

Track 12

Filename C:\EACRips\12. Eurofunk - Stop To Give Up.wav

Peak level 100.0 % Track quality 100.0 % Test CRC 9380E148 Copy CRC 9380E148 Accurately ripped (confidence 3) [15BFD042] Copy OK

Track 13

Filename C:\EACRips\13. Dave Rodgers - Eldorado.wav

Peak level 100.0 % Track quality 100.0 % Test CRC 5C4B3E05 Copy CRC 5C4B3E05 Accurately ripped (confidence 3) [530CE54A] Copy OK

Track 14

Filename C:\EACRips\14. Kevin & Cherry - Chemical Love.wav

Peak level 100.0 % Track quality 99.9 % Test CRC 457F879E Copy CRC 457F879E Accurately ripped (confidence 3) [C94F44DF] Copy OK

Track 15

Filename C:\EACRips\15. Mr. M - All That I Want.wav

Peak level 100.0 % Track quality 100.0 % Test CRC 6854DC1A Copy CRC 6854DC1A Accurately ripped (confidence 3) [BBFFDC08] Copy OK

Track 16

Filename C:\EACRips\16. Dave Rodgers - Lucky Man.wav

Peak level 100.0 % Track quality 100.0 % Test CRC C6DC38CA Copy CRC C6DC38CA Accurately ripped (confidence 3) [F301A030] Copy OK

Track 17

Filename C:\EACRips\17. Neo - Takumi.wav

Peak level 100.0 % Track quality 100.0 % Test CRC 2DFA845D Copy CRC 2DFA845D Accurately ripped (confidence 3) [F0A4038C] Copy OK

Track 18

Filename C:\EACRips\18. Various - Special Mega-Mix From Battle Digest.wav

Pre-gap length 0:00:03.55

Peak level 100.0 % Track quality 100.0 % Test CRC D53E07F1 Copy CRC D53E07F1 Accurately ripped (confidence 3) [9DB2CD0F] Copy OK

All tracks accurately ripped

No errors occurred

End of status report
Track Listing
01. Ace - Rider Of The Sky (4:16) 1127 kBit/s
02. Lou Grant - Don't Stop The Music (4:45) 1115 kBit/s
03. Mega NRG Man - Get Me Power (5:11) 1129 kBit/s
04. Max Coveri - Running In The 90's (3:02) 1135 kBit/s
05. Nathalie - Heartbeat (3:28) 1119 kBit/s
06. Za-Za - Love & Money (4:10) 1130 kBit/s
07. Robert Patton - Big In Japan (3:53) 1108 kBit/s
08. Digital Planet - We'll See Heaven (3:30) 1153 kBit/s
09. Spock - The Fire's On Me (4:09) 1127 kBit/s
10. Digital Planet - Fly Away (3:48) 1162 kBit/s
11. Dark Angel - Right Now (3:37) 1091 kBit/s
12. Ace - Power Of Sound (4:03) 1113 kBit/s
13. Jean Love - Steel Blade (3:31) 1116 kBit/s
14. Manuel - What You Need (3:50) 1151 kBit/s
15. Fastway - Kingo King'O Beat (3:51) 1164 kBit/s
16. Neo - Go Go Money (Friday Night Ver.) (3:45) 1118 kBit/s
17. Go 2 - Looka Bomba (3:24) 1123 kBit/s
18. Mega NRG Man - Back On The Rocks (3:47) 1067 kBit/s
19. Edo Boys - No One Sleep In Tokyo (4:24) 1076 kBit/s
Release Date - 31.01.2007
Catalogue Number - AVCA-26172

 
Exact Audio Copy V0.99 prebeta 5 from 4. May 2009

EAC extraction logfile from 31. July 2009, 21:36

Various / Initial D Non-Stop Mix From Keisuke-Selection

Used drive : ASUS DRW-1814BLT Adapter: 2 ID: 1

Read mode : SecureUtilize accurate stream : YesDefeat audio cache : YesMake use of C2 pointers : No

Read offset correction : 6Overread into Lead-In and Lead-Out : NoFill up missing offset samples with silence : YesDelete leading and trailing silent blocks : NoNull samples used in CRC calculations : YesUsed interface : Installed external ASPI interfaceGap handling : Appended to previous track

Used output format : User Defined EncoderSelected bitrate : 128 kBit/sQuality : HighAdd ID3 tag : NoCommand line compressor : C:\Program Files\Exact Audio Copy\Flac\flac.exeAdditional command line options : -8 -V -T "ARTIST=%a" -T "TITLE=%t" -T "ALBUM=%g" -T "DATE=%y" -T "TRACKNUMBER=%n" -T "GENRE=%m" -T "COMMENT=ripper by K1RZA" %s

TOC of the extracted CD

Track | Start | Length | Start sector | End sector --------------------------------------------------------- 1 | 0:00.00 | 4:16.32 | 0 | 19231 2 | 4:16.32 | 4:45.05 | 19232 | 40611 3 | 9:01.37 | 5:11.18 | 40612 | 63954 4 | 14:12.55 | 3:01.50 | 63955 | 77579 5 | 17:14.30 | 3:27.40 | 77580 | 93144 6 | 20:41.70 | 4:09.62 | 93145 | 111881 7 | 24:51.57 | 3:52.55 | 111882 | 129336 8 | 28:44.37 | 3:29.50 | 129337 | 145061 9 | 32:14.12 | 4:09.20 | 145062 | 163756 10 | 36:23.32 | 3:47.50 | 163757 | 180831 11 | 40:11.07 | 3:36.58 | 180832 | 197089 12 | 43:47.65 | 4:03.07 | 197090 | 215321 13 | 47:50.72 | 3:30.58 | 215322 | 231129 14 | 51:21.55 | 3:50.07 | 231130 | 248386 15 | 55:11.62 | 3:51.30 | 248387 | 265741 16 | 59:03.17 | 3:44.60 | 265742 | 282601 17 | 62:48.02 | 3:23.38 | 282602 | 297864 18 | 66:11.40 | 3:47.27 | 297865 | 314916 19 | 69:58.67 | 4:23.63 | 314917 | 334704

Track 1

Filename C:\EACRips\01. Ace - Rider Of The Sky.wav

Pre-gap length 0:00:02.00

Peak level 100.0 % Track quality 100.0 % Test CRC 1B25F586 Copy CRC 1B25F586 Accurately ripped (confidence 1) [39D35F26] Copy OK

Track 2

Filename C:\EACRips\02. Lou Grant - Don't Stop The Music.wav

Peak level 100.0 % Track quality 100.0 % Test CRC 1477E772 Copy CRC 1477E772 Accurately ripped (confidence 1) [44DE398B] Copy OK

Track 3

Filename C:\EACRips\03. Mega NRG Man - Get Me Power.wav

Peak level 100.0 % Track quality 100.0 % Test CRC 018F54FA Copy CRC 018F54FA Accurately ripped (confidence 1) [5DB623F5] Copy OK

Track 4

Filename C:\EACRips\04. Max Coveri - Running In The 90's.wav

Peak level 100.0 % Track quality 99.9 % Test CRC C9910B67 Copy CRC C9910B67 Accurately ripped (confidence 1) [3A0198E3] Copy OK

Track 5

Filename C:\EACRips\05. Nathalie - Heartbeat.wav

Peak level 100.0 % Track quality 99.9 % Test CRC 52F2795F Copy CRC 52F2795F Accurately ripped (confidence 1) [CAC291EC] Copy OK

Track 6

Filename C:\EACRips\06. Za-Za - Love & Money.wav

Peak level 100.0 % Track quality 100.0 % Test CRC 99A7D8D8 Copy CRC 99A7D8D8 Accurately ripped (confidence 1) [075E9270] Copy OK

Track 7

Filename C:\EACRips\07. Robert Patton - Big In Japan.wav

Peak level 100.0 % Track quality 100.0 % Test CRC CCC84AEA Copy CRC CCC84AEA Accurately ripped (confidence 1) [840168EC] Copy OK

Track 8

Filename C:\EACRips\08. Digital Planet - We'll See Heaven.wav

Peak level 100.0 % Track quality 100.0 % Test CRC 98A296FB Copy CRC 98A296FB Accurately ripped (confidence 1) [AE0D144A] Copy OK

Track 9

Filename C:\EACRips\09. Spock - The Fire's On Me.wav

Peak level 100.0 % Track quality 100.0 % Test CRC DA7F70C4 Copy CRC DA7F70C4 Accurately ripped (confidence 1) [D944DE47] Copy OK

Track 10

Filename C:\EACRips\10. Digital Planet - Fly Away.wav

Peak level 100.0 % Track quality 100.0 % Test CRC 477DDE4D Copy CRC 477DDE4D Accurately ripped (confidence 1) [70001BA4] Copy OK

Track 11

Filename C:\EACRips\11. Dark Angel - Right Now.wav

Peak level 100.0 % Track quality 100.0 % Test CRC 8776E335 Copy CRC 8776E335 Accurately ripped (confidence 1) [9527EA58] Copy OK

Track 12

Filename C:\EACRips\12. Ace - Power Of Sound.wav

Peak level 100.0 % Track quality 99.9 % Test CRC CEEE4BDD Copy CRC CEEE4BDD Accurately ripped (confidence 1) [FA383777] Copy OK

Track 13

Filename C:\EACRips\13. Jean Love - Steel Blade.wav

Peak level 100.0 % Track quality 100.0 % Test CRC C706B025 Copy CRC C706B025 Accurately ripped (confidence 1) [94489427] Copy OK

Track 14

Filename C:\EACRips\14. Manuel - What You Need.wav

Peak level 100.0 % Track quality 100.0 % Test CRC D1E792F5 Copy CRC D1E792F5 Accurately ripped (confidence 1) [CB07A6DF] Copy OK

Track 15

Filename C:\EACRips\15. Fastway - Kingo King'O Beat.wav

Peak level 100.0 % Track quality 100.0 % Test CRC 93F5E1FA Copy CRC 93F5E1FA Accurately ripped (confidence 1) [26937F9B] Copy OK

Track 16

Filename C:\EACRips\16. Neo - Go Go Money (Friday Night Ver.).wav

Peak level 100.0 % Track quality 99.9 % Test CRC 0FF45BE2 Copy CRC 0FF45BE2 Accurately ripped (confidence 1) [21558B6B] Copy OK

Track 17

Filename C:\EACRips\17. Go 2 - Looka Bomba.wav

Peak level 100.0 % Track quality 100.0 % Test CRC 428B9292 Copy CRC 428B9292 Accurately ripped (confidence 1) [AA05F552] Copy OK

Track 18

Filename C:\EACRips\18. Mega NRG Man - Back On The Rocks.wav

Peak level 100.0 % Track quality 100.0 % Test CRC D2C1E6B9 Copy CRC D2C1E6B9 Accurately ripped (confidence 1) [0138B871] Copy OK

Track 19

Filename C:\EACRips\19. Edo Boys - No One Sleep In Tokyo.wav

Peak level 100.0 % Track quality 100.0 % Test CRC BC85E833 Copy CRC BC85E833 Accurately ripped (confidence 1) [2C9F620F] Copy OK

All tracks accurately ripped

No errors occurred

End of status report
Track Listing
01. Neo - Takumi (3:37) 1141 kBit/s
02. Sara - Burning Up For You (3:29) 1182 kBit/s
03. Dave Rodgers - Boom Boom Japan (3:20) 1149 kBit/s
04. Dave Rodgers - Beat Of The Rising Sun (3:38) 1128 kBit/s
05. Norma Sheffield - Maybe Tonite (2:57) 1118 kBit/s
06. Dave Mc Loud - Mikado (2:47) 1127 kBit/s
07. Marko Polo - Speedy Speed Boy (2:48) 1151 kBit/s
08. Wain L - Make Up Your Mind (3:10) 1109 kBit/s
09. Mega NRG Man - Grand Prix (3:28) 1124 kBit/s
10. Mega NRG Man - Express Love (3:54) 1110 kBit/s
11. Fastway - Revolution (3:48) 1124 kBit/s
12. Symbol - Forever Young (3:13) 1141 kBit/s
13. Fastway - Raising Hell (2:51) 1128 kBit/s
14. Manuel - On My Wings (3:17) 1174 kBit/s
15. Norma Sheffield - I Just Wanna Call You Now (3:35) 1172 kBit/s
16. Nick Mansell - Mission Impossible (2:50) 1170 kBit/s
17. Eurofunk - Stop To Give Up (3:43) 1094 kBit/s
18. Kevin & Cherry - Chemical Love (4:06) 1169 kBit/s
19. Dave Rodgers - Lucky Man (3:43) 1153 kBit/s
20. Dave Rodgers - Space Boy (4:24) 1071 kBit/s
Release Date - 31.01.2007
Catalogue Number - AVCA-26171

 
Exact Audio Copy V0.99 prebeta 5 from 4. May 2009

EAC extraction logfile from 31. July 2009, 22:02

Various / Initial D Non-Stop Mix From Takumi-Selection

Used drive : ASUS DRW-1814BLT Adapter: 2 ID: 1

Read mode : SecureUtilize accurate stream : YesDefeat audio cache : YesMake use of C2 pointers : No

Read offset correction : 6Overread into Lead-In and Lead-Out : NoFill up missing offset samples with silence : YesDelete leading and trailing silent blocks : NoNull samples used in CRC calculations : YesUsed interface : Installed external ASPI interfaceGap handling : Appended to previous track

Used output format : User Defined EncoderSelected bitrate : 128 kBit/sQuality : HighAdd ID3 tag : NoCommand line compressor : C:\Program Files\Exact Audio Copy\Flac\flac.exeAdditional command line options : -8 -V -T "ARTIST=%a" -T "TITLE=%t" -T "ALBUM=%g" -T "DATE=%y" -T "TRACKNUMBER=%n" -T "GENRE=%m" -T "COMMENT=ripper by K1RZA" %s

TOC of the extracted CD

Track | Start | Length | Start sector | End sector --------------------------------------------------------- 1 | 0:00.00 | 3:37.17 | 0 | 16291 2 | 3:37.17 | 3:28.55 | 16292 | 31946 3 | 7:05.72 | 3:19.50 | 31947 | 46921 4 | 10:25.47 | 3:37.50 | 46922 | 63246 5 | 14:03.22 | 2:57.23 | 63247 | 76544 6 | 17:00.45 | 2:46.62 | 76545 | 89056 7 | 19:47.32 | 2:48.30 | 89057 | 101686 8 | 22:35.62 | 3:09.73 | 101687 | 115934 9 | 25:45.60 | 3:28.22 | 115935 | 131556 10 | 29:14.07 | 3:54.30 | 131557 | 149136 11 | 33:08.37 | 3:47.63 | 149137 | 166224 12 | 36:56.25 | 3:13.00 | 166225 | 180699 13 | 40:09.25 | 2:51.37 | 180700 | 193561 14 | 43:00.62 | 3:17.30 | 193562 | 208366 15 | 46:18.17 | 3:34.40 | 208367 | 224456 16 | 49:52.57 | 2:49.68 | 224457 | 237199 17 | 52:42.50 | 3:43.27 | 237200 | 253951 18 | 56:26.02 | 4:06.08 | 253952 | 272409 19 | 60:32.10 | 3:42.72 | 272410 | 289131 20 | 64:15.07 | 4:24.08 | 289132 | 308939

Track 1

Filename C:\EACRips\01. Neo - Takumi.wav

Pre-gap length 0:00:02.00

Peak level 100.0 % Track quality 100.0 % Test CRC 1DF1E4DE Copy CRC 1DF1E4DE Accurately ripped (confidence 1) [07AE8A84] Copy OK

Track 2

Filename C:\EACRips\02. Sara - Burning Up For You.wav

Peak level 100.0 % Track quality 100.0 % Test CRC 48E0F1CC Copy CRC 48E0F1CC Accurately ripped (confidence 1) [C99E5132] Copy OK

Track 3

Filename C:\EACRips\03. Dave Rodgers - Boom Boom Japan.wav

Peak level 100.0 % Track quality 100.0 % Test CRC 4924C51B Copy CRC 4924C51B Accurately ripped (confidence 1) [E78B2FF8] Copy OK

Track 4

Filename C:\EACRips\04. Dave Rodgers - Beat Of The Rising Sun.wav

Peak level 100.0 % Track quality 100.0 % Test CRC 36D2C9E0 Copy CRC 36D2C9E0 Accurately ripped (confidence 1) [D6B94496] Copy OK

Track 5

Filename C:\EACRips\05. Norma Sheffield - Maybe Tonite.wav

Peak level 100.0 % Track quality 99.9 % Test CRC 1F0965A6 Copy CRC 1F0965A6 Accurately ripped (confidence 1) [13D296B7] Copy OK

Track 6

Filename C:\EACRips\06. Dave Mc Loud - Mikado.wav

Peak level 100.0 % Track quality 100.0 % Test CRC 99DCDB1B Copy CRC 99DCDB1B Accurately ripped (confidence 1) [A88D5D4E] Copy OK

Track 7

Filename C:\EACRips\07. Marko Polo - Speedy Speed Boy.wav

Peak level 100.0 % Track quality 100.0 % Test CRC 4EE8EE64 Copy CRC 4EE8EE64 Accurately ripped (confidence 1) [B60105F4] Copy OK

Track 8

Filename C:\EACRips\08. Wain L - Make Up Your Mind.wav

Peak level 100.0 % Track quality 100.0 % Test CRC F58256FE Copy CRC F58256FE Accurately ripped (confidence 1) [5E302283] Copy OK

Track 9

Filename C:\EACRips\09. Mega NRG Man - Grand Prix.wav

Peak level 100.0 % Track quality 100.0 % Test CRC AF50D128 Copy CRC AF50D128 Accurately ripped (confidence 1) [10FC5D3C] Copy OK

Track 10

Filename C:\EACRips\10. Mega NRG Man - Express Love.wav

Peak level 100.0 % Track quality 100.0 % Test CRC 9002D282 Copy CRC 9002D282 Accurately ripped (confidence 1) [CFFA1E29] Copy OK

Track 11

Filename C:\EACRips\11. Fastway - Revolution.wav

Peak level 100.0 % Track quality 100.0 % Test CRC E05CEF7D Copy CRC E05CEF7D Accurately ripped (confidence 1) [3EAF53FF] Copy OK

Track 12

Filename C:\EACRips\12. Symbol - Forever Young.wav

Peak level 100.0 % Track quality 100.0 % Test CRC 7DE4897E Copy CRC 7DE4897E Accurately ripped (confidence 1) [E47607D2] Copy OK

Track 13

Filename C:\EACRips\13. Fastway - Raising Hell.wav

Peak level 100.0 % Track quality 100.0 % Test CRC 525F91A2 Copy CRC 525F91A2 Accurately ripped (confidence 1) [2861BF43] Copy OK

Track 14

Filename C:\EACRips\14. Manuel - On My Wings.wav

Peak level 100.0 % Track quality 100.0 % Test CRC C74B35CA Copy CRC C74B35CA Accurately ripped (confidence 1) [633ED0D7] Copy OK

Track 15

Filename C:\EACRips\15. Norma Sheffield - I Just Wanna Call You Now.wav

Peak level 100.0 % Track quality 99.9 % Test CRC 2A2DB0D8 Copy CRC 2A2DB0D8 Accurately ripped (confidence 1) [E591638B] Copy OK

Track 16

Filename C:\EACRips\16. Nick Mansell - Mission Impossible.wav

Peak level 100.0 % Track quality 100.0 % Test CRC C19C2763 Copy CRC C19C2763 Accurately ripped (confidence 1) [CF37DA08] Copy OK

Track 17

Filename C:\EACRips\17. Eurofunk - Stop To Give Up.wav

Peak level 100.0 % Track quality 100.0 % Test CRC 8A8422FF Copy CRC 8A8422FF Accurately ripped (confidence 1) [CF2F9C90] Copy OK

Track 18

Filename C:\EACRips\18. Kevin & Cherry - Chemical Love.wav

Peak level 100.0 % Track quality 100.0 % Test CRC 25B86602 Copy CRC 25B86602 Accurately ripped (confidence 1) [242F0C4C] Copy OK

Track 19

Filename C:\EACRips\19. Dave Rodgers - Lucky Man.wav

Peak level 100.0 % Track quality 100.0 % Test CRC 5D901340 Copy CRC 5D901340 Accurately ripped (confidence 1) [AB04DB7C] Copy OK

Track 20

Filename C:\EACRips\20. Dave Rodgers - Space Boy.wav

Peak level 100.0 % Track quality 100.0 % Test CRC 65E3995B Copy CRC 65E3995B Accurately ripped (confidence 1) [2815794A] Copy OK

All tracks accurately ripped

No errors occurred

End of status report
Track Listing
01. Manuel - Let's Go, Come On (Extended Version) (5:10) 1151 kBit/s
02. Fastway - Revolution (Extended Version) (4:49) 1091 kBit/s
03. Symbol - Forever Young (Extended Version) (6:21) 1110 kBit/s
04. Dark Anglels - Right Now (Extended Version) (5:19) 1020 kBit/s
05. Manuel - No Control (Extended Version) (5:12) 1143 kBit/s
06. Karen - Fly in the Sky (4:27) 1129 kBit/s
07. Go 2 - Looka Bomba (Extended Version) (5:11) 1094 kBit/s
08. Eurofunk - Stop to Give Up (Extended Version) (5:40) 1044 kBit/s
09. Dave Rodgers - Eldorado (Extended Version) (4:41) 1079 kBit/s
10. Kevin & Cherry - Chemical Love (Extended Version) (5:48) 1109 kBit/s
11. Mr.M - All That I Want (Extended Version) (5:32) 1087 kBit/s
12. Dave Rodgers - Lucky Man (4:31) 1104 kBit/s
13. Various Artists - Initial D Fourth Stage Special Non-Stop Mix (7:03) 1113 kBit/s
Release Date - 13.12.2006
Catalogue Number - AVCA-26031

 
Exact Audio Copy V0.99 prebeta 5 from 4. May 2009

EAC extraction logfile from 21. May 2009, 22:12

Various / Initial D Fourth Stage SuperEuro-Best

Used drive : ASUS DRW-1814BLT Adapter: 1 ID: 2

Read mode : SecureUtilize accurate stream : YesDefeat audio cache : YesMake use of C2 pointers : No

Read offset correction : 6Overread into Lead-In and Lead-Out : NoFill up missing offset samples with silence : YesDelete leading and trailing silent blocks : NoNull samples used in CRC calculations : YesUsed interface : Installed external ASPI interfaceGap handling : Appended to previous track

Used output format : User Defined EncoderSelected bitrate : 128 kBit/sQuality : HighAdd ID3 tag : NoCommand line compressor : C:\Program Files\FLAC\flac.exeAdditional command line options : -8 -V -T "ARTIST=%a" -T "TITLE=%t" -T "ALBUM=%g" -T "DATE=%y" -T "TRACKNUMBER=%n" -T "GENRE=%m" -T "COMMENT=ripper by K1RZA" %s

TOC of the extracted CD

Track | Start | Length | Start sector | End sector --------------------------------------------------------- 1 | 0:00.00 | 5:09.68 | 0 | 23242 2 | 5:09.68 | 4:48.50 | 23243 | 44892 3 | 9:58.43 | 6:20.47 | 44893 | 73439 4 | 16:19.15 | 5:18.68 | 73440 | 97357 5 | 21:38.08 | 5:12.35 | 97358 | 120792 6 | 26:50.43 | 4:26.45 | 120793 | 140787 7 | 31:17.13 | 5:10.42 | 140788 | 164079 8 | 36:27.55 | 5:39.42 | 164080 | 189546 9 | 42:07.22 | 4:41.28 | 189547 | 210649 10 | 46:48.50 | 5:47.45 | 210650 | 236719 11 | 52:36.20 | 5:32.15 | 236720 | 261634 12 | 58:08.35 | 4:30.43 | 261635 | 281927 13 | 62:39.03 | 7:03.04 | 281928 | 313656 14 | 72:14.07 | 7:38.68 | 325057 | 359474

Track 1

Filename C:\EACrips\01. Manuel - Let's Go, Come On (Extended Version).wav

Pre-gap length 0:00:02.00

Peak level 100.0 % Track quality 100.0 % Test CRC 444AE05D Copy CRC 444AE05D Track not present in AccurateRip database Copy OK

Track 2

Filename C:\EACrips\02. Fastway - Revolution (Extended Version).wav

Pre-gap length 0:00:01.76

Peak level 100.0 % Track quality 100.0 % Test CRC 37CA8F5C Copy CRC 37CA8F5C Track not present in AccurateRip database Copy OK

Track 3

Filename C:\EACrips\03. Symbol - Forever Young (Extended Version).wav

Pre-gap length 0:00:01.76

Peak level 100.0 % Track quality 100.0 % Test CRC 4964F0D3 Copy CRC 4964F0D3 Track not present in AccurateRip database Copy OK

Track 4

Filename C:\EACrips\04. Dark Anglels - Right Now (Extended Version).wav

Pre-gap length 0:00:01.76

Peak level 100.0 % Track quality 100.0 % Test CRC 991B8569 Copy CRC 991B8569 Track not present in AccurateRip database Copy OK

Track 5

Filename C:\EACrips\05. Manuel - No Control (Extended Version).wav

Pre-gap length 0:00:01.76

Peak level 100.0 % Track quality 99.9 % Test CRC D4A1C175 Copy CRC D4A1C175 Track not present in AccurateRip database Copy OK

Track 6

Filename C:\EACrips\06. Karen - Fly in the Sky.wav

Pre-gap length 0:00:01.74

Peak level 100.0 % Track quality 100.0 % Test CRC 640EBB3B Copy CRC 640EBB3B Track not present in AccurateRip database Copy OK

Track 7

Filename C:\EACrips\07. Go 2 - Looka Bomba (Extended Version).wav

Pre-gap length 0:00:01.76

Peak level 100.0 % Track quality 100.0 % Test CRC 797986C3 Copy CRC 797986C3 Track not present in AccurateRip database Copy OK

Track 8

Filename C:\EACrips\08. Eurofunk - Stop to Give Up (Extended Version).wav

Pre-gap length 0:00:01.77

Peak level 100.0 % Track quality 100.0 % Test CRC F3E64B42 Copy CRC F3E64B42 Track not present in AccurateRip database Copy OK

Track 9

Filename C:\EACrips\09. Dave Rodgers - Eldorado (Extended Version).wav

Pre-gap length 0:00:01.76

Peak level 100.0 % Track quality 100.0 % Test CRC 1E9DC0AD Copy CRC 1E9DC0AD Track not present in AccurateRip database Copy OK

Track 10

Filename C:\EACrips\10. Kevin & Cherry - Chemical Love (Extended Version).wav

Pre-gap length 0:00:01.74

Peak level 100.0 % Track quality 100.0 % Test CRC 5116436D Copy CRC 5116436D Track not present in AccurateRip database Copy OK

Track 11

Filename C:\EACrips\11. Mr.M - All That I Want (Extended Version).wav

Pre-gap length 0:00:01.74

Peak level 100.0 % Track quality 100.0 % Test CRC 252805A7 Copy CRC 252805A7 Track not present in AccurateRip database Copy OK

Track 12

Filename C:\EACrips\12. Dave Rodgers - Lucky Man.wav

Pre-gap length 0:00:01.76

Peak level 100.0 % Track quality 100.0 % Test CRC 335C96B1 Copy CRC 335C96B1 Track not present in AccurateRip database Copy OK

Track 13

Filename C:\EACrips\13. Various Artists - Initial D Fourth Stage Special Non-Stop Mix.wav

Pre-gap length 0:00:02.77

Peak level 100.0 % Track quality 99.9 % Test CRC C490D41C Copy CRC C490D41C Track not present in AccurateRip database Copy OK

None of the tracks are present in the AccurateRip database

No errors occurred

End of status report
Track Listing
01. Edo Boys - No One Sleep in Tokyo (5:20) 1127 kBit/s
02. Jean Love - Steel Blade (5:15) 1120 kBit/s
03. Ace - Rider of the Sky (5:14) 1134 kBit/s
04. Mega NRG Man - Back on the Rocks (5:03) 1087 kBit/s
05. Go 2 - Looka Bomba (5:09) 1118 kBit/s
06. Lou Grant - Don't Stop the Music (5:10) 1119 kBit/s
07. Mega NRG Man - Get Me Power (5:12) 1126 kBit/s
08. Max Coveri - Running in the 90s (5:34) 1118 kBit/s
09. Nathalie - Heartbeat (5:03) 1096 kBit/s
10. Za-Za - Love and Money (6:15) 1131 kBit/s
11. Robert Patton - Big in Japan (5:16) 1112 kBit/s
12. Digital Planet - Fly Away (5:04) 1114 kBit/s
13. Dark Angels - Right Now (5:19) 1037 kBit/s
Release Date - 29.11.2006
Catalogue Number - AVCA-26024

 
AUDIOCHECKER v2.0 beta (build 457) - by Dester - [email protected]~~~~~~~~~~~~~~~~~~~~~~~~~~~~~~~~~~-=== DO NOT EDIT THIS FILE! ===-

Path ...Initial D Absolute Album Feat. Keisuke Takahashi (AVCA-26024)

01 -=- 13. Dark Angels - Right Now.flac -=- CDDA (99%)02 -=- 01. Edo Boys - No One Sleep in Tokyo.flac -=- CDDA (100%)03 -=- 02. Jean Love - Steel Blade.flac -=- CDDA (100%)04 -=- 03. Ace - Rider of the Sky.flac -=- CDDA (100%)05 -=- 04. Mega NRG Man - Back on the Rocks.flac -=- CDDA (100%)06 -=- 05. Go 2 - Looka Bomba.flac -=- CDDA (100%)07 -=- 06. Lou Grant - Don't Stop the Music.flac -=- CDDA (100%)08 -=- 07. Mega NRG Man - Get Me Power.flac -=- CDDA (100%)09 -=- 08. Max Coveri - Running in the 90s.flac -=- CDDA (100%)10 -=- 09. Nathalie - Heartbeat.flac -=- CDDA (100%)11 -=- 10. Za-Za - Love and Money.flac -=- CDDA (100%)12 -=- 11. Robert Patton - Big in Japan.flac -=- CDDA (100%)13 -=- 12. Digital Planet - Fly Away.flac -=- CDDA (100%)

Summary 99,92% CDDA

142845332
Track Listing
01. Dave Rodgers - Wild Reputation 2005 (3:56) 1081 kBit/s
02. Ace - Drivin' Crazy (3:05) 1104 kBit/s
03. Fastway - Raising Hell (3:49) 1136 kBit/s
04. Jean Love - Movin' Up Moving Now (3:04) 1112 kBit/s
05. Jean Love - Steel Blade (2:47) 1118 kBit/s
06. Spock - The Fire's On Me (3:02) 1119 kBit/s
07. Dark Angels - Right Now (3:03) 1091 kBit/s
08. Brian Ice - I Believe In Lovin' You (5:55) 1113 kBit/s
09. Chris T. - I Wanna Be The Night (4:08) 1122 kBit/s
10. Digital Planet - We'll See Heaven (3:25) 1137 kBit/s
11. Digital Planet - Fly Away (3:59) 1157 kBit/s
12. Manuel - What You Need (3:27) 1147 kBit/s
13. Manuel - On My Wings (4:14) 1162 kBit/s
14. Ace - Power Of Sound (3:53) 1139 kBit/s
15. Symbol - Forever Young (4:56) 1109 kBit/s
16. D-Team - Speed Car (3:57) 1102 kBit/s
17. Manuel - Let's Go, Come On (3:25) 1126 kBit/s
18. Fastway - Revolution (3:48) 1111 kBit/s
19. Fastway - Go Beat Crazy (4:28) 1079 kBit/s
Release Date - 25.01.2006
Catalogue Number - AVCA-22520

 
Exact Audio Copy V0.99 prebeta 5 from 4. May 2009

EAC extraction logfile from 15. August 2009, 18:28

Various / Initial D Fourth Stage D Non-Stop Selection

Used drive : ASUS DRW-1814BLT Adapter: 2 ID: 1

Read mode : SecureUtilize accurate stream : YesDefeat audio cache : YesMake use of C2 pointers : No

Read offset correction : 6Overread into Lead-In and Lead-Out : NoFill up missing offset samples with silence : YesDelete leading and trailing silent blocks : NoNull samples used in CRC calculations : YesUsed interface : Installed external ASPI interfaceGap handling : Appended to previous track

Used output format : User Defined EncoderSelected bitrate : 128 kBit/sQuality : HighAdd ID3 tag : NoCommand line compressor : C:\Program Files\Exact Audio Copy\Flac\flac.exeAdditional command line options : -8 -V -T "ARTIST=%a" -T "TITLE=%t" -T "ALBUM=%g" -T "DATE=%y" -T "TRACKNUMBER=%n" -T "GENRE=%m" -T "COMMENT=ripper by K1RZA" %s

TOC of the extracted CD

Track | Start | Length | Start sector | End sector --------------------------------------------------------- 1 | 0:00.00 | 3:55.45 | 0 | 17669 2 | 3:55.45 | 3:04.70 | 17670 | 31539 3 | 7:00.40 | 3:48.42 | 31540 | 48681 4 | 10:49.07 | 3:03.48 | 48682 | 62454 5 | 13:52.55 | 2:47.30 | 62455 | 75009 6 | 16:40.10 | 3:02.22 | 75010 | 88681 7 | 19:42.32 | 3:02.43 | 88682 | 102374 8 | 22:45.00 | 5:55.07 | 102375 | 129006 9 | 28:40.07 | 4:07.70 | 129007 | 147601 10 | 32:48.02 | 3:24.58 | 147602 | 162959 11 | 36:12.60 | 3:58.52 | 162960 | 180861 12 | 40:11.37 | 3:26.38 | 180862 | 196349 13 | 43:38.00 | 4:14.10 | 196350 | 215409 14 | 47:52.10 | 3:52.40 | 215410 | 232849 15 | 51:44.50 | 4:56.10 | 232850 | 255059 16 | 56:40.60 | 3:57.15 | 255060 | 272849 17 | 60:38.00 | 3:25.02 | 272850 | 288226 18 | 64:03.02 | 3:47.63 | 288227 | 305314 19 | 67:50.65 | 4:27.70 | 305315 | 325409 20 | 74:50.60 | 5:02.15 | 336810 | 359474

Track 1

Filename C:\EACRips\01. Dave Rodgers - Wild Reputation 2005.wav

Pre-gap length 0:00:02.00

Peak level 98.8 % Track quality 100.0 % Test CRC 4A8C514E Copy CRC 4A8C514E Track not present in AccurateRip database Copy OK

Track 2

Filename C:\EACRips\02. Ace - Drivin' Crazy.wav

Peak level 98.8 % Track quality 99.9 % Test CRC 1DB4C5DA Copy CRC 1DB4C5DA Track not present in AccurateRip database Copy OK

Track 3

Filename C:\EACRips\03. Fastway - Raising Hell.wav

Peak level 98.8 % Track quality 100.0 % Test CRC F38A5F16 Copy CRC F38A5F16 Track not present in AccurateRip database Copy OK

Track 4

Filename C:\EACRips\04. Jean Love - Movin' Up Moving Now.wav

Peak level 98.8 % Track quality 99.9 % Test CRC F46A1094 Copy CRC F46A1094 Track not present in AccurateRip database Copy OK

Track 5

Filename C:\EACRips\05. Jean Love - Steel Blade.wav

Peak level 98.8 % Track quality 100.0 % Test CRC 60008937 Copy CRC 60008937 Track not present in AccurateRip database Copy OK

Track 6

Filename C:\EACRips\06. Spock - The Fire's On Me.wav

Peak level 98.8 % Track quality 99.9 % Test CRC D3E5AACF Copy CRC D3E5AACF Track not present in AccurateRip database Copy OK

Track 7

Filename C:\EACRips\07. Dark Angels - Right Now.wav

Peak level 98.8 % Track quality 100.0 % Test CRC A46BED3C Copy CRC A46BED3C Track not present in AccurateRip database Copy OK

Track 8

Filename C:\EACRips\08. Brian Ice - I Believe In Lovin' You.wav

Peak level 98.8 % Track quality 100.0 % Test CRC 91E66262 Copy CRC 91E66262 Track not present in AccurateRip database Copy OK

Track 9

Filename C:\EACRips\09. Chris T. - I Wanna Be The Night.wav

Peak level 98.8 % Track quality 100.0 % Test CRC D197B153 Copy CRC D197B153 Track not present in AccurateRip database Copy OK

Track 10

Filename C:\EACRips\10. Digital Planet - We'll See Heaven.wav

Peak level 87.6 % Track quality 100.0 % Test CRC E8DDEC28 Copy CRC E8DDEC28 Track not present in AccurateRip database Copy OK

Track 11

Filename C:\EACRips\11. Digital Planet - Fly Away.wav

Peak level 98.8 % Track quality 100.0 % Test CRC 6C890F0C Copy CRC 6C890F0C Track not present in AccurateRip database Copy OK

Track 12

Filename C:\EACRips\12. Manuel - What You Need.wav

Peak level 98.8 % Track quality 100.0 % Test CRC AC49719E Copy CRC AC49719E Track not present in AccurateRip database Copy OK

Track 13

Filename C:\EACRips\13. Manuel - On My Wings.wav

Peak level 98.8 % Track quality 100.0 % Test CRC 0B799B14 Copy CRC 0B799B14 Track not present in AccurateRip database Copy OK

Track 14

Filename C:\EACRips\14. Ace - Power Of Sound.wav

Peak level 98.8 % Track quality 100.0 % Test CRC 43ED368E Copy CRC 43ED368E Track not present in AccurateRip database Copy OK

Track 15

Filename C:\EACRips\15. Symbol - Forever Young.wav

Peak level 98.8 % Track quality 100.0 % Test CRC FF87F514 Copy CRC FF87F514 Track not present in AccurateRip database Copy OK

Track 16

Filename C:\EACRips\16. D-Team - Speed Car.wav

Peak level 98.8 % Track quality 100.0 % Test CRC 1A679C34 Copy CRC 1A679C34 Track not present in AccurateRip database Copy OK

Track 17

Filename C:\EACRips\17. Manuel - Let's Go, Come On.wav

Peak level 98.8 % Track quality 100.0 % Test CRC B574C484 Copy CRC B574C484 Track not present in AccurateRip database Copy OK

Track 18

Filename C:\EACRips\18. Fastway - Revolution.wav

Peak level 98.8 % Track quality 100.0 % Test CRC 284968C4 Copy CRC 284968C4 Track not present in AccurateRip database Copy OK

Track 19

Filename C:\EACRips\19. Fastway - Go Beat Crazy.wav

Peak level 98.8 % Track quality 99.9 % Test CRC D5B796B2 Copy CRC D5B796B2 Track not present in AccurateRip database Copy OK

None of the tracks are present in the AccurateRip database

No errors occurred

End of status report
Track Listing
01. Manuel - No Control (5:12) 1150 kBit/s
02. Powerful T. - Blood And Fire (4:28) 1083 kBit/s
03. Fastway - Kingo King'O Beat (5:29) 1147 kBit/s
04. Norma Sheffield - I Just Wanna Call You Now (5:26) 1177 kBit/s
05. Nick Mansell - Mission Impossible (5:05) 1140 kBit/s
06. Karen - Fly In The Sky (4:27) 1141 kBit/s
07. Matt Land - City Lover City Rider (4:28) 1158 kBit/s
08. Neo - Go Go Money (Friday Night Version) (5:22) 1133 kBit/s
09. Mega NRG Man - Back On The Rocks (5:01) 1099 kBit/s
10. Pamsy - So Fragile (5:35) 1165 kBit/s
11. Go 2 - Looka Bomba (5:10) 1116 kBit/s
12. Ace - Rider Of The Sky (5:14) 1133 kBit/s
13. Various - Super Eurobeat Presents Non Stop Re-Mix (Project.D Version 3) (8:02) 1160 kBit/s
Release Date - 27.09.2006
Catalogue Number - AVCA-22940

 
AUDIOCHECKER v2.0 beta (build 457) - by Dester - [email protected]~~~~~~~~~~~~~~~~~~~~~~~~~~~~~~~~~~-=== DO NOT EDIT THIS FILE! ===-

Path: ...\Initial D Fourth Stage D Selection 3 (AVCA-22940)

01 -=- 13. Various - Super Eurobeat Presents Non Stop Re-Mix (Project.D Version 3).flac -=- CDDA (100%)02 -=- 01. Manuel - No Control.flac -=- CDDA (100%)03 -=- 02. Powerful T. - Blood And Fire.flac -=- CDDA (100%)04 -=- 03. Fastway - Kingo King'O Beat.flac -=- CDDA (100%)05 -=- 04. Norma Sheffield - I Just Wanna Call You Now.flac -=- CDDA (100%)06 -=- 05. Nick Mansell - Mission Impossible.flac -=- CDDA (100%)07 -=- 06. Karen - Fly In The Sky.flac -=- CDDA (100%)08 -=- 07. Matt Land - City Lover City Rider.flac -=- CDDA (100%)09 -=- 08. Neo - Go Go Money (Friday Night Version).flac -=- CDDA (100%)10 -=- 09. Mega NRG Man - Back On The Rocks.flac -=- CDDA (100%)11 -=- 10. Pamsy - So Fragile.flac -=- CDDA (100%)12 -=- 11. Go 2 - Looka Bomba.flac -=- CDDA (100%)13 -=- 12. Ace - Rider Of The Sky.flac -=- CDDA (100%)

Summary 100,00% CDDA

223148324
Track Listing
01. Mega NRG Man - Supertonic Lady (4:37) 1125 kBit/s
02. Dusty - Midnight Lover (4:19) 1136 kBit/s
03. Digital Planet - Fly Away (5:03) 1103 kBit/s
04. Jean Love - Steel Blade (5:14) 1106 kBit/s
05. Ace - Drivin' Crazy (4:24) 1097 kBit/s
06. Fastway - Raising Hell (5:32) 1105 kBit/s
07. Jean Love - Movin' Up Moving Now (5:38) 1075 kBit/s
08. Manuel - On My Wings (5:08) 1129 kBit/s
09. Brian Ice - I Believe In Lovin' You (5:21) 1117 kBit/s
10. Manuel - What You Need (5:08) 1128 kBit/s
11. Dave Rodgers - Wild Reputation 2005 (6:17) 1076 kBit/s
12. Chris T. - I Wanna Be The Night (4:38) 1090 kBit/s
13. Super Eurobeat Presents - Non-Stop Re-mix (Project D. ver.2) (6:48) 1112 kBit/s
Release Date - 28.09.2005
Catalogue Number - AVCA-22393

 
Exact Audio Copy V0.99 prebeta 5 from 4. May 2009

EAC extraction logfile from 19. October 2009, 19:53

Various / Initial D Fourth Stage D Selection 2

Used drive : PIONEER DVD-RW DVR-110D Adapter: 0 ID: 0

Read mode : SecureUtilize accurate stream : YesDefeat audio cache : YesMake use of C2 pointers : No

Read offset correction : 48Overread into Lead-In and Lead-Out : NoFill up missing offset samples with silence : YesDelete leading and trailing silent blocks : NoNull samples used in CRC calculations : YesUsed interface : Installed external ASPI interfaceGap handling : Appended to previous track

Used output format : User Defined EncoderSelected bitrate : 128 kBit/sQuality : HighAdd ID3 tag : NoCommand line compressor : C:\Program Files\Exact Audio Copy\Flac\flac.exeAdditional command line options : -8 -V -T "ARTIST=%a" -T "TITLE=%t" -T "ALBUM=%g" -T "DATE=%y" -T "TRACKNUMBER=%n" -T "GENRE=%m" -T "COMMENT=ripped by K1RZA" %s

TOC of the extracted CD

Track | Start | Length | Start sector | End sector --------------------------------------------------------- 1 | 0:00.00 | 4:37.05 | 0 | 20779 2 | 4:37.05 | 4:19.12 | 20780 | 40216 3 | 8:56.17 | 5:02.50 | 40217 | 62916 4 | 13:58.67 | 5:13.40 | 62917 | 86431 5 | 19:12.32 | 4:24.20 | 86432 | 106251 6 | 23:36.52 | 5:31.40 | 106252 | 131116 7 | 29:08.17 | 5:38.33 | 131117 | 156499 8 | 34:46.50 | 5:07.47 | 156500 | 179571 9 | 39:54.22 | 5:21.00 | 179572 | 203646 10 | 45:15.22 | 5:07.58 | 203647 | 226729 11 | 50:23.05 | 6:17.15 | 226730 | 255019 12 | 56:40.20 | 4:37.60 | 255020 | 275854 13 | 61:18.05 | 6:47.65 | 275855 | 306444 14 | 70:37.70 | 3:20.05 | 317845 | 332849

Track 1

Filename C:\EACRips\01. Mega NRG Man - Supertonic Lady.wav

Pre-gap length 0:00:02.00

Peak level 98.8 % Track quality 100.0 % Test CRC B2EA550C Copy CRC B2EA550C Track not present in AccurateRip database Copy OK

Track 2

Filename C:\EACRips\02. Dusty - Midnight Lover.wav

Pre-gap length 0:00:01.43

Peak level 98.8 % Track quality 100.0 % Test CRC 56EF0796 Copy CRC 56EF0796 Track not present in AccurateRip database Copy OK

Track 3

Filename C:\EACRips\03. Digital Planet - Fly Away.wav

Pre-gap length 0:00:01.42

Peak level 98.8 % Track quality 100.0 % Test CRC AED2EF98 Copy CRC AED2EF98 Track not present in AccurateRip database Copy OK

Track 4

Filename C:\EACRips\04. Jean Love - Steel Blade.wav

Pre-gap length 0:00:01.42

Peak level 98.8 % Track quality 100.0 % Test CRC 80054421 Copy CRC 80054421 Track not present in AccurateRip database Copy OK

Track 5

Filename C:\EACRips\05. Ace - Drivin' Crazy.wav

Pre-gap length 0:00:01.42

Peak level 98.8 % Track quality 100.0 % Test CRC 9E2D1469 Copy CRC 9E2D1469 Track not present in AccurateRip database Copy OK

Track 6

Filename C:\EACRips\06. Fastway - Raising Hell.wav

Pre-gap length 0:00:01.42

Peak level 98.8 % Track quality 100.0 % Test CRC 2923F80C Copy CRC 2923F80C Track not present in AccurateRip database Copy OK

Track 7

Filename C:\EACRips\07. Jean Love - Movin' Up Moving Now.wav

Pre-gap length 0:00:01.05

Peak level 98.8 % Track quality 100.0 % Test CRC 74E119F2 Copy CRC 74E119F2 Track not present in AccurateRip database Copy OK

Track 8

Filename C:\EACRips\08. Manuel - On My Wings.wav

Pre-gap length 0:00:01.43

Peak level 98.8 % Track quality 100.0 % Test CRC FE288E0E Copy CRC FE288E0E Track not present in AccurateRip database Copy OK

Track 9

Filename C:\EACRips\09. Brian Ice - I Believe In Lovin' You.wav

Pre-gap length 0:00:01.42

Peak level 98.8 % Track quality 100.0 % Test CRC C9DFA38F Copy CRC C9DFA38F Track not present in AccurateRip database Copy OK

Track 10

Filename C:\EACRips\10. Manuel - What You Need.wav

Pre-gap length 0:00:01.42

Peak level 98.8 % Track quality 100.0 % Test CRC 2E41CEC5 Copy CRC 2E41CEC5 Track not present in AccurateRip database Copy OK

Track 11

Filename C:\EACRips\11. Dave Rodgers - Wild Reputation 2005.wav

Pre-gap length 0:00:01.05

Peak level 98.8 % Track quality 99.9 % Test CRC E270EF69 Copy CRC E270EF69 Track not present in AccurateRip database Copy OK

Track 12

Filename C:\EACRips\12. Chris T. - I Wanna Be The Night.wav

Pre-gap length 0:00:01.43

Peak level 98.8 % Track quality 100.0 % Test CRC 5104EC71 Copy CRC 5104EC71 Track not present in AccurateRip database Copy OK

Track 13

Filename C:\EACRips\13. Super Eurobeat Presents - Non-Stop Re-mix (Project D. ver.2).wav

Pre-gap length 0:00:03.43

Peak level 98.8 % Track quality 100.0 % Test CRC 32BB0DC5 Copy CRC 32BB0DC5 Track not present in AccurateRip database Copy OK

None of the tracks are present in the AccurateRip database

No errors occurred

End of status report
Track Listing
01. Manuel - Let's Go, Come On (5:08) 1134 kBit/s
02. Fastway - Go Beat Crazy (5:56) 1101 kBit/s
03. Digital Planet - We'll See Heaven (4:26) 1086 kBit/s
04. Spock - The Fire's On Me (5:10) 1112 kBit/s
05. D-Team - Speed Car (5:41) 1096 kBit/s
06. Fastway - Revolution (4:47) 1082 kBit/s
07. Symbol - Forever Young (6:20) 1079 kBit/s
08. Dino Starr - Give Me Your Love (5:12) 1042 kBit/s
09. SylverR - Night Trip (5:29) 1062 kBit/s
10. Maiko - Don't Go Baby (4:04) 1064 kBit/s
11. Lia - All Around (4:52) 1071 kBit/s
12. Nutty - Secret Love (4:43) 996 kBit/s
13. Lia - Sky High (6:05) 1023 kBit/s
14. Various - Super Eurobeat Presents Non Stop Re-Mix [Project.D Ver.] (8:59) 1081 kBit/s
Release Date - 17.11.2004
Catalogue Number - AVCA-22151

 
Exact Audio Copy V0.99 prebeta 5 from 4. May 2009

EAC extraction logfile from 27. May 2010, 19:52

Various / Initial D Fourth Stage D Selection +

Used drive : PIONEER DVD-RW DVR-110D Adapter: 0 ID: 0

Read mode : SecureUtilize accurate stream : YesDefeat audio cache : YesMake use of C2 pointers : No

Read offset correction : 48Overread into Lead-In and Lead-Out : NoFill up missing offset samples with silence : YesDelete leading and trailing silent blocks : NoNull samples used in CRC calculations : YesUsed interface : Native Win32 interface for Win NT & 2000Gap handling : Appended to previous track

Used output format : User Defined EncoderSelected bitrate : 768 kBit/sQuality : HighAdd ID3 tag : NoCommand line compressor : C:\Program Files\Exact Audio Copy\FLAC\FLAC.EXEAdditional command line options : -8 -V -T "ARTIST=%a" -T "TITLE=%t" -T "ALBUM=%g" -T "DATE=%y" -T "TRACKNUMBER=%n" -T "GENRE=%m" -T "COMMENT=ripper by K1RZA" %s

TOC of the extracted CD

Track | Start | Length | Start sector | End sector --------------------------------------------------------- 1 | 0:00.00 | 5:08.35 | 0 | 23134 2 | 5:08.35 | 5:56.12 | 23135 | 49846 3 | 11:04.47 | 4:25.65 | 49847 | 69786 4 | 15:30.37 | 5:10.05 | 69787 | 93041 5 | 20:40.42 | 5:40.50 | 93042 | 118591 6 | 26:21.17 | 4:47.18 | 118592 | 140134 7 | 31:08.35 | 6:20.02 | 140135 | 168636 8 | 37:28.37 | 5:12.20 | 168637 | 192056 9 | 42:40.57 | 5:28.40 | 192057 | 216696 10 | 48:09.22 | 4:03.55 | 216697 | 234976 11 | 52:13.02 | 4:51.45 | 234977 | 256846 12 | 57:04.47 | 4:42.43 | 256847 | 278039 13 | 61:47.15 | 6:05.37 | 278040 | 305451 14 | 67:52.52 | 8:59.08 | 305452 | 345884

Track 1

Filename F:\EAC Rips\01. Manuel - Let's Go, Come On.wav

Pre-gap length 0:00:02.00

Peak level 99.9 % Track quality 99.9 % Test CRC A1402E6C Copy CRC A1402E6C Track not present in AccurateRip database Copy OK

Track 2

Filename F:\EAC Rips\02. Fastway - Go Beat Crazy.wav

Peak level 100.0 % Track quality 100.0 % Test CRC 7A53850D Copy CRC 7A53850D Track not present in AccurateRip database Copy OK

Track 3

Filename F:\EAC Rips\03. Digital Planet - We'll See Heaven.wav

Peak level 99.9 % Track quality 100.0 % Test CRC 2E25FD10 Copy CRC 2E25FD10 Track not present in AccurateRip database Copy OK

Track 4

Filename F:\EAC Rips\04. Spock - The Fire's On Me.wav

Peak level 100.0 % Track quality 100.0 % Test CRC 952CEC55 Copy CRC 952CEC55 Track not present in AccurateRip database Copy OK

Track 5

Filename F:\EAC Rips\05. D-Team - Speed Car.wav

Pre-gap length 0:00:01.20

Peak level 100.0 % Track quality 100.0 % Test CRC FAD64F74 Copy CRC FAD64F74 Track not present in AccurateRip database Copy OK

Track 6

Filename F:\EAC Rips\06. Fastway - Revolution.wav

Pre-gap length 0:00:01.16

Peak level 100.0 % Track quality 99.9 % Test CRC 1C811ECF Copy CRC 1C811ECF Track not present in AccurateRip database Copy OK

Track 7

Filename F:\EAC Rips\07. Symbol - Forever Young.wav

Peak level 98.8 % Track quality 100.0 % Test CRC B09E2B4A Copy CRC B09E2B4A Track not present in AccurateRip database Copy OK

Track 8

Filename F:\EAC Rips\08. Dino Starr - Give Me Your Love.wav

Pre-gap length 0:00:01.42

Peak level 100.0 % Track quality 100.0 % Test CRC 50094D09 Copy CRC 50094D09 Track not present in AccurateRip database Copy OK

Track 9

Filename F:\EAC Rips\09. SylverR - Night Trip.wav

Pre-gap length 0:00:01.20

Peak level 100.0 % Track quality 100.0 % Test CRC E1EE1130 Copy CRC E1EE1130 Track not present in AccurateRip database Copy OK

Track 10

Filename F:\EAC Rips\10. Maiko - Don't Go Baby.wav

Peak level 100.0 % Track quality 99.9 % Test CRC AA2E4EA9 Copy CRC AA2E4EA9 Track not present in AccurateRip database Copy OK

Track 11

Filename F:\EAC Rips\11. Lia - All Around.wav

Pre-gap length 0:00:01.16

Peak level 100.0 % Track quality 100.0 % Test CRC E4779E35 Copy CRC E4779E35 Track not present in AccurateRip database Copy OK

Track 12

Filename F:\EAC Rips\12. Nutty - Secret Love.wav

Pre-gap length 0:00:01.16

Peak level 99.9 % Track quality 99.9 % Test CRC 17795D8C Copy CRC 17795D8C Track not present in AccurateRip database Copy OK

Track 13

Filename F:\EAC Rips\13. Lia - Sky High.wav

Pre-gap length 0:00:01.46

Peak level 100.0 % Track quality 100.0 % Test CRC CE6ED25B Copy CRC CE6ED25B Track not present in AccurateRip database Copy OK

Track 14

Filename F:\EAC Rips\14. Various - Super Eurobeat Presents Non Stop Re-Mix [Project.D Ver.].wav

Pre-gap length 0:00:03.46

Peak level 100.0 % Track quality 100.0 % Test CRC 2FA3187D Copy CRC 2FA3187D Track not present in AccurateRip database Copy OK

None of the tracks are present in the AccurateRip database

No errors occurred

End of status report
 
REM GENRE EurobeatREM DATE 2004REM DISCID B912030EREM COMMENT "ExactAudioCopy v0.99pb5"PERFORMER "Various"TITLE "Initial D Fourth Stage D Selection +"FILE "01. Manuel - Let's Go, Come On.wav" WAVE TRACK 01 AUDIO TITLE "Let's Go, Come On" PERFORMER "Manuel" INDEX 01 00:00:00FILE "02. Fastway - Go Beat Crazy.wav" WAVE TRACK 02 AUDIO TITLE "Go Beat Crazy" PERFORMER "Fastway" INDEX 01 00:00:00FILE "03. Digital Planet - We'll See Heaven.wav" WAVE TRACK 03 AUDIO TITLE "We'll See Heaven" PERFORMER "Digital Planet" INDEX 01 00:00:00FILE "04. Spock - The Fire's On Me.wav" WAVE TRACK 04 AUDIO TITLE "The Fire's On Me" PERFORMER "Spock" INDEX 01 00:00:00 TRACK 05 AUDIO TITLE "Speed Car" PERFORMER "D-Team" INDEX 00 05:08:65FILE "05. D-Team - Speed Car.wav" WAVE INDEX 01 00:00:00 TRACK 06 AUDIO TITLE "Revolution" PERFORMER "Fastway" INDEX 00 05:39:38FILE "06. Fastway - Revolution.wav" WAVE INDEX 01 00:00:00FILE "07. Symbol - Forever Young.wav" WAVE TRACK 07 AUDIO TITLE "Forever Young" PERFORMER "Symbol" INDEX 01 00:00:00 TRACK 08 AUDIO TITLE "Give Me Your Love" PERFORMER "Dino Starr" INDEX 00 06:18:45FILE "08. Dino Starr - Give Me Your Love.wav" WAVE INDEX 01 00:00:00 TRACK 09 AUDIO TITLE "Night Trip" PERFORMER "SylverR" INDEX 00 05:11:05FILE "09. SylverR - Night Trip.wav" WAVE INDEX 01 00:00:00FILE "10. Maiko - Don't Go Baby.wav" WAVE TRACK 10 AUDIO TITLE "Don't Go Baby" PERFORMER "Maiko" INDEX 01 00:00:00 TRACK 11 AUDIO TITLE "All Around" PERFORMER "Lia" INDEX 00 04:02:43FILE "11. Lia - All Around.wav" WAVE INDEX 01 00:00:00 TRACK 12 AUDIO TITLE "Secret Love" PERFORMER "Nutty" INDEX 00 04:50:33FILE "12. Nutty - Secret Love.wav" WAVE INDEX 01 00:00:00 TRACK 13 AUDIO TITLE "Sky High" PERFORMER "Lia" INDEX 00 04:41:08FILE "13. Lia - Sky High.wav" WAVE INDEX 01 00:00:00 TRACK 14 AUDIO TITLE "Super Eurobeat Presents Non Stop Re-Mix [Project.D Ver.]" PERFORMER "Various" INDEX 00 06:02:02FILE "14. Various - Super Eurobeat Presents Non Stop Re-Mix [Project.D Ver.].wav" WAVE INDEX 01 00:00:00



Трекер:  [ 17-Авг-2011 12:01 ]

  

Скачать .torrent

Размер .torrent файла 309 KB


Размер: 25.29 GB
Хэш (hash) релиза: 9a67415fad190515a94890202ab4a75f0262acb2

Еще никто не оставлял запись к записи скачать торрент Super Eurobeat Presents - Initial D Original Soundtracks Lossless Collection, 1998-2009, FLAC . Будь первым!

!Обратная связь