Nigel Agyekumhene | RV: Férias no Trailer Assistir RV: Férias no Trailer 720p Dublado/Legendado Online Bob Munro (Robin Williams) está estressado de tanto trabalhar. Decidido a descansar, ele quer levar sua esposa Jamie (Cheryl Hines) e seus filhos Cassie (JoJo) e Carl (Josh Hutcherson) para uma viagem. Após prometer levá-los ao Havaí, Bob decide mudar os planos sem comunicá-los e decide viajar pelo Colorado em um trailer. Jamie, ... | Oushitsu Kyoushi Haine

Скачать порно через торрент [Pantyamateur.com ] Dolly UnionPeer.org бесплатно онлайн HD качество

Скачать новое порно 2015, 2014 новинки через торрент UnionPeer.org

Порно торрент бесплатно ЮнионПир.орг

Статистика раздачи
Размер:  15.72 GB   |    Зарегистрирован:  1 год 2 месяца   |    .torrent скачан:  307 раз   |   
Раздают:  1  
   
загрузка...
 
Автор Сообщение

Galfimbul

avatar Galfimbul


[Pantyamateur.com ] Dolly (Dolly Diamond) Megapack PM,SSF,SUG,UKUS x58 4K, 1080P / Dolly

Год производства: 2017 г.
Жанр: Solo Fetish
Описание: http://pantyamateur.com/showgal.php?g=groups/6679/15_1&s=85
http://pantymaniacs.com/showgal.php?g=groups/11802/44_1&s=192
http://ukupskirts.com/showgal.php?g=groups/11778/51_1&s=225
http://skirtsupgirls.com/showgal.php?g=groups/11272/26_1&s=138
http://satinsilkfun.com/showgal.php?g=groups/11286/5_1&s=31

Тип HD видео: 1080p
Качество видео: WEB-DL
Формат видео: WMV
Видео: Windows Media Video 9 1920x1080 25.00fps 8319 Kbps MPEG-4 3840 x 2160 25.00fps Variable
Аудио: Windows Media Audio 10 stereo Variable AAC Variable
010416 PA Coco.wmv
Format : Windows Media
File size : 323 MiB
Duration : 5mn 26s
Overall bit rate mode : Variable
Overall bit rate : 8 306 Kbps
Maximum Overall bit rate : 10.5 Mbps
Encoded date : UTC 2016-03-10 07:37:36.710

Video
ID : 2
Format : VC-1
Format profile : [email protected]
Codec ID : WMV3
Codec ID/Info : Windows Media Video 9
Codec ID/Hint : WMV3
Description of the codec : Windows Media Video 9 - Professional
Duration : 5mn 26s
Bit rate mode : Variable
Bit rate : 8 000 Kbps
Width : 1 920 pixels
Height : 1 080 pixels
Display aspect ratio : 16:9
Frame rate : 25.000 fps
Bit depth : 8 bits
Compression mode : Lossy
Bits/(Pixel*Frame) : 0.154
Stream size : 311 MiB (96%)
Language : English (GB)
NumberOfFrames : 8151

Audio
ID : 1
Format : WMA
Format profile : Pro
Codec ID : 162
Codec ID/Info : Windows Media Audio
Description of the codec : Windows Media Audio 10 Professional - 440 kbps, 44 kHz, 2 channel 24 bit 2-pass VBR
Duration : 5mn 26s
Bit rate mode : Variable
Bit rate : 405 Kbps
Channel(s) : 2 channels
Sampling rate : 44.1 KHz
Bit depth : 24 bits
Stream size : 15.8 MiB (5%)
Language : English (GB)
NumberOfFrames : 804
070117_PA_Dolly.hd.mp4
Format : MPEG-4
Format profile : Base Media / Version 2
Codec ID : mp42 (mp42/mp41)
File size : 546 MiB
Duration : 4mn 53s
Overall bit rate mode : Variable
Overall bit rate : 15.6 Mbps
Encoded date : UTC 2016-12-08 12:26:11
Tagged date : UTC 2016-12-08 12:26:24
©TIM : 00:00:00:00
©TSC : 25
©TSZ : 1

Video
ID : 1
Format : AVC
Format/Info : Advanced Video Codec
Format profile : [email protected]
Format settings, CABAC : Yes
Format settings, ReFrames : 3 frames
Format settings, GOP : M=3, N=25
Codec ID : avc1
Codec ID/Info : Advanced Video Coding
Duration : 4mn 53s
Bit rate mode : Variable
Bit rate : 15.3 Mbps
Maximum bit rate : 20.0 Mbps
Width : 3 840 pixels
Height : 2 160 pixels
Display aspect ratio : 16:9
Frame rate mode : Constant
Frame rate : 25.000 fps
Standard : PAL
Color space : YUV
Chroma subsampling : 4:2:0
Bit depth : 8 bits
Scan type : Progressive
Bits/(Pixel*Frame) : 0.074
Stream size : 535 MiB (98%)
Language : English
Encoded date : UTC 2016-12-08 12:26:11
Tagged date : UTC 2016-12-08 12:26:11
Color range : Limited
Color primaries : BT.709
Transfer characteristics : BT.709
Matrix coefficients : BT.709

Audio
ID : 2
Format : AAC
Format/Info : Advanced Audio Codec
Format profile : LC
Codec ID : 40
Duration : 4mn 53s
Source duration : 4mn 53s
Bit rate mode : Variable
Bit rate : 317 Kbps
Maximum bit rate : 407 Kbps
Channel(s) : 2 channels
Channel positions : Front: L R
Sampling rate : 48.0 KHz
Frame rate : 46.875 fps (1024 spf)
Compression mode : Lossy
Stream size : 11.1 MiB (2%)
Source stream size : 11.1 MiB (2%)
Language : English
Encoded date : UTC 2016-12-08 12:26:11
Tagged date : UTC 2016-12-08 12:26:11
[/URL]


Трекер:  [ 24-Апр-2017 12:00 ]

  

Скачать .torrent

Размер .torrent файла 318 KB


Размер: 15.72 GB
Хэш (hash) релиза: 6eece70221743a1661886c089e3cb681323568b9

Еще никто не оставлял запись к записи скачать торрент [Pantyamateur.com ] Dolly . Будь первым!

!Обратная связь