Ayer, 10:31 | • ЗАПРЕЩЕННЫЕ раздачи | James Marsden

Скачать через торрент музыку Благословение Кампанеллы Shukufuku no Campanella- OP&ED - 2010, FLAC бесплатно без регистрации torrent

Статистика раздачи
Размер:  1.44 GB   |    Зарегистрирован:  1 год 3 месяца   |    .torrent скачан:  19 раз   |   
Раздают:  1  
   
загрузка...
 
Автор Сообщение

Galfimbul

avatar Galfimbul



Благословение Кампанеллы / Shukufuku no Campanella


Жанр: OST

Год выпуска диска: 2010

Производитель диска: Япония

Аудио кодек: FLAC

Тип рипа: tracks

Битрейт аудио: lossless

Продолжительность: 39 мин 45 сек

Треклист:
Исполнитель: Misato Aki
Трэклист:
AIMP2: Track List
[04:01] 01. Misato Aki - Shiawase wa Tsuki Yori Tatakau
[05:00] 02. Misato Aki - Akarui Koi no Uta
[04:01] 03. Misato Aki - Shiawase wa Tsuki Yori Tatakau -OFF VOCAL-
[04:57] 04. Misato Aki - Akarui Koi no Uta -OFF VOCAL-
<div class="sp-wrap">
<div class="sp-head folded">Сканы</div>
<div class="sp-body">
Exact Audio Copy V0.99 prebeta 5 from 4. May 2009

EAC extraction logfile from 29. July 2010, 22:59

美郷あき / シアワセは月より高く

Used drive : HL-DT-STDVDRAM GH20NS10 Adapter: 0 ID: 3

Read mode : SecureUtilize accurate stream : YesDefeat audio cache : NoMake use of C2 pointers : Yes

Read offset correction : 637Overread into Lead-In and Lead-Out : YesFill up missing offset samples with silence : YesDelete leading and trailing silent blocks : NoNull samples used in CRC calculations : YesUsed interface : Native Win32 interface for Win NT & 2000

Used output format : Internal WAV RoutinesSample format : 44.100 Hz; 16 Bit; Stereo

TOC of the extracted CD

Track | Start | Length | Start sector | End sector --------------------------------------------------------- 1 | 0:00.00 | 4:01.37 | 0 | 18111 2 | 4:01.37 | 5:00.50 | 18112 | 40661 3 | 9:02.12 | 4:01.38 | 40662 | 58774 4 | 13:03.50 | 4:57.08 | 58775 | 81057

Range status and errors

Selected range

Filename G:\LACM-4733.wav

Peak level 100.0 % Range quality 100.0 % Copy CRC 673BC117 Copy OK

No errors occurred

End of status report
REM GENRE AnimeREM DATE 21.07.2010REM DISCID 2C043804REM COMMENT "ExactAudioCopy v0.99pb5"TITLE "Shiawase wa Tsuki Yori Takaku"PERFORMER "Misato Aki"CATALOG LACM-4733FILE "01 Shiawase wa Tsuki Yori Takaku.flac" WAVE TRACK 01 AUDIO TITLE "Shiawase wa Tsuki Yori Takaku" PERFORMER "Misato Aki" INDEX 01 00:00:00FILE "02 Akarui Koi no Uta.flac" WAVE TRACK 02 AUDIO TITLE "Akarui Koi no Uta" PERFORMER "Misato Aki" INDEX 00 00:00:00 INDEX 01 00:02:48FILE "03 Shiawase wa Tsuki Yori Takaku (-OFF VOCAL-).flac" WAVE TRACK 03 AUDIO TITLE "Shiawase wa Tsuki Yori Takaku (-OFF VOCAL-)" PERFORMER "Misato Aki" INDEX 00 00:00:00 INDEX 01 00:03:52FILE "04 Akarui Koi no Uta (-OFF VOCAL-).flac" WAVE TRACK 04 AUDIO TITLE "Akarui Koi no Uta (-OFF VOCAL-)" PERFORMER "Misato Aki" INDEX 00 00:00:00 INDEX 01 00:02:52
</div>
</div>
[spoiler="2009 - Shukufuku no Campanella Theme Song [Satou Hiromi, NANA, Yada Mico]"]
Исполнители: Satou Hiromi & NANA & Yada Mico.

Трэклист:
AIMP2: Track List

[05:17] 01/5. Satou Hiromi & NANA - Shukufuku no Campanella

[04:17] 02/5. Yada Mico - Takaramono

[05:17] 03/5. Elements Garden - Shukufuku no Campanella -instrumental ver.-

[04:17] 04/5. Elements Garden - Takaramono -instrumental ver.-

[02:35] 05/5. Satou Hiromi & NANA - Shukufuku no Campanella -Short ver.-

<div class="sp-wrap">
<div class="sp-head folded">Сканы</div>
<div class="sp-body">
[/spoiler]
AUDIOCHECKER v2.0 beta (build 457) - by Dester - [email protected]~~~~~~~~~~~~~~~~~~~~~~~~~~~~~~~~~~-=== НЕ РЕДАКТИРУЙТЕ ЭТОТ ФАЙЛ! ===-

Путь: ...\[LonE]Shukufuku no Campanella Theme Song [Satou Hiromi, NANA, Yada Mico][w_scans]_(FLAC)

1 -=- 01 Shukufuku no Campanella.flac -=- CDDA (100%)2 -=- 02 Takaramono.flac -=- CDDA (100%)3 -=- 03 Shukufuku no Campanella -Instrumental ver.-.flac -=- CDDA (100%)4 -=- 04 Takaramono -Instrumental ver.-.flac -=- CDDA (100%)5 -=- 05 Shukufuku no Campanella -Short ver.-.flac -=- CDDA (100%)

Сводка 100,00% CDDA

47164676
</div>
</div>
Исполнитель: Mai Kadowaki, Kimiko Koyama, Asami Imai, Kaori Mizuhashi, 柚原有里, Mai Goto, Hiroki Yasumoto. Продолжительность: 00:34:40. Треклист:

01 Watashi No Karada mo, Atatakai Desuka?
02 Miracle Mirai
03 Mou Ikkai, tte, ano...
04 Mahou Soretomo Ai no Mahou?
05 Dekireba, Watashi no Koto wo
06 Kiyoraka na Chikai
07 Nanka... Tererune?
08 Yume yo, Hirake!
09 Koko ha Ai wo Katattari, Iroiro to Pi na Koto wo
10 Yume no Preparation

<div class="sp-wrap">
<div class="sp-head folded">Сканы</div>
<div class="sp-body">

Exact Audio Copy V0.99 prebeta 5 from 4. May 2009

EAC 取り込みログファイル 日付 : 25. 8月 2010, 12:52

- / 祝福のカンパネラ キャラクターソングアルバム ''cocoarda''

使用ドライブ : PIONEER BD-RW BDR-205 Adapter: 3 ID: 0

読み込みモード : セキュアモードドライブが正確なデータ転送能力を持つ : はいオーディオキャッシュを使用できる : いいえC2エラー情報を検出する : いいえ

読み込みサンプルオフセット訂正値 : 637リードイン・リードアウトをオーバーリードする : はい欠落したオフセットサンプルを無音で補完する : はい曲の先頭と末端の無音領域を削除する : いいえCRC計算で無音のサンプルを使用するか : はい使用インターフェース : Win NT & 2000用のクラスドライバ

使用出力モード : 内蔵WAV出力ルーチンサンプルフォーマット : 44.100 Hz; 16 Bit; ステレオ

TOC情報を抜き出します

トラック | スタート | 長さ | 始めのセクター | 最終セクター ---------------------------------------------------------------- 1 | 0:00.00 | 3:20.55 | 0 | 15054 2 | 3:20.55 | 3:46.36 | 15055 | 32040 3 | 7:07.16 | 2:54.31 | 32041 | 45121 4 | 10:01.47 | 4:08.48 | 45122 | 63769 5 | 14:10.20 | 4:15.70 | 63770 | 82964 6 | 18:26.15 | 3:51.25 | 82965 | 100314 7 | 22:17.40 | 2:58.56 | 100315 | 113720 8 | 25:16.21 | 3:45.25 | 113721 | 130620 9 | 29:01.46 | 2:04.31 | 130621 | 139951 10 | 31:06.02 | 3:39.00 | 139952 | 156376

範囲取り込みステータス & エラー

選択された範囲

ファイル名 L:\EAC\祝福のカンパネラ_キャラクターソングアルバム ''cocoarda'' (tak)\祝福のカンパネラ キャラクターソングアルバム ''cocoarda''.wav

ピークレベル 100.0 % 範囲取り込み品質 99.9 % コピーCRC EE97B4C2 コピー OK

エラーは発生しませんでした

ステータス報告完了
REM DATA 25.08.2010REM GENRE AnimeREM DISCID 7C08250AREM COMMENT ExactAudioCopy v0.99pb5TITLE "Shukufuku no Campanella Character Song Album coccarda"PERFORMER VariousCATALOG LACA-15049FILE "01 Watashi No Karada mo, Atatakai Desuka?.flac" WAVE TRACK 01 AUDIO TITLE "Watashi No Karada mo, Atatakai Desuka?" PERFORMER "Kadokawi Mai" ISRC JPI101001168 INDEX 01 00:00:00FILE "02 Miracle Mirai.flac" WAVE TRACK 02 AUDIO TITLE "Miracle Mirai" PERFORMER "Kadowaki Mai" ISRC JPI101001169 INDEX 01 00:00:00FILE "03 Mou Ikkai, tte, ano....flac" WAVE TRACK 03 AUDIO TITLE "Mou Ikkai, tte, ano..." PERFORMER "Koyama Kimiko" ISRC JPI101001170 INDEX 00 00:00:00 INDEX 01 00:03:25FILE "04 Mahou Soretomo Ai no Mahou?.flac" WAVE TRACK 04 AUDIO TITLE "Mahou Soretomo Ai no Mahou?" PERFORMER "Koyama Kimiko" ISRC JPI101001171 INDEX 01 00:00:00FILE "05 Dekireba, Watashi no Koto wo.flac" WAVE TRACK 05 AUDIO TITLE "Dekireba, Watashi no Koto wo" PERFORMER "Imai Asami" ISRC JPI101001172 INDEX 00 00:00:00 INDEX 01 00:03:25FILE "06 Kiyoraka na Chikai.flac" WAVE TRACK 06 AUDIO TITLE "Kiyoraka na Chikai" PERFORMER "Imai Asami" ISRC JPI101001173 INDEX 01 00:00:00FILE "07 Nanka... Tererune?.flac" WAVE TRACK 07 AUDIO TITLE "Nanka... Tererune?" PERFORMER "Mizuhashi Kaori" ISRC JPI101001174 INDEX 00 00:00:00 INDEX 01 00:03:25FILE "08 Yume yo, Hirake!.flac" WAVE TRACK 08 AUDIO TITLE "Yume yo, Hirake!" PERFORMER "Mizuhashi Kaori" ISRC JPI101001175 INDEX 01 00:00:00FILE "09 Koko ha Ai wo Katattari, Iroiro to Pi na Koto wo.flac" WAVE TRACK 09 AUDIO TITLE "Koko ha Ai wo Katattari, Iroiro to Pi na Koto wo" PERFORMER "Tortilla Company" ISRC JPI101001176 INDEX 00 00:00:00 INDEX 01 00:03:25FILE "10 Yume no Preparation.flac" WAVE TRACK 10 AUDIO TITLE "Yume no Preparation" PERFORMER "Tortilla Company" ISRC JPI101001177 INDEX 01 00:00:00
</div>
</div>
Исполнитель: Mitsu Anzu, Yoko Takahashi, Nozomu Kanow, Masato Nakayama. Продолжительность: 00:22:35. Треклист:
01 twinkle_twinkle
02 Drama of Minette
03 Minette's Useful Message
04 Message from Minette
05 twinkle_twinkle -Instrumental ver.

<div class="sp-wrap">
<div class="sp-head folded">Лог проверки качества</div>
<div class="sp-body">

-----------------------

DON'T MODIFY THIS FILE

-----------------------

PERFORMER: auCDtect Task Manager, ver. 1.6.0 RC1 build 1.6.0.1Copyright (c) 2008-2010 y-soft. All rights reservedhttp://y-soft.org

ANALYZER: auCDtect: CD records authenticity detector, version 0.8.2Copyright (c) 2004 Oleg Berngardt. All rights reserved.Copyright (c) 2004 Alexander Djourik. All rights reserved.

FILE: 01 twinkle_twinkle.flac Size: 30161098 Hash: 47B6332F28CAB95214CFDDEE219841EC Accuracy: -m0 Conclusion: CDDA 99% Signature: FB92B1D3C83AB2A83FC56D7417C8777606262BAAFILE: 02 Drama of Minette.flac Size: 64992932 Hash: DB1D518B6E01B4CC1EB49004749F23CF Accuracy: -m0 Conclusion: CDDA 100% Signature: A0B4E20134CD9D78B059209D19003DF13539E6F2FILE: 03 Minette's Useful Message.flac Size: 10308910 Hash: C4D6411FDD3AECA8B6BDE35546A87DCE Accuracy: -m0 Conclusion: CDDA 100% Signature: 0DCB337057CAD704E371AA26EB79419CDED142B9FILE: 04 Message from Minette.flac Size: 4611422 Hash: 217F731EBD5F9133EEAC9F10FFA68AD8 Accuracy: -m0 Conclusion: CDDA 100% Signature: 6DE33C2F6351D1A4A72B9521CFE9452733CC0CD0FILE: 05 twinkle_twinkle -Instrumental ver.flac Size: 29293375 Hash: D80F24AEAE088CC81C915289980357DA Accuracy: -m0 Conclusion: CDDA 100% Signature: 24EED1735D72719F946AFA43D8DD574136A3EEA3
</div>
</div>
Исполнитель: Ruri Riina, Yoko Takahashi, Nozomu Kanow, Daisuke Kikuta. Продолжительность: 00:23:35 . Треклист:

01 White Crystal
02 Drama of Carina
03 Karina's Useful Message Collection
04 Message from Carina
05 White Crystal Instrumental ver.
<div class="sp-wrap">
<div class="sp-head folded">Лог проверки качества</div>
<div class="sp-body">

-----------------------

DON'T MODIFY THIS FILE

-----------------------

PERFORMER: auCDtect Task Manager, ver. 1.6.0 RC1 build 1.6.0.1Copyright (c) 2008-2010 y-soft. All rights reservedhttp://y-soft.org

ANALYZER: auCDtect: CD records authenticity detector, version 0.8.2Copyright (c) 2004 Oleg Berngardt. All rights reserved.Copyright (c) 2004 Alexander Djourik. All rights reserved.

FILE: 01 White Crystal.flac Size: 37249432 Hash: C6E4EC778B15C9E7064D4720AB6329A5 Accuracy: -m0 Conclusion: CDDA 99% Signature: B12F2CC602767E762C970AB2275B5421C8DD8C30FILE: 02 Drama of Carina.flac Size: 57863028 Hash: 9855B601F18811E567C71F18C9DB7BE0 Accuracy: -m0 Conclusion: CDDA 100% Signature: E59E0A480E81F9D9D3701746BE00CB1637B0DF49FILE: 03 Karina's Useful Message Collection.flac Size: 11033286 Hash: 7522D7FBDF99297A4BD810A68B6CE543 Accuracy: -m0 Conclusion: CDDA 100% Signature: B7585A0E2A9C4AABDFBCEFE5C1C4974C57E9984DFILE: 04 Message from Carina.flac Size: 4506152 Hash: F1AB3F0B4A1C0D1A01D7986F09118C84 Accuracy: -m0 Conclusion: CDDA 100% Signature: D60B61739A2C5F956D705E91BEE2ECB51A1381A4FILE: 05 White Crystal Instrumental ver.flac Size: 36942065 Hash: 2C4EC710351E09DFF62AC1A5F0D629A5 Accuracy: -m0 Conclusion: CDDA 100% Signature: B2F71F7E1B1FCE68D528C97369FBC24847A9C9FD
</div>
</div>
Исполнитель: Natsuki Miyagawa, Kazuhiro Sunaga, Hitoshi Fujima. Продолжительность: 00:25:20. Треклист:

01 Silver Moon -La lune de l'argent-
02 Drama of Chelsea 'This is Surely Right'
03 Chelsea's Useful Message Collection
04 Message from Chelsea
05 Silver Moon ~La lune de l'argent~ -Inst.

<div class="sp-wrap">
<div class="sp-head folded">Лог проверки качества</div>
<div class="sp-body">

-----------------------

DON'T MODIFY THIS FILE

-----------------------

PERFORMER: auCDtect Task Manager, ver. 1.6.0 RC1 build 1.6.0.1Copyright (c) 2008-2010 y-soft. All rights reservedhttp://y-soft.org

ANALYZER: auCDtect: CD records authenticity detector, version 0.8.2Copyright (c) 2004 Oleg Berngardt. All rights reserved.Copyright (c) 2004 Alexander Djourik. All rights reserved.

FILE: 01 Silver Moon -La lune de l'argent-.flac Size: 35473566 Hash: BE2CD860EF058E18F6AD2C62CAA15E88 Accuracy: -m0 Conclusion: CDDA 100% Signature: FF2B500597B97DB85427798E0F6FB69715F86A1FFILE: 02 Drama of Chelsea 'This is Surely Right'.flac Size: 72422185 Hash: C323142341FA6977BBEBE6816FA00F85 Accuracy: -m0 Conclusion: CDDA 100% Signature: 67F7845DD6996FDEED70EC4A7A13607D61F3BF95FILE: 03 Chelsea's Useful Message Collection.flac Size: 9715917 Hash: 4831E3A392DD449E287CC6E987C142C1 Accuracy: -m0 Conclusion: CDDA 100% Signature: 0C3D9BFDB847EE8ECD2A626D5CC78098FAFCC0AEFILE: 04 Message from Chelsea.flac Size: 4644416 Hash: A54387E4BA1D5EF055F03BD70A62A107 Accuracy: -m0 Conclusion: CDDA 100% Signature: 3EFDCB25FFAE4A08D890FE427A4FEFD1F034EF10FILE: 05 Silver Moon ~La lune de l'argent~ -Inst.flac Size: 35059893 Hash: F1088064FC6D6883D82C69A376499D79 Accuracy: -m0 Conclusion: CDDA 100% Signature: 3EFAEC8D989E712BD9A45A237C8F4A3D0D149C80
</div>
</div>
Исполнитель: Kotomi Haruyama, Nozomu Kanow, Kaori Nishina, Junpei Fujita. Продолжительность: 00:23:18. Треклист:

01 A ray of sunshine!!
02 Drama Agnes
03 Agnes' Useful Message Collection
04 Message from Agnes
05 A ray of sunshine!! -Instrumental ver.

<div class="sp-wrap">
<div class="sp-head folded">Лог проверки качества</div>
<div class="sp-body">

-----------------------

DON'T MODIFY THIS FILE

-----------------------

PERFORMER: auCDtect Task Manager, ver. 1.6.0 RC1 build 1.6.0.1Copyright (c) 2008-2010 y-soft. All rights reservedhttp://y-soft.org

ANALYZER: auCDtect: CD records authenticity detector, version 0.8.2Copyright (c) 2004 Oleg Berngardt. All rights reserved.Copyright (c) 2004 Alexander Djourik. All rights reserved.

FILE: 01 A ray of sunshine!!.flac Size: 32715150 Hash: 9D41F07A42E0A7AB92F3A7812626227D Accuracy: -m0 Conclusion: CDDA 100% Signature: B69C27BB82B0FB8F8F172C0BEF0252FE3A4973F3FILE: 02 Drama Agnes.flac Size: 73513838 Hash: 150F48FA6DAB2E1793499877FF79AF7E Accuracy: -m0 Conclusion: CDDA 100% Signature: 213AEC69CAE74005A04A5FE91935DEC46F7800EFFILE: 03 Agnes' Useful Message Collection.flac Size: 6649886 Hash: 97661A377642F26D0877119DB9899F1A Accuracy: -m0 Conclusion: CDDA 99% Signature: 790E9562B90D9D467AC01557C8CE442EBD09E1B9FILE: 04 Message from Agnes.flac Size: 4782230 Hash: 6C8352A7D2495C482D250F963603B794 Accuracy: -m0 Conclusion: CDDA 100% Signature: 2D8EA051DEA372A3D59119B963133E062063DAC4FILE: 05 A ray of sunshine!! -Instrumental ver.flac Size: 32652759 Hash: 9614F4FC6EF263519D7B99C986122009 Accuracy: -m0 Conclusion: CDDA 100% Signature: 0C4F2BBAA339DFFCDB2A3BAD4A73B02758B06EB4
</div>
</div>
[spoiler="2010 - Shukufuku no Campanella ED Single — Mirai Kaikisen [Hashimoto Miyuki]"]Исполнитель: Miyuki Hashimoto. Продолжительность: 00:17:40. Треклист:

01 Mirai Kaikisen
02 Sunao na Mama de
03 Mirai Kaikisen [Off Vocal]
04 Sunao na Mama de [Off Vocal]

<div class="sp-wrap">
<div class="sp-head folded">Лог EAC</div>
<div class="sp-body">

Exact Audio Copy V0.99 prebeta 5 from 4. May 2009

EAC 取り込みログファイル 日付 : 15. 8月 2010, 14:40

橋本 みゆき / 未来回帰線

使用ドライブ : HL-DT-STBD-RE BH10NS30 Adapter: 3 ID: 0

読み込みモード : セキュアモードドライブが正確なデータ転送能力を持つ : はいオーディオキャッシュを使用できる : いいえC2エラー情報を検出する : いいえ

読み込み・書き込みサンプルオフセット訂正値 : 0リードイン・リードアウトをオーバーリードする : いいえ欠落したオフセットサンプルを無音で補完する : はい曲の先頭と末端の無音領域を削除する : いいえCRC計算で無音のサンプルを使用するか : いいえ使用インターフェース : Win NT & 2000用のクラスドライバ

使用出力モード : 内蔵WAV出力ルーチンサンプルフォーマット : 44.100 Hz; 16 Bit; ステレオ

TOC情報を抜き出します

トラック | スタート | 長さ | 始めのセクター | 最終セクター ---------------------------------------------------------------- 1 | 0:00.00 | 4:53.35 | 0 | 22009 2 | 4:53.35 | 3:57.60 | 22010 | 39844 3 | 8:51.20 | 4:53.35 | 39845 | 61854 4 | 13:44.55 | 3:54.15 | 61855 | 79419

範囲取り込みステータス & エラー

選択された範囲

ファイル名 C:\Users\Satoshi Hokari\Music\橋本 みゆき - 未来回帰線.wav

ピークレベル 100.0 % 範囲取り込み品質 100.0 % コピーCRC 51768458 コピー OK

エラーは発生しませんでした

ステータス報告完了
[/spoiler]
REM DISCID 2D042204REM COMMENT "ExactAudioCopy v0.99pb5"REM GENRE AnimeREM DATA 11.08.2010TITLE "Mirai Kaikisen"PERFORMER "Hashimoto Miyuki"CATALOG LACM-4735FILE "01 Mirai Kaikisen.flac" WAVE TRACK 01 AUDIO TITLE "Mirai Kaikisen" PERFORMER "Hashimoto Miyuki" INDEX 01 00:00:00FILE "02 Sunao na Mama de.flac" WAVE TRACK 02 AUDIO TITLE "Sunao na Mama de" PERFORMER "Hashimoto Miyuki" INDEX 00 00:00:00 INDEX 01 00:02:47FILE "03 Mirai Kaikisen [Off Vocal].flac" WAVE TRACK 03 AUDIO TITLE "Mirai Kaikisen [Off Vocal]" PERFORMER "Hashimoto Miyuki" INDEX 00 00:00:00 INDEX 01 00:03:48FILE "04 Sunao na Mama de [Off Vocal].flac" WAVE TRACK 04 AUDIO TITLE "Sunao na Mama de [Off Vocal]" PERFORMER "Hashimoto Miyuki" INDEX 00 00:00:00 INDEX 01 00:02:47
</div>
</div>

Трекер:  [ 22-Апр-2017 22:00 ]

  

Скачать .torrent

Размер .torrent файла 33 KB


Размер: 1.44 GB
Хэш (hash) релиза: d05c7558e6303600709b78cdac9d96194400e6c6

Еще никто не оставлял запись к записи скачать торрент Благословение Кампанеллы Shukufuku no Campanella- OP&ED - 2010, FLAC . Будь первым!

!Обратная связь