Windows 10: WLAN-Passwort anzeigen – so geht's | Latest Gaming | Télécharger Part 3

Скачать через торрент [VIDEO] Белое солнце пустыни бесплатно русская версия torrent активатор

Статистика раздачи
Размер:  1.09 GB   |    Зарегистрирован:  1 год 2 месяца   |    .torrent скачан:  34 раза   |   
Раздают:  1  
   
загрузка...
 
Автор Сообщение

Galfimbul

avatar Galfimbul


Белое солнце пустыни

Год выпуска: 1970
Страна: СССР
Жанр: боевик, драма, мелодрама, комедия, приключения, военный
Продолжительность: 01:23:31
Перевод: не требуется
Cубтитры: нет
Режиссер: Владимир Мотыль
В ролях: Анатолий Кузнецов, Спартак Мишулин, Кахи Кавсадзе, Павел Луспекаев, Раиса Куркина, Татьяна Федотова, Николай Годовиков, Муса Дудаев, Николай Бадьев, Владимир Кадочников и другие .
Описание: Бесконечная пустыня, боец Сухов, прикуривающий с динамитной шашки, нескладный Петруха с вечно заклинивающей трехлинейкой, обаятельный Верещагин, с надоевшей черной икрой и знаменитыми песнями-балладами, ловкий Саид с незабвенным «Стреляли», злодей Абдулла со своей бандой, любознательная Гульчатай, играющая с черепахою…
Релиз группы
Качество: BDRip / рип с Blu-ray disc 1080p
Формат: MP4
Видео кодек: H.264
Аудио кодек: AAC
Видео: 734x536 AR:1.37 1740 kbps 23.976 fps
Аудио: 2ch 48 kHz 128 kbps
avs [info]: 734x536p 1:1 @ 2997/125 fps (cfr)
x264 [info]: using SAR=1/1
x264 [info]: using cpu capabilities: MMX2 SSE2Fast SSSE3 SSE4.2 AVX FMA3 AVX2 LZCNT BMI2
x264 [info]: profile High, level 4.1

x264 [info]: frame I:811 Avg QP:19.06 size: 63407
x264 [info]: frame P:27390 Avg QP:22.34 size: 19753
x264 [info]: frame B:91959 Avg QP:23.74 size: 5410
x264 [info]: consecutive B-frames: 2.6% 3.3% 9.2% 19.5% 18.6% 37.8% 7.6% 1.4%
x264 [info]: mb I I16..4: 1.4% 80.5% 18.2%
x264 [info]: mb P I16..4: 0.2% 6.8% 1.1% P16..4: 34.5% 40.7% 14.9% 0.0% 0.0% skip: 1.9%
x264 [info]: mb B I16..4: 0.0% 0.5% 0.1% B16..8: 37.7% 18.7% 3.8% direct: 4.6% skip:34.5% L0:40.4% L1:49.6% BI:10.0%
x264 [info]: 8x8 transform intra:83.5% inter:58.6%
x264 [info]: direct mvs spatial:97.9% temporal:2.1%
x264 [info]: coded y,uvDC,uvAC intra: 96.4% 75.6% 40.3% inter: 27.0% 15.6% 3.5%
x264 [info]: i16 v,h,dc,p: 18% 24% 6% 52%
x264 [info]: i8 v,h,dc,ddl,ddr,vr,hd,vl,hu: 9% 6% 5% 11% 15% 14% 15% 11% 13%
x264 [info]: i4 v,h,dc,ddl,ddr,vr,hd,vl,hu: 11% 6% 2% 9% 16% 16% 15% 12% 13%
x264 [info]: i8c dc,h,v,p: 34% 30% 19% 17%
x264 [info]: Weighted P-Frames: Y:8.1% UV:3.2%
x264 [info]: ref P L0: 49.3% 14.5% 16.1% 5.1% 4.7% 3.1% 3.3% 1.7% 2.1% 0.2% 0.0%
x264 [info]: ref B L0: 81.0% 9.4% 4.0% 1.9% 1.4% 1.2% 0.8% 0.3%
x264 [info]: ref B L1: 95.7% 4.3%
x264 [info]: kb/s:1739.80

encoded 120160 frames, 13.90 fps, 1739.80 kb/s
GeneralComplete name : D:\Torrents\Белое солнце пустыни.1970.BDRip.x264.960x.rip by Frost O.S.mp4Format : MPEG-4Format profile : Base MediaCodec ID : isom (isom/avc1)File size : 1.09 GiBDuration : 1 h 23 minOverall bit rate mode : VariableOverall bit rate : 1 876 kb/sMovie name : Белое солнце пустыни 1970 BDRip x264 960x rip by Frost O SDirector : Владимир МотыльActor : Анатолий Кузнецов / Спартак Мишулин / Кахи Кавсадзе / Павел Луспекаев / Раиса Куркина / Татьяна Федотова / Николай Годовиков / Муса Дудаев / Николай Бадьев / Владимир КадочниковGenre : WarContentType : Short FilmEncoded date : UTC 2017-04-22 16:06:06Tagged date : UTC 2017-04-22 16:07:42Writing application : MkvToMp4 version: 0.224 (x64)Cover : YesComment : rip by Frost O.SLongDescription : Бесконечная пустыня, боец Сухов, прикуривающий с динамитной шашки, нескладный Петруха с вечно заклинивающей трехлинейкой, обаятельный Верещагин, с надоевшей черной икрой и знаменитыми песнями-балладами, ловкий Саид с незабвенным «Стреляли», злодей Абдулла со своей бандой, любознательная Гульчатай, играющая с черепахою…

VideoID : 1Format : AVCFormat/Info : Advanced Video CodecFormat profile : [email protected] settings, CABAC : YesFormat settings, ReFrames : 9 framesCodec ID : avc1Codec ID/Info : Advanced Video CodingDuration : 1 h 23 minBit rate : 1 740 kb/sMaximum bit rate : 5 953 kb/sWidth : 734 pixelsHeight : 536 pixelsDisplay aspect ratio : 4:3Frame rate mode : ConstantFrame rate : 23.976 (24000/1001) FPSOriginal frame rate : 23.976 (23976/1000) FPSColor space : YUVChroma subsampling : 4:2:0Bit depth : 8 bitsScan type : ProgressiveBits/(Pixel*Frame) : 0.184Stream size : 1.02 GiB (93%)Writing library : x264 core 148 r2744 b97ae06Encoding settings : cabac=1 / ref=9 / deblock=1:-1:-1 / analyse=0x3:0x113 / me=umh / subme=11 / psy=1 / psy_rd=1.05:0.00 / mixed_ref=1 / me_range=32 / chroma_me=1 / trellis=2 / 8x8dct=1 / cqm=0 / deadzone=21,11 / fast_pskip=0 / chroma_qp_offset=-2 / threads=6 / lookahead_threads=1 / sliced_threads=0 / nr=0 / decimate=0 / interlaced=0 / bluray_compat=0 / constrained_intra=0 / bframes=7 / b_pyramid=2 / b_adapt=2 / b_bias=0 / direct=3 / weightb=1 / open_gop=0 / weightp=2 / keyint=250 / keyint_min=23 / scenecut=40 / intra_refresh=0 / rc=2pass / mbtree=0 / bitrate=1740 / ratetol=1.0 / qcomp=0.65 / qpmin=0 / qpmax=69 / qpstep=4 / cplxblur=20.0 / qblur=0.5 / ip_ratio=1.40 / pb_ratio=1.30 / aq=1:0.90Language : EnglishEncoded date : UTC 2017-04-22 16:06:06Tagged date : UTC 2017-04-22 16:06:38Color range : LimitedColor primaries : BT.709Transfer characteristics : BT.709Matrix coefficients : BT.709

AudioID : 2Format : AACFormat/Info : Advanced Audio CodecFormat profile : LCCodec ID : 40Duration : 1 h 23 minBit rate mode : VariableBit rate : 128 kb/sMaximum bit rate : 131 kb/sChannel(s) : 2 channelsChannel positions : Front: L RSampling rate : 48.0 kHzFrame rate : 46.875 FPS (1024 spf)Compression mode : LossyStream size : 76.5 MiB (7%)Language : RussianDefault : YesAlternate group : 1Encoded date : UTC 2017-04-22 16:06:29Tagged date : UTC 2017-04-22 16:06:38


Трекер:  [ 22-Апр-2017 18:30 ]

  

Скачать .torrent

Размер .torrent файла 11 KB


Размер: 1.09 GB
Хэш (hash) релиза: be12ca56ed91fcceb00467eefbfdd0d6cea75900

Торренты, похожие на [VIDEO] Белое солнце пустыни скачать торрент

Форум Название Автор Размер S L Добавлен
Видео (Фильмы/Клипы) ·· [VIDEO] Белое солнце пустыни (Владимир Мотыль) [1970, боевик, драма, мелодрама, комедия, приключения, военный, HDRip] [MP4, 480x] Galfimbul 391460282373 MB 0 0 1492879767

19:49

22-Апр-17

Еще никто не оставлял запись к записи скачать торрент [VIDEO] Белое солнце пустыни . Будь первым!

!Обратная связь