Новинки отечественных сериалов | Tom Goes To The Mayor | Hayalguien

Скачать через торрент [VIDEO] Карнавальная ночь бесплатно русская версия torrent активатор

Статистика раздачи
Размер:  1014 MB   |    Зарегистрирован:  1 год 3 месяца   |    .torrent скачан:  20 раз   |   
Раздают:  1  
   
загрузка...
 
Автор Сообщение

Galfimbul

avatar Galfimbul


Карнавальная ночь

Год выпуска: 1956
Страна: СССР
Жанр: мюзикл, мелодрама, комедия
Продолжительность: 01:15:31
Перевод: не требуется
Cубтитры: нет
Режиссер: Эльдар Рязанов
В ролях: Игорь Ильинский, Людмила Гурченко, Юрий Белов, Георгий Куликов, Сергей Филиппов, Ольга Власова, Андрей Тутышкин, Тамара Носова, Геннадий Юдин, Владимир Зельдин и другие .
Описание: Веселая победа над теперь уже вовсе не страшным дураком бюрократом милого коллектива во главе со стройной девушкой. Из картины Рязанова так и рвется наружу радость освобождения.
Релиз группы
Качество: BDRip / рип с Blu-ray disc 1080p
Формат: MP4
Видео кодек: H.264
Аудио кодек: AAC
Видео: 736x536 AR:1.37 1740 kbps 23.976 fps
Аудио: 2ch 48 kHz 128 kbps
avs [info]: 736x536p 1:1 @ 2997/125 fps (cfr)
x264 [info]: using SAR=1/1
x264 [info]: using cpu capabilities: MMX2 SSE2Fast SSSE3 SSE4.2 AVX FMA3 AVX2 LZCNT BMI2
x264 [info]: profile High, level 4.1

x264 [info]: frame I:670 Avg QP:19.52 size: 57465
x264 [info]: frame P:26241 Avg QP:22.77 size: 18837
x264 [info]: frame B:81728 Avg QP:25.06 size: 5545
x264 [info]: consecutive B-frames: 2.4% 2.7% 10.7% 35.3% 14.3% 34.0% 0.6%
x264 [info]: mb I I16..4: 3.3% 67.4% 29.2%
x264 [info]: mb P I16..4: 0.3% 7.9% 2.8% P16..4: 33.9% 38.9% 13.7% 0.0% 0.0% skip: 2.4%
x264 [info]: mb B I16..4: 0.1% 1.1% 0.3% B16..8: 33.4% 21.7% 4.5% direct: 3.8% skip:35.0% L0:37.2% L1:45.5% BI:17.3%
x264 [info]: 8x8 transform intra:71.6% inter:59.4%
x264 [info]: direct mvs spatial:98.5% temporal:1.5%
x264 [info]: coded y,uvDC,uvAC intra: 92.3% 79.5% 44.6% inter: 22.8% 14.1% 3.8%
x264 [info]: i16 v,h,dc,p: 41% 6% 1% 52%
x264 [info]: i8 v,h,dc,ddl,ddr,vr,hd,vl,hu: 14% 6% 3% 9% 14% 16% 13% 14% 12%
x264 [info]: i4 v,h,dc,ddl,ddr,vr,hd,vl,hu: 17% 5% 2% 8% 15% 16% 13% 13% 11%
x264 [info]: i8c dc,h,v,p: 33% 21% 25% 21%
x264 [info]: Weighted P-Frames: Y:9.6% UV:2.4%
x264 [info]: ref P L0: 51.0% 16.4% 15.3% 5.1% 4.6% 3.4% 3.8% 0.4% 0.0%
x264 [info]: ref B L0: 87.9% 6.4% 2.8% 1.4% 0.9% 0.6%
x264 [info]: ref B L1: 97.6% 2.4%
x264 [info]: kb/s:1740.83

encoded 108639 frames, 16.32 fps, 1740.83 kb/s
GeneralComplete name : D:\Torrents\Карнавальная ночь.1956.BDRip.x264.960x.rip by Frost O.S.mp4Format : MPEG-4Format profile : Base MediaCodec ID : isom (isom/avc1)File size : 1 014 MiBDuration : 1 h 15 minOverall bit rate mode : VariableOverall bit rate : 1 877 kb/sMovie name : Карнавальная ночь 1956 BDRip x264 960x rip by Frost O SDirector : Эльдар РязановActor : Игорь Ильинский / Людмила Гурченко / Юрий Белов / Георгий Куликов / Сергей Филиппов / Ольга Власова / Андрей Тутышкин / Тамара Носова / Геннадий Юдин / Владимир ЗельдинGenre : ComedyContentType : Short FilmEncoded date : UTC 2017-04-22 16:23:52Tagged date : UTC 2017-04-22 16:25:35Writing application : MkvToMp4 version: 0.224 (x64)Cover : YesComment : rip by Frost O.SLongDescription : Веселая победа над теперь уже вовсе не страшным дураком бюрократом милого коллектива во главе со стройной девушкой. Из картины Рязанова так и рвется наружу радость освобождения.

VideoID : 1Format : AVCFormat/Info : Advanced Video CodecFormat profile : [email protected] settings, CABAC : YesFormat settings, ReFrames : 7 framesCodec ID : avc1Codec ID/Info : Advanced Video CodingDuration : 1 h 15 minBit rate : 1 740 kb/sMaximum bit rate : 5 012 kb/sWidth : 736 pixelsHeight : 536 pixelsDisplay aspect ratio : 1.373Frame rate mode : ConstantFrame rate : 23.976 (24000/1001) FPSOriginal frame rate : 23.976 (23976/1000) FPSColor space : YUVChroma subsampling : 4:2:0Bit depth : 8 bitsScan type : ProgressiveBits/(Pixel*Frame) : 0.184Stream size : 940 MiB (93%)Writing library : x264 core 148 r2744 b97ae06Encoding settings : cabac=1 / ref=7 / deblock=1:-1:1 / analyse=0x3:0x113 / me=umh / subme=11 / psy=1 / psy_rd=0.90:0.00 / mixed_ref=1 / me_range=32 / chroma_me=1 / trellis=2 / 8x8dct=1 / cqm=0 / deadzone=21,11 / fast_pskip=0 / chroma_qp_offset=-2 / threads=6 / lookahead_threads=1 / sliced_threads=0 / nr=0 / decimate=0 / interlaced=0 / bluray_compat=0 / constrained_intra=0 / bframes=6 / b_pyramid=2 / b_adapt=2 / b_bias=0 / direct=3 / weightb=1 / open_gop=0 / weightp=2 / keyint=250 / keyint_min=23 / scenecut=40 / intra_refresh=0 / rc=2pass / mbtree=0 / bitrate=1740 / ratetol=1.0 / qcomp=0.65 / qpmin=0 / qpmax=69 / qpstep=4 / cplxblur=20.0 / qblur=0.5 / ip_ratio=1.40 / pb_ratio=1.30 / aq=1:1.00Language : EnglishEncoded date : UTC 2017-04-22 16:23:52Tagged date : UTC 2017-04-22 16:24:27Color range : LimitedColor primaries : BT.709Transfer characteristics : BT.709Matrix coefficients : BT.709

AudioID : 2Format : AACFormat/Info : Advanced Audio CodecFormat profile : LCCodec ID : 40Duration : 1 h 15 minBit rate mode : VariableBit rate : 128 kb/sMaximum bit rate : 132 kb/sChannel(s) : 2 channelsChannel positions : Front: L RSampling rate : 48.0 kHzFrame rate : 46.875 FPS (1024 spf)Compression mode : LossyStream size : 69.1 MiB (7%)Language : RussianDefault : YesAlternate group : 1Encoded date : UTC 2017-04-22 16:24:12Tagged date : UTC 2017-04-22 16:24:27


Трекер:  [ 22-Апр-2017 18:30 ]

  

Скачать .torrent

Размер .torrent файла 20 KB


Размер: 1014 MB
Хэш (hash) релиза: b259d9a96d761c7f2f89ee1cfd2252f8808082c4

Торренты, похожие на [VIDEO] Карнавальная ночь скачать торрент

Форум Название Автор Размер S L Добавлен
Видео (Фильмы/Клипы) ·· [VIDEO] Карнавальная ночь (Эльдар Рязанов) [1956, мюзикл, мелодрама, комедия, HDRip] [MP4, 480x] Galfimbul 336867737321 MB 0 0 1492879753

19:49

22-Апр-17

Еще никто не оставлял запись к записи скачать торрент [VIDEO] Карнавальная ночь . Будь первым!

!Обратная связь