วันพีช 608 | Theeran Adhigaaram Ondru (2017) (HDRip) | Joseph Thiaka

Скачать через торрент [VIDEO] Карнавальная ночь бесплатно русская версия torrent активатор

Статистика раздачи
Размер:  321 MB   |    Зарегистрирован:  1 год 3 месяца   |    .torrent скачан:  22 раза   |   
Раздают:  1  
   
загрузка...
 
Автор Сообщение

Galfimbul

avatar Galfimbul


Карнавальная ночь

Год выпуска: 1956
Страна: СССР
Жанр: мюзикл, мелодрама, комедия
Продолжительность: 01:15:31
Перевод: не требуется
Cубтитры: нет
Режиссер: Эльдар Рязанов
В ролях: Игорь Ильинский, Людмила Гурченко, Юрий Белов, Георгий Куликов, Сергей Филиппов, Ольга Власова, Андрей Тутышкин, Тамара Носова, Геннадий Юдин, Владимир Зельдин и другие .
Описание: Веселая победа над теперь уже вовсе не страшным дураком бюрократом милого коллектива во главе со стройной девушкой. Из картины Рязанова так и рвется наружу радость освобождения.
Релиз группы
Качество: HDRip / рип с BDRip 1080p
Формат: MP4
Видео кодек: XviD
Аудио кодек: AAC
Видео: 440x320 AR:1.375 459 kbps 23.976 fps
Аудио: 2ch 48 kHz 128 kbps
GeneralComplete name : D:\Torrents\Карнавальная ночь.1956.HDRip.XviD.480x.rip by Frost O.S.mp4Format : MPEG-4Format profile : Base MediaCodec ID : isom (isom)File size : 321 MiBDuration : 1 h 15 minOverall bit rate mode : VariableOverall bit rate : 595 kb/sMovie name : Карнавальная ночь 1956 HDRip XviD 480x rip by Frost O SDirector : Эльдар РязановActor : Игорь Ильинский / Людмила Гурченко / Юрий Белов / Георгий Куликов / Сергей Филиппов / Ольга Власова / Андрей Тутышкин / Тамара Носова / Геннадий Юдин / Владимир ЗельдинGenre : ComedyContentType : Short FilmEncoded date : UTC 2017-04-22 16:30:53Tagged date : UTC 2017-04-22 16:31:50Writing application : MkvToMp4 version: 0.224 (x64)Cover : YesComment : rip by Frost O.SLongDescription : Веселая победа над теперь уже вовсе не страшным дураком бюрократом милого коллектива во главе со стройной девушкой. Из картины Рязанова так и рвется наружу радость освобождения.

VideoID : 1Format : MPEG-4 VisualFormat profile : Advanced [email protected] settings, BVOP : YesFormat settings, QPel : YesFormat settings, GMC : No warppointsFormat settings, Matrix : CustomCodec ID : 20Duration : 1 h 15 minBit rate mode : VariableBit rate : 459 kb/sMaximum bit rate : 1 732 kb/sWidth : 440 pixelsHeight : 320 pixelsDisplay aspect ratio : 1.375Frame rate mode : ConstantFrame rate : 23.976 (24000/1001) FPSOriginal frame rate : 23.976 (23976/1000) FPSColor space : YUVChroma subsampling : 4:2:0Bit depth : 8 bitsScan type : ProgressiveCompression mode : LossyBits/(Pixel*Frame) : 0.136Stream size : 248 MiB (77%)Title : avi_GPAC0.5.2_DEV_rev248_g39d5978_masterWriting library : XviD 1.2.1 (UTC 2008-12-04)Language : EnglishTagged date : UTC 2017-04-22 16:31:14

AudioID : 2Format : AACFormat/Info : Advanced Audio CodecFormat profile : LCCodec ID : 40Duration : 1 h 15 minBit rate mode : VariableBit rate : 128 kb/sMaximum bit rate : 132 kb/sChannel(s) : 2 channelsChannel positions : Front: L RSampling rate : 48.0 kHzFrame rate : 46.875 FPS (1024 spf)Compression mode : LossyStream size : 69.1 MiB (22%)Language : RussianDefault : YesAlternate group : 1Encoded date : UTC 2017-04-22 16:31:12Tagged date : UTC 2017-04-22 16:31:14


Трекер:  [ 22-Апр-2017 18:30 ]

  

Скачать .torrent

Размер .torrent файла 13 KB


Размер: 321 MB
Хэш (hash) релиза: bc88665aa9f656ba01783c2635f88354cdec98c9

Торренты, похожие на [VIDEO] Карнавальная ночь скачать торрент

Форум Название Автор Размер S L Добавлен
Видео (Фильмы/Клипы) ·· [VIDEO] Карнавальная ночь (Эльдар Рязанов) [1956, мюзикл, мелодрама, комедия, BDRip] [MP4, 960x] Galfimbul 10630312871014 MB 0 0 1492879759

19:49

22-Апр-17

Еще никто не оставлял запись к записи скачать торрент [VIDEO] Карнавальная ночь . Будь первым!

!Обратная связь