miles davis birdland
Bhanumotir Khel

Скачать через торрент [VIDEO] Человек с бульвара Капуцинов бесплатно русская версия torrent активатор

Статистика раздачи
Размер:  1.28 GB   |    Зарегистрирован:  11 месяцев   |    .torrent скачан:  29 раз   |   
Раздают:  1  
   
загрузка...
 
Автор Сообщение

Galfimbul

avatar Galfimbul


Человек с бульвара Капуцинов

Год выпуска: 1987
Страна: СССР
Студия: Мосфильм
Жанр: комедия, мелодрама, мюзикл, вестерн
Продолжительность: 01:37:47
Перевод: не требуется
Cубтитры: нет
Режиссер: Алла Сурикова
В ролях: Андрей Миронов, Александра Яковлева, Николай Караченцов, Олег Табаков, Леонид Ярмольник, Михаил Боярский, Спартак Мишулин, Наталья Крачковская, Михаил Светин, Игорь Кваша, Лев Дуров, Галина Польских, Наталья Фатеева, Альберт Филозов, Борислав Брондуков, Олег Анофриев, Семен Фарада, Александр Иншаков, Н. Астапов, Мария Булатова, Юрий Думчев, Анатолий Калмыков, Михаил Херхеулидзе, Валерий Лысенков, А. Малышев, Юрий Медведев, Александр Павлов, Александр Сластин, Николай Сысоев и другие .
Описание: В одном из ковбойских городков Дикого Запада с его традиционной стрельбой, сквернословием и мордобоем появляется тихий миссионер кино мистер Фёст. Неведомое прежде ковбоям «синема» до неузнаваемости меняет уклад их жизни, нравы и привычки.

Правда, позднее благородный мистер Фёст будет изгнан недоброжелателями. Но обитатели городка уже никогда не смогут забыть, что на свете есть великое искусство — КИНО…
Релиз группы
Качество: BDRip / рип с Blu-ray disc 1080p
Формат: MP4
Видео кодек: H.264
Аудио кодек: AAC
Видео: 902x540 AR:1.67 1740 kbps 23.976 fps
Аудио: 2ch 48 kHz 128 kbps
avs [info]: 902x540p 1:1 @ 2997/125 fps (cfr)
x264 [info]: using SAR=1/1
x264 [info]: using cpu capabilities: MMX2 SSE2Fast SSSE3 SSE4.2 AVX FMA3 AVX2 LZCNT BMI2
x264 [info]: profile High, level 4.1

x264 [info]: frame I:830 Avg QP:20.03 size: 51687
x264 [info]: frame P:28030 Avg QP:22.60 size: 19241
x264 [info]: frame B:111811 Avg QP:23.94 size: 6213
x264 [info]: consecutive B-frames: 1.1% 1.5% 5.9% 16.4% 19.9% 39.4% 8.0% 2.8% 2.5% 2.5%
x264 [info]: mb I I16..4: 2.8% 87.5% 9.7%
x264 [info]: mb P I16..4: 0.8% 9.8% 0.9% P16..4: 50.2% 25.4% 11.8% 0.0% 0.0% skip: 1.0%
x264 [info]: mb B I16..4: 0.0% 0.5% 0.1% B16..8: 51.4% 9.0% 1.9% direct: 5.0% skip:32.2% L0:45.8% L1:50.0% BI: 4.2%
x264 [info]: 8x8 transform intra:85.5% inter:67.9%
x264 [info]: direct mvs spatial:98.2% temporal:1.8%
x264 [info]: coded y,uvDC,uvAC intra: 91.2% 82.3% 45.1% inter: 27.5% 31.0% 5.9%
x264 [info]: i16 v,h,dc,p: 29% 20% 12% 39%
x264 [info]: i8 v,h,dc,ddl,ddr,vr,hd,vl,hu: 8% 9% 4% 11% 16% 15% 14% 12% 11%
x264 [info]: i4 v,h,dc,ddl,ddr,vr,hd,vl,hu: 10% 7% 2% 10% 16% 17% 15% 13% 12%
x264 [info]: i8c dc,h,v,p: 38% 24% 21% 17%
x264 [info]: Weighted P-Frames: Y:17.2% UV:6.6%
x264 [info]: ref P L0: 44.0% 13.5% 17.9% 6.5% 5.7% 3.9% 3.8% 2.0% 2.2% 0.4% 0.0%
x264 [info]: ref B L0: 73.1% 11.8% 6.1% 3.2% 2.3% 2.0% 1.2% 0.4%
x264 [info]: ref B L1: 94.4% 5.6%
x264 [info]: kb/s:1741.16

encoded 140671 frames, 16.52 fps, 1741.17 kb/s
GeneralComplete name : D:\Torrents\Человек с бульвара Капуцинов.1987.BDRip.x264.960x.rip by Frost O.S.mp4Format : MPEG-4Format profile : Base MediaCodec ID : isom (isom/avc1)File size : 1.28 GiBDuration : 1 h 37 minOverall bit rate mode : VariableOverall bit rate : 1 877 kb/sMovie name : Человек с бульвара Капуцинов 1987 BDRip x264 960x rip by Frost O SDirector : Алла СуриковаActor : Андрей Миронов / Александра Яковлева / Николай Караченцов / Олег Табаков / Леонид Ярмольник / Михаил Боярский / Спартак Мишулин / Наталья Крачковская / Михаил Светин / Игорь Кваша / Лев Дуров / Галина Польских / Наталья Фатеева / Альберт Филозов / Борислав Брондуков / Олег Анофриев / Семен Фарада / Александр Иншаков / Н. Астапов / Мария Булатова / Юрий Думчев / Анатолий Калмыков / Михаил Херхеулидзе / Валерий Лысенков / А. Малышев / Юрий Медведев / Александр Павлов / Александр Сластин / Николай СысоевGenre : ComedyContentType : Short FilmEncoded date : UTC 2017-04-22 16:37:15Tagged date : UTC 2017-04-22 16:39:08Writing application : MkvToMp4 version: 0.224 (x64)Cover : YesComment : rip by Frost O.SLongDescription : В одном из ковбойских городков Дикого Запада с его традиционной стрельбой, сквернословием и мордобоем появляется тихий миссионер кино мистер Фёст. Неведомое прежде ковбоям «синема» до неузнаваемости меняет уклад их жизни, нравы и привычки. / Правда, позднее благородный мистер Фёст будет изгнан недоброжелателями. Но обитатели городка уже никогда не смогут забыть, что на свете есть великое искусство — КИНО…

VideoID : 1Format : AVCFormat/Info : Advanced Video CodecFormat profile : [email protected] settings, CABAC : YesFormat settings, ReFrames : 9 framesCodec ID : avc1Codec ID/Info : Advanced Video CodingDuration : 1 h 37 minBit rate : 1 740 kb/sMaximum bit rate : 6 415 kb/sWidth : 902 pixelsHeight : 540 pixelsDisplay aspect ratio : 5:3Frame rate mode : ConstantFrame rate : 23.976 (24000/1001) FPSOriginal frame rate : 23.976 (23976/1000) FPSColor space : YUVChroma subsampling : 4:2:0Bit depth : 8 bitsScan type : ProgressiveBits/(Pixel*Frame) : 0.149Stream size : 1.19 GiB (93%)Writing library : x264 core 148 r2744 b97ae06Encoding settings : cabac=1 / ref=9 / deblock=1:-2:-1 / analyse=0x3:0x113 / me=umh / subme=9 / psy=1 / psy_rd=1.10:0.15 / mixed_ref=1 / me_range=32 / chroma_me=1 / trellis=2 / 8x8dct=1 / cqm=0 / deadzone=21,11 / fast_pskip=0 / chroma_qp_offset=-3 / threads=6 / lookahead_threads=1 / sliced_threads=0 / nr=0 / decimate=0 / interlaced=0 / bluray_compat=0 / constrained_intra=0 / bframes=9 / b_pyramid=2 / b_adapt=2 / b_bias=0 / direct=3 / weightb=1 / open_gop=0 / weightp=2 / keyint=250 / keyint_min=23 / scenecut=40 / intra_refresh=0 / rc=2pass / mbtree=0 / bitrate=1740 / ratetol=1.0 / qcomp=0.60 / qpmin=0 / qpmax=69 / qpstep=4 / cplxblur=20.0 / qblur=0.5 / ip_ratio=1.40 / pb_ratio=1.30 / aq=1:1.00Language : EnglishEncoded date : UTC 2017-04-22 16:37:15Tagged date : UTC 2017-04-22 16:38:06Color range : LimitedColor primaries : BT.709Transfer characteristics : BT.709Matrix coefficients : BT.709

AudioID : 2Format : AACFormat/Info : Advanced Audio CodecFormat profile : LCCodec ID : 40Duration : 1 h 37 minBit rate mode : VariableBit rate : 128 kb/sMaximum bit rate : 135 kb/sChannel(s) : 2 channelsChannel positions : Front: L RSampling rate : 48.0 kHzFrame rate : 46.875 FPS (1024 spf)Compression mode : LossyStream size : 89.5 MiB (7%)Language : RussianDefault : YesAlternate group : 1Encoded date : UTC 2017-04-22 16:37:56Tagged date : UTC 2017-04-22 16:38:06


Трекер:  [ 22-Апр-2017 18:30 ]

  

Скачать .torrent

Размер .torrent файла 13 KB


Размер: 1.28 GB
Хэш (hash) релиза: 52eaae34a6a202a407ca25e090abdcbd0ec5787b

Торренты, похожие на [VIDEO] Человек с бульвара Капуцинов скачать торрент

Форум Название Автор Размер S L Добавлен
Видео (Фильмы/Клипы) ·· [VIDEO] Человек с бульвара Капуцинов (Алла Сурикова) [1987, комедия, мелодрама, мюзикл, вестерн, HDRip] [MP4, 480x] Galfimbul 462287986441 MB 0 0 1493127654

16:40

25-Апр-17

Еще никто не оставлял запись к записи скачать торрент [VIDEO] Человек с бульвара Капуцинов . Будь первым!

!Обратная связь