3rd Person | D.N.Angel | Sono stato fortunato - autobiografia

Скачать через торрент музыку Когда плачут цикады Higurashi no Naku Koro Ni бесплатно без регистрации torrent

Статистика раздачи
Размер:  288 MB   |    Зарегистрирован:  1 год 2 месяца   |    .torrent скачан:  10 раз   |   
Раздают:  1  
   
загрузка...
 
Автор Сообщение

Galfimbul

avatar Galfimbul


Когда плачут цикады / Higurashi no Naku Koro Ni

Название альбома: Music collection from "Higurashi When They Cry" for string quartet and piano
Композитор: Hajime Takahashi
Год выпуска: 2016
Страна: Япония
Аудио кодек: FLAC (*.flac)
Тип рипа: tracks+.cue
Битрейт аудио: lossless
Продолжительность: 00:55:45
Наличие сканов в содержимом раздачи: нет

Треклист:
01. Higurashi no Naku Koro ni (4:25)
02. why, or why not (6:08)
03. Naraku no Hana (5:08)
04. Taishou a (4:35)
05. Nageki no Mori (5:25)
06. Sora no Mukou (3:52)
07. Thanks (2:29)
08. Kokoro Musubi (5:35)
09. Birth and Death (4:45)
10. Futari. Hitori. (2:34)
11. You-Destructive (3:31)
12. You (3:43)
13. You (Vocal Version) (3:35)

Оф. сайт
VGMDB
Exact Audio Copy V1.3 from 2. September 2016

EAC extraction logfile from 26. September 2016, 11:33

弦楽四重奏“DEQUAR” / ひぐらしのなく頃に奏

Used drive : HL-DT-STDVD-RAM GH40L Adapter: 1 ID: 0

Read mode : SecureUtilize accurate stream : YesDefeat audio cache : YesMake use of C2 pointers : No

Read offset correction : 667Overread into Lead-In and Lead-Out : NoFill up missing offset samples with silence : YesDelete leading and trailing silent blocks : NoNull samples used in CRC calculations : YesUsed interface : Native Win32 interface for Win NT & 2000

Used output format : Internal WAV RoutinesSample format : 44.100 Hz; 16 Bit; Stereo

TOC of the extracted CD

Track | Start | Length | Start sector | End sector --------------------------------------------------------- 1 | 0:00.00 | 4:25.21 | 0 | 19895 2 | 4:25.21 | 6:07.50 | 19896 | 47470 3 | 10:32.71 | 5:07.70 | 47471 | 70565 4 | 15:40.66 | 4:35.09 | 70566 | 91199 5 | 20:16.00 | 5:24.70 | 91200 | 115569 6 | 25:40.70 | 3:51.46 | 115570 | 132940 7 | 29:32.41 | 2:29.34 | 132941 | 144149 8 | 32:02.00 | 5:34.41 | 144150 | 169240 9 | 37:36.41 | 4:45.35 | 169241 | 190650 10 | 42:22.01 | 2:34.14 | 190651 | 202214 11 | 44:56.15 | 3:30.61 | 202215 | 218025 12 | 48:27.01 | 3:42.47 | 218026 | 234722 13 | 52:09.48 | 3:35.03 | 234723 | 250850

Range status and errors

Selected range

Filename C:\Users\Compy\Desktop\Higurashi Sou\Sou\弦楽四重奏“DEQUAR” - ひぐらしのなく頃に奏.wav

Peak level 97.7 % Extraction speed 1.9 X Range quality 100.0 % Copy CRC E79FAA1E Copy OK

No errors occurred

End of status report

---- CUETools DB Plugin V2.1.6

[CTDB TOCID: wmCkCegpEneU1rikqzSk3PwiedE-] foundSubmit result: already submittedTrack | CTDB Status 1 | (4/4) Accurately ripped 2 | (4/4) Accurately ripped 3 | (4/4) Accurately ripped 4 | (4/4) Accurately ripped 5 | (4/4) Accurately ripped 6 | (4/4) Accurately ripped 7 | (4/4) Accurately ripped 8 | (4/4) Accurately ripped 9 | (4/4) Accurately ripped 10 | (4/4) Accurately ripped 11 | (4/4) Accurately ripped 12 | (4/4) Accurately ripped 13 | (4/4) Accurately ripped

==== Log checksum 77FDD94A58AB5670CC2378D3FB2C5AC8E698BBDD4675839310E2CD70C72B8835 ====

------------------------------------------------------------

Exact Audio Copy V1.3 from 2. September 2016

EAC extraction logfile from 26. September 2016, 11:33

弦楽四重奏“DEQUAR” / ひぐらしのなく頃に奏

Used drive : HL-DT-STDVD-RAM GH40L Adapter: 1 ID: 0

Read mode : SecureUtilize accurate stream : YesDefeat audio cache : YesMake use of C2 pointers : No

Read offset correction : 667Overread into Lead-In and Lead-Out : NoFill up missing offset samples with silence : YesDelete leading and trailing silent blocks : NoNull samples used in CRC calculations : YesUsed interface : Native Win32 interface for Win NT & 2000

Used output format : Internal WAV RoutinesSample format : 44.100 Hz; 16 Bit; Stereo

TOC of the extracted CD

Track | Start | Length | Start sector | End sector --------------------------------------------------------- 1 | 0:00.00 | 4:25.21 | 0 | 19895 2 | 4:25.21 | 6:07.50 | 19896 | 47470 3 | 10:32.71 | 5:07.70 | 47471 | 70565 4 | 15:40.66 | 4:35.09 | 70566 | 91199 5 | 20:16.00 | 5:24.70 | 91200 | 115569 6 | 25:40.70 | 3:51.46 | 115570 | 132940 7 | 29:32.41 | 2:29.34 | 132941 | 144149 8 | 32:02.00 | 5:34.41 | 144150 | 169240 9 | 37:36.41 | 4:45.35 | 169241 | 190650 10 | 42:22.01 | 2:34.14 | 190651 | 202214 11 | 44:56.15 | 3:30.61 | 202215 | 218025 12 | 48:27.01 | 3:42.47 | 218026 | 234722 13 | 52:09.48 | 3:35.03 | 234723 | 250850

Range status and errors

Selected range

Filename C:\Users\Compy\Desktop\Higurashi Sou\Sou\弦楽四重奏“DEQUAR” - ひぐらしのなく頃に奏.wav

Peak level 97.7 % Extraction speed 1.9 X Range quality 100.0 % Copy CRC E79FAA1E Copy OK

No errors occurred

End of status report

---- CUETools DB Plugin V2.1.6

[CTDB TOCID: wmCkCegpEneU1rikqzSk3PwiedE-] foundSubmit result: already submittedTrack | CTDB Status 1 | (4/4) Accurately ripped 2 | (4/4) Accurately ripped 3 | (4/4) Accurately ripped 4 | (4/4) Accurately ripped 5 | (4/4) Accurately ripped 6 | (4/4) Accurately ripped 7 | (4/4) Accurately ripped 8 | (4/4) Accurately ripped 9 | (4/4) Accurately ripped 10 | (4/4) Accurately ripped 11 | (4/4) Accurately ripped 12 | (4/4) Accurately ripped 13 | (4/4) Accurately ripped

==== Log checksum 77FDD94A58AB5670CC2378D3FB2C5AC8E698BBDD4675839310E2CD70C72B8835 ====
-----------------------

DON'T MODIFY THIS FILE

-----------------------

PERFORMER: auCDtect Task Manager, ver. 1.6.0 RC1 build 1.6.0.1Copyright (c) 2008-2010 y-soft. All rights reservedhttp://y-soft.org

ANALYZER: auCDtect: CD records authenticity detector, version 0.8.2Copyright (c) 2004 Oleg Berngardt. All rights reserved.Copyright (c) 2004 Alexander Djourik. All rights reserved.

FILE: 13. You (Vocal Version).flac Size: 20486704 Hash: F61CFAC5E79ECF4D92EA3FD04E1BD99C Accuracy: -m0 Conclusion: CDDA 100% Signature: FECD93D79F2C961156CC26FA89D52AEA70991D89FILE: 12. You.flac Size: 20375453 Hash: 0D32391CC25112A18A39591EA3F23475 Accuracy: -m0 Conclusion: CDDA 100% Signature: 0CB1FE763A9CC9B06C66409B40927985E82A7F1CFILE: 11. You-Destructive.flac Size: 19860666 Hash: 818EAACBE43F439788C7A77833B5704F Accuracy: -m0 Conclusion: CDDA 100% Signature: DD5EC638FFEF46E05170D7B4442F940C3868E842FILE: 10. Futari. Hitori..flac Size: 12920846 Hash: 78A0013944A83A3E09DFD37FB9E7D916 Accuracy: -m0 Conclusion: CDDA 100% Signature: 3795770D9A587853718E0294770767AAC8D38CB6FILE: 09. Birth and Death.flac Size: 22826602 Hash: 05350DF0D1804B77576564895A5F65B2 Accuracy: -m0 Conclusion: CDDA 100% Signature: 95C64F49AD687FB466E5D8DF0F2EAE848A90F859FILE: 08. Kokoro Musubi.flac Size: 27900288 Hash: EB3BC95197F9D1950D676A40D2C4D293 Accuracy: -m0 Conclusion: CDDA 100% Signature: 83C9CD71B7005CE17D248461818F708633EEB280FILE: 07. Thanks.flac Size: 12343872 Hash: 63656C964B3D5317DB80B10E2EA34D7B Accuracy: -m0 Conclusion: CDDA 100% Signature: 1A545A11497AEFEBFF07A8F901DC15419DD14316FILE: 06. Sora no Mukou.flac Size: 17799375 Hash: 6924465C9A520A6DA68C7F9F1320DFBC Accuracy: -m0 Conclusion: CDDA 92% Signature: 962B1251BC8B492690AE58EEE0057EF96A7A9EBAFILE: 05. Nageki no Mori.flac Size: 29925900 Hash: F042E5957CD080E739532FDBA062365A Accuracy: -m0 Conclusion: CDDA 100% Signature: A7E59EEA19425FB1CC4D1E709720C20B3B49BD1FFILE: 04. Taishou a.flac Size: 24506868 Hash: 5174F181C4AAF52D7D3803967EF053D0 Accuracy: -m0 Conclusion: CDDA 100% Signature: BE3AAD1CC6DBDA4F04F9B07448154D15B419C655FILE: 03. Naraku no Hana.flac Size: 28915382 Hash: 770B3C98D07CED4C42424804B13B4052 Accuracy: -m0 Conclusion: CDDA 100% Signature: 8D62A69141EA195B30AA356635396649DC0653D5FILE: 02. why, or why not.flac Size: 32240308 Hash: 7E5CD982B4602BE6FC8777F878EB3706 Accuracy: -m0 Conclusion: CDDA 100% Signature: B23197E8C7144DB18778FE58CD0E89BD1683603DFILE: 01. Higurashi no Naku Koro ni.flac Size: 25525809 Hash: 7766BA23CDD9C82E9BA4E38297A2626E Accuracy: -m0 Conclusion: CDDA 100% Signature: A9FD1F08326D8A5550CDFCDD3A5C9A8197FB14E9


Трекер:  [ 22-Апр-2017 16:30 ]

  

Скачать .torrent

Размер .torrent файла 25 KB


Размер: 288 MB
Хэш (hash) релиза: 253ed5169347309063978aedb3c0d170ca757279

Еще никто не оставлял запись к записи скачать торрент Когда плачут цикады Higurashi no Naku Koro Ni . Будь первым!

!Обратная связь