Elina Nechayeva Listen! | Leo Zhang | Хроники хищных городов / Mortal Engines (2018)

Скачать через торрент [VIDEO] Герника Gernika бесплатно русская версия torrent активатор

Статистика раздачи
Размер:  2.5 GB   |    Зарегистрирован:  1 год 2 месяца   |    .torrent скачан:  17 раз   |   
Раздают:  1  
   
загрузка...
 
Автор Сообщение

Galfimbul

avatar Galfimbul


Герника / Gernika
«In love and war the first casualty is truth»
Премьера: 2015
Оригинальное название: Gernika
Страна: Испания
Жанр: мелодрама, военный
Возраст: 16+

Режиссер: Кольдо Серра / Koldo Serra

В ролях: Берн Горман, Джеймс Д`Арси, Джек Девенпорт, Мария Вальверде, Уго Сильва, Ирена Эсколар, Ингрид Гарсия Йонсон, Йоахим Пауль Ассбёк, Алекс Гарсия, Барбара Гоэнага, Хулиан Вильягран, Виктор Клавихо, Наталия Альварес-Бильбао, Давид Мора, Элена Ирурета, Альба Феррара, Ричард Саагун, Хон Ариньо, Эли Эрнандес, Паула Барсенилья

Описание: Романтическая драма о разочарованном и циничном американском журналисте, который оказывается единственным «вестником правды» из испанского города Герника, где зверствует гражданская война. В его работу и дальнейшую судьбу вмешивается местная республиканка Тереза, ответственная за цензуру исходящих новостей…

Продолжительность: 01:50:50
Перевод: Профессиональный многоголосый [Лицензия]
Оригинальная дорожка: есть

Автор рипа:

Качество видео: BDRip Исходник: Blu-Ray Remux (1080p) Формат: mp4
Видео кодек: MPEG-4 AVC Аудио кодек: AAC
Видео: 1280x536 (2.40:1) at 24.000 fps, AVC at 2 832 kbps avg, 0.172 bit/pixel
Аудио №1 Rus: 48.0 KHz, AAC, 2 ch, 128.0 Kbps
Аудио №2 Spa: 48.0 KHz, AAC, 2 ch, 128.0 Kbps
Аудио №3 Eng: 48.0 KHz, AAC, 2 ch, 128.0 Kbps
Субтитры: русские (полные), английские (полные)
Навигация по главам: есть
Размер: 2.50 GiB
avs [info]: 1280x536p 1:1 @ 24/1 fps (cfr)
x264 [info]: using SAR=1/1
x264 [info]: using cpu capabilities: MMX2 SSE2Fast SSSE3 Cache64
x264 [info]: profile High, level 4.1
x264 [info]: frame I:1212 Avg QP:14.34 size:110969
x264 [info]: frame P:33844 Avg QP:17.55 size: 34303
x264 [info]: frame B:124552 Avg QP:19.92 size: 8498
x264 [info]: consecutive B-frames: 1.6% 2.2% 7.4% 19.2% 21.9% 37.6% 6.1% 2.6% 1.4%
x264 [info]: mb I I16..4: 3.0% 77.1% 19.9%
x264 [info]: mb P I16..4: 0.9% 10.7% 1.5% P16..4: 42.6% 27.6% 15.4% 0.0% 0.0% skip: 1.4%
x264 [info]: mb B I16..4: 0.1% 0.9% 0.1% B16..8: 42.3% 8.8% 2.1% direct: 6.1% skip:39.6% L0:43.2% L1:45.9% BI:10.9%
x264 [info]: 8x8 transform intra:80.7% inter:65.5%
x264 [info]: coded y,uvDC,uvAC intra: 85.7% 78.8% 45.2% inter: 25.4% 22.0% 2.0%
x264 [info]: i16 v,h,dc,p: 18% 9% 7% 66%
x264 [info]: i8 v,h,dc,ddl,ddr,vr,hd,vl,hu: 23% 13% 16% 5% 9% 9% 8% 8% 8%
x264 [info]: i4 v,h,dc,ddl,ddr,vr,hd,vl,hu: 25% 14% 11% 6% 11% 11% 9% 8% 6%
x264 [info]: i8c dc,h,v,p: 52% 18% 23% 7%
x264 [info]: Weighted P-Frames: Y:4.2% UV:1.4%
x264 [info]: ref P L0: 49.4% 13.6% 15.0% 5.8% 5.0% 3.6% 3.4% 1.9% 2.2% 0.1% 0.0%
x264 [info]: ref B L0: 79.4% 9.2% 4.7% 2.3% 1.7% 1.4% 0.9% 0.3%
x264 [info]: ref B L1: 95.4% 4.6%
x264 [info]: kb/s:2831.68
encoded 159608 frames, 2.38 fps, 2831.68 kb/s
GeneralComplete name : ...Gernika_2016_KinoGadget.mp4Format : MPEG-4Format profile : Base MediaCodec ID : isom (isom)File size : 2.50 GiBDuration : 1 h 50 minOverall bit rate mode : VariableOverall bit rate : 3 230 kb/sMovie name : Герника | KinoGadgetPerformer : Кольдо СерраDirector : Кольдо СерраActor : Берн Горман / Джеймс Д`Арси / Джек Девенпорт / Мария Вальверде / Уго Сильва / Ирена Эсколар / Ингрид Гарсия Йонсон / Йоахим Пауль Ассбёк / Алекс Гарсия / Барбара Гоэнага / Хулиан Вильягран / Виктор Клавихо / Наталия Альварес-Бильбао / Давид Мора / Элена Ирурета / Альба Феррара / Ричард Саагун / Хон Ариньо / Эли Эрнандес / Паула БарсенильяScreenplay by : Карлос Клавихо Кобос / Барни Коэн / Хосе АльбаProducer : Хосе Альба / Даниэль Марк Дрейфусс / Гвадалупе Балагер ТрельесGenre : Romance, WarContentType : Short FilmRecorded date : 2016Encoded date : UTC 2017-04-22 11:13:06Tagged date : UTC 2017-04-22 12:21:51Cover : YesContentRating : mpaa|R|400|LongDescription : Романтическая драма о разочарованном и циничном американском журналисте, который оказывается единственным «вестником правды» из испанского города Герника, где зверствует гражданская война. В его работу и дальнейшую судьбу вмешивается местная республиканка Тереза, ответственная за цензуру исходящих новостей…HDVideo : Yes

VideoID : 1Format : AVCFormat/Info : Advanced Video CodecFormat profile : [email protected] settings, CABAC : YesFormat settings, ReFrames : 9 framesCodec ID : avc1Codec ID/Info : Advanced Video CodingDuration : 1 h 50 minBit rate : 2 832 kb/sMaximum bit rate : 11.5 Mb/sWidth : 1 280 pixelsHeight : 536 pixelsDisplay aspect ratio : 2.40:1Frame rate mode : ConstantFrame rate : 24.000 FPSColor space : YUVChroma subsampling : 4:2:0Bit depth : 8 bitsScan type : ProgressiveBits/(Pixel*Frame) : 0.172Stream size : 2.19 GiB (88%)Writing library : x264 core 148 r2744 b97ae06Encoding settings : cabac=1 / ref=9 / deblock=1:-1:-1 / analyse=0x3:0x113 / me=umh / subme=7 / psy=1 / psy_rd=1.00:0.00 / mixed_ref=1 / me_range=32 / chroma_me=1 / trellis=2 / 8x8dct=1 / cqm=0 / deadzone=21,11 / fast_pskip=0 / chroma_qp_offset=-2 / threads=3 / lookahead_threads=1 / sliced_threads=0 / nr=0 / decimate=1 / interlaced=0 / bluray_compat=0 / constrained_intra=0 / bframes=8 / b_pyramid=2 / b_adapt=2 / b_bias=0 / direct=1 / weightb=1 / open_gop=0 / weightp=2 / keyint=250 / keyint_min=25 / scenecut=40 / intra_refresh=0 / rc_lookahead=60 / rc=crf / mbtree=1 / crf=17.5 / qcomp=0.60 / qpmin=0 / qpmax=69 / qpstep=4 / vbv_maxrate=62500 / vbv_bufsize=78125 / crf_max=0.0 / nal_hrd=none / filler=0 / ip_ratio=1.40 / aq=1:1.00Encoded date : UTC 2017-04-22 09:56:48Tagged date : UTC 2017-04-22 11:15:41

Audio #1ID : 2Format : AACFormat/Info : Advanced Audio CodecFormat profile : LCCodec ID : 40Duration : 1 h 50 minBit rate mode : VariableBit rate : 128 kb/sMaximum bit rate : 135 kb/sChannel(s) : 2 channelsChannel positions : Front: L RSampling rate : 48.0 kHzFrame rate : 46.875 FPS (1024 spf)Compression mode : LossyStream size : 101 MiB (4%)Language : RussianEncoded date : UTC 2017-04-22 10:25:41Tagged date : UTC 2017-04-22 11:15:41

Audio #2ID : 3Format : AACFormat/Info : Advanced Audio CodecFormat profile : LCCodec ID : 40Duration : 1 h 50 minBit rate mode : VariableBit rate : 128 kb/sMaximum bit rate : 135 kb/sChannel(s) : 2 channelsChannel positions : Front: L RSampling rate : 48.0 kHzFrame rate : 46.875 FPS (1024 spf)Compression mode : LossyStream size : 101 MiB (4%)Language : SpanishEncoded date : UTC 2017-04-22 10:35:34Tagged date : UTC 2017-04-22 11:15:41

Audio #3ID : 4Format : AACFormat/Info : Advanced Audio CodecFormat profile : LCCodec ID : 40Duration : 1 h 50 minBit rate mode : VariableBit rate : 128 kb/sMaximum bit rate : 135 kb/sChannel(s) : 2 channelsChannel positions : Front: L RSampling rate : 48.0 kHzFrame rate : 46.875 FPS (1024 spf)Compression mode : LossyStream size : 101 MiB (4%)Language : EnglishEncoded date : UTC 2017-04-22 10:45:50Tagged date : UTC 2017-04-22 11:15:41

Text #1ID : 5Format : Timed TextCodec ID : tx3gDuration : 1 h 44 minBit rate mode : VariableBit rate : 73 b/sStream size : 55.5 KiB (0%)Title : FullLanguage : RussianForced : NoEncoded date : UTC 2017-04-22 11:15:41Tagged date : UTC 2017-04-22 11:15:41

Text #2ID : 6Format : Timed TextCodec ID : tx3gDuration : 1 h 43 minBit rate mode : VariableBit rate : 45 b/sStream size : 33.9 KiB (0%)Title : FullLanguage : EnglishForced : NoEncoded date : UTC 2017-04-22 11:15:41Tagged date : UTC 2017-04-22 11:15:41

Menu00:00:00.000 : Chapter 0100:06:56.916 : Chapter 0200:15:43.958 : Chapter 0300:24:56.708 : Chapter 0400:31:39.250 : Chapter 0500:43:28.416 : Chapter 0600:51:43.958 : Chapter 0701:00:13.916 : Chapter 0801:10:32.458 : Chapter 0901:19:29.041 : Chapter 1001:25:53.500 : Chapter 1101:33:01.333 : Chapter 12


Трекер:  [ 22-Апр-2017 14:30 ]

  

Скачать .torrent

Размер .torrent файла 13 KB


Размер: 2.5 GB
Хэш (hash) релиза: c588c55e6a919252e5c519edc503df02985e2f9e

Еще никто не оставлял запись к записи скачать торрент [VIDEO] Герника Gernika . Будь первым!

!Обратная связь