Документальные/познавательные фильмы | Le tre minestre | JusquÀ La Garde

Скачать через торрент [VIDEO] Из тьмы The Hallow бесплатно русская версия torrent активатор

Статистика раздачи
Размер:  2.21 GB   |    Зарегистрирован:  1 год 2 месяца   |    .torrent скачан:  20 раз   |   
Раздают:  1  
   
загрузка...
 
Автор Сообщение

Galfimbul

avatar Galfimbul


Из тьмы / The Hallow
«Придет первобытный страх»
Год выпуска: 2015
Оригинальное название: The Hallow
Страна: Великобритания, США, Ирландия
Жанр: ужасы
Возраст: 16+

Режиссер: Корин Харди / Corin Hardy

В ролях: Джозеф Моул, Бояна Новакович, Майкл МакЭлхаттон, Гари Лайдон, Стюарт Грэхэм, Конор Крэйг Стефенс, Шон Тайрел, Билли Трэйнор

Описание: Семейная пара переезжает в новый дом на краю леса, окутанного жуткими легендами. Его первобытные существа пытаются забрать у родителей младенца.

Продолжительность: 01:37:00
Перевод: Дублированный [iTunes]
Оригинальная дорожка: есть

Автор рипа:

Качество видео: BDRip Исходник: Blu-Ray Remux (1080p) Формат: mp4
Видео кодек: MPEG-4 AVC Аудио кодек: AAC
Видео: 1280x534 (2.40:1) at 23.976 fps, AVC at 2 997 kbps avg, 0.183 bit/pixel
Аудио №1 Rus: 48.0 KHz, AAC, 2 ch, 128.0 Kbps
Аудио №2 Eng: 48.0 KHz, AAC, 2 ch, 128.0 Kbps
Субтитры: русские (полные), английские (полные)
Навигация по главам: есть
Размер: 2.21 GiB
avs [info]: 1280x534p 1:1 @ 24000/1001 fps (cfr)
x264 [info]: using SAR=1/1
x264 [info]: using cpu capabilities: MMX2 SSE2Fast SSSE3 Cache64
x264 [info]: profile High, level 4.1
x264 [info]: frame I:1196 Avg QP:13.77 size:111133
x264 [info]: frame P:29455 Avg QP:16.95 size: 30439
x264 [info]: frame B:108887 Avg QP:18.47 size: 10572
x264 [info]: consecutive B-frames: 1.9% 2.4% 8.8% 12.9% 17.2% 49.3% 7.5%
x264 [info]: mb I I16..4: 5.1% 79.6% 15.3%
x264 [info]: mb P I16..4: 1.4% 10.7% 1.1% P16..4: 42.7% 22.7% 13.3% 0.0% 0.0% skip: 8.0%
x264 [info]: mb B I16..4: 0.1% 1.3% 0.1% B16..8: 46.2% 8.5% 1.7% direct: 6.5% skip:35.6% L0:46.4% L1:47.7% BI: 5.9%
x264 [info]: 8x8 transform intra:81.9% inter:68.2%
x264 [info]: coded y,uvDC,uvAC intra: 80.8% 83.6% 59.9% inter: 27.6% 26.1% 3.5%
x264 [info]: i16 v,h,dc,p: 34% 12% 7% 47%
x264 [info]: i8 v,h,dc,ddl,ddr,vr,hd,vl,hu: 18% 11% 25% 6% 9% 9% 8% 7% 8%
x264 [info]: i4 v,h,dc,ddl,ddr,vr,hd,vl,hu: 24% 14% 15% 6% 10% 9% 9% 7% 6%
x264 [info]: i8c dc,h,v,p: 56% 16% 19% 8%
x264 [info]: Weighted P-Frames: Y:7.1% UV:4.4%
x264 [info]: ref P L0: 51.6% 10.0% 16.0% 6.5% 5.0% 3.8% 3.2% 1.9% 1.8% 0.2% 0.0%
x264 [info]: ref B L0: 76.8% 10.8% 5.5% 2.5% 1.8% 1.5% 0.9% 0.3%
x264 [info]: ref B L1: 94.3% 5.7%
x264 [info]: kb/s:2997.51
encoded 139538 frames, 2.19 fps, 2997.51 kb/s
GeneralComplete name : ...Iz_tmy_2015_KinoGadget.mp4Format : MPEG-4Format profile : Base MediaCodec ID : isom (isom)File size : 2.21 GiBDuration : 1 h 37 minOverall bit rate mode : VariableOverall bit rate : 3 265 kb/sMovie name : Из тьмы | KinoGadgetPerformer : Корин ХардиDirector : Корин ХардиActor : Джозеф Моул / Бояна Новакович / Майкл МакЭлхаттон / Гари Лайдон / Стюарт Грэхэм / Конор Крэйг Стефенс / Шон Тайрел / Билли ТрэйнорScreenplay by : Корин Харди / Фелипе Марино / Том Де ВиллеProducer : Фелипе Марино / Джо Нюротер / Джон БрэйдиGenre : HorrorContentType : Short FilmRecorded date : 2015Encoded date : UTC 2017-04-21 11:00:44Tagged date : UTC 2017-04-21 13:54:08Cover : YesContentRating : mpaa|R|400|LongDescription : Семейная пара переезжает в новый дом на краю леса, окутанного жуткими легендами. Его первобытные существа пытаются забрать у родителей младенца.HDVideo : Yes

VideoID : 1Format : AVCFormat/Info : Advanced Video CodecFormat profile : [email protected] settings, CABAC : YesFormat settings, ReFrames : 9 framesCodec ID : avc1Codec ID/Info : Advanced Video CodingDuration : 1 h 36 minBit rate : 2 997 kb/sMaximum bit rate : 23.5 Mb/sWidth : 1 280 pixelsHeight : 534 pixelsDisplay aspect ratio : 2.40:1Frame rate mode : ConstantFrame rate : 23.976 (24000/1001) FPSColor space : YUVChroma subsampling : 4:2:0Bit depth : 8 bitsScan type : ProgressiveBits/(Pixel*Frame) : 0.183Stream size : 2.03 GiB (92%)Writing library : x264 core 148 r2744 b97ae06Encoding settings : cabac=1 / ref=9 / deblock=1:1:1 / analyse=0x3:0x113 / me=umh / subme=7 / psy=1 / psy_rd=1.00:0.00 / mixed_ref=1 / me_range=32 / chroma_me=1 / trellis=2 / 8x8dct=1 / cqm=0 / deadzone=21,11 / fast_pskip=0 / chroma_qp_offset=-2 / threads=3 / lookahead_threads=1 / sliced_threads=0 / nr=0 / decimate=1 / interlaced=0 / bluray_compat=0 / constrained_intra=0 / bframes=6 / b_pyramid=2 / b_adapt=2 / b_bias=0 / direct=1 / weightb=1 / open_gop=0 / weightp=2 / keyint=250 / keyint_min=25 / scenecut=40 / intra_refresh=0 / rc_lookahead=60 / rc=crf / mbtree=1 / crf=17.5 / qcomp=0.60 / qpmin=0 / qpmax=69 / qpstep=4 / vbv_maxrate=62500 / vbv_bufsize=78125 / crf_max=0.0 / nal_hrd=none / filler=0 / ip_ratio=1.40 / aq=1:1.00Encoded date : UTC 2017-04-21 10:33:19Tagged date : UTC 2017-04-21 11:01:55

Audio #1ID : 2Format : AACFormat/Info : Advanced Audio CodecFormat profile : LCCodec ID : 40Duration : 1 h 36 minBit rate mode : VariableBit rate : 128 kb/sMaximum bit rate : 135 kb/sChannel(s) : 2 channelsChannel positions : Front: L RSampling rate : 48.0 kHzFrame rate : 46.875 FPS (1024 spf)Compression mode : LossyStream size : 88.7 MiB (4%)Title : Dub [iTunes]Language : RussianEncoded date : UTC 2017-04-21 10:37:11Tagged date : UTC 2017-04-21 11:01:55

Audio #2ID : 3Format : AACFormat/Info : Advanced Audio CodecFormat profile : LCCodec ID : 40Duration : 1 h 37 minBit rate mode : VariableBit rate : 128 kb/sMaximum bit rate : 135 kb/sChannel(s) : 2 channelsChannel positions : Front: L RSampling rate : 48.0 kHzFrame rate : 46.875 FPS (1024 spf)Compression mode : LossyStream size : 88.8 MiB (4%)Title : OriginalLanguage : EnglishEncoded date : UTC 2017-04-21 10:44:13Tagged date : UTC 2017-04-21 11:01:55

Text #1ID : 4Format : Timed TextCodec ID : tx3gDuration : 1 h 32 minBit rate mode : VariableBit rate : 32 b/sStream size : 22.0 KiB (0%)Title : FullLanguage : RussianForced : NoEncoded date : UTC 2017-04-21 11:01:54Tagged date : UTC 2017-04-21 11:01:55

Text #2ID : 5Format : Timed TextCodec ID : tx3gDuration : 1 h 29 minBit rate mode : VariableBit rate : 19 b/sStream size : 12.5 KiB (0%)Title : FullLanguage : EnglishForced : NoEncoded date : UTC 2017-04-21 11:01:55Tagged date : UTC 2017-04-21 11:01:55

Menu00:00:00.000 : 00:00:00.00000:07:50.053 : 00:07:50.05300:13:21.718 : 00:13:21.71800:20:57.089 : 00:20:57.08900:28:10.480 : 00:28:10.48000:35:01.850 : 00:35:01.85000:43:04.499 : 00:43:04.49900:49:24.503 : 00:49:24.50300:58:14.116 : 00:58:14.11601:06:17.849 : 01:06:17.84901:13:00.751 : 01:13:00.75101:20:04.758 : 01:20:04.75801:36:57.895 : 01:36:57.895


Трекер:  [ 21-Апр-2017 16:30 ]

  

Скачать .torrent

Размер .torrent файла 11 KB


Размер: 2.21 GB
Хэш (hash) релиза: 5cfc7a8c05d3e05b7ca70483042d2c08453a49c8

Еще никто не оставлял запись к записи скачать торрент [VIDEO] Из тьмы The Hallow . Будь первым!

!Обратная связь