Pixelmator Pro 1.1.1 MAS + iCloud (MacOS) | Winchester (2018) hd .mkv |

Скачать через торрент [MULT] Крошка Енот бесплатно русская версия torrent активатор

Статистика раздачи
Размер:  77 MB   |    Зарегистрирован:  1 год 3 месяца   |    .torrent скачан:  30 раз   |   
Раздают:  1  
   
загрузка...
 
Автор Сообщение

Galfimbul

avatar Galfimbul


Крошка Енот (ТВ)

Год выпуска: 1974
Страна: СССР
Жанр: мультфильм, короткометражка
Продолжительность: 00:08:48
Перевод: не требуется
Cубтитры: нет
Режиссер: Олег Чуркин
Роли озвучивали: Клара Румянова, Мария Виноградова
Описание: Сегодня у Крошки Енота день рождения, и чтобы доказать, что он уже взрослый, он отправляется к пруду за сладкой осокой.
Релиз группы
Качество: DVDRip / рип с DVD5 Крупный план
Формат: MP4
Видео кодек: H.264
Аудио кодек: AAC
Видео: 468x360 AR:1.3 1080 kbps 25 fps
Аудио : 1ch 48 kHz 128 kbps
avs [info]: 468x360p 1:1 @ 25/1 fps (cfr)
x264 [info]: using SAR=1/1
x264 [info]: using cpu capabilities: MMX2 SSE2Fast SSSE3 SSE4.2 AVX FMA3 AVX2 LZCNT BMI2
x264 [info]: profile High, level 4.1

x264 [info]: frame I:86 Avg QP:19.04 size: 20270
x264 [info]: frame P:3056 Avg QP:22.50 size: 9520
x264 [info]: frame B:10075 Avg QP:23.95 size: 4022
x264 [info]: consecutive B-frames: 1.3% 2.5% 11.9% 34.7% 21.0% 17.8% 5.1% 2.9% 1.8% 1.0%
x264 [info]: mb I I16..4: 2.5% 77.1% 20.4%
x264 [info]: mb P I16..4: 0.7% 16.7% 2.8% P16..4: 35.8% 34.3% 8.9% 0.6% 0.0% skip: 0.3%
x264 [info]: mb B I16..4: 0.1% 2.8% 0.5% B16..8: 36.4% 24.4% 3.5% direct:11.4% skip:20.8% L0:47.0% L1:39.7% BI:13.2%
x264 [info]: 8x8 transform intra:81.8% inter:70.7%
x264 [info]: direct mvs spatial:95.2% temporal:4.8%
x264 [info]: coded y,uvDC,uvAC intra: 87.9% 79.1% 37.7% inter: 42.3% 29.7% 2.9%
x264 [info]: i16 v,h,dc,p: 17% 16% 10% 57%
x264 [info]: i8 v,h,dc,ddl,ddr,vr,hd,vl,hu: 10% 11% 6% 9% 12% 12% 12% 12% 15%
x264 [info]: i4 v,h,dc,ddl,ddr,vr,hd,vl,hu: 10% 25% 4% 6% 12% 10% 12% 8% 13%
x264 [info]: i8c dc,h,v,p: 22% 34% 21% 24%
x264 [info]: Weighted P-Frames: Y:46.5% UV:24.0%
x264 [info]: ref P L0: 35.9% 11.5% 15.0% 8.6% 6.2% 5.3% 4.5% 3.0% 2.8% 2.8% 2.9% 1.4% 0.0%
x264 [info]: ref B L0: 68.6% 12.5% 5.8% 3.4% 2.6% 2.2% 1.9% 1.3% 1.0% 0.7%
x264 [info]: ref B L1: 94.6% 5.4%
x264 [info]: kb/s:1079.84

encoded 13217 frames, 24.07 fps, 1079.86 kb/s
GeneralComplete name : D:\Torrents\Крошка Енот.1974.DVDRip.x264.640x.rip by Frost O.S.mp4Format : MPEG-4Format profile : Base MediaCodec ID : isom (isom/avc1)File size : 76.7 MiBDuration : 8 min 48 sOverall bit rate : 1 217 kb/sMovie name : Крошка Енот 1974 DVDRip x264 640x rip by Frost O SDirector : Олег ЧуркинActor : Клара Румянова / Мария ВиноградоваGenre : AnimationContentType : Short FilmEncoded date : UTC 2017-04-20 12:35:50Tagged date : UTC 2017-04-20 12:35:54Writing application : MkvToMp4 version: 0.224 (x64)Cover : YesComment : rip by Frost O.SLongDescription : Сегодня у Крошки Енота день рождения, и чтобы доказать, что он уже взрослый, он отправляется к пруду за сладкой осокой.

VideoID : 1Format : AVCFormat/Info : Advanced Video CodecFormat profile : [email protected] settings, CABAC : YesFormat settings, ReFrames : 11 framesCodec ID : avc1Codec ID/Info : Advanced Video CodingDuration : 8 min 48 sBit rate : 1 080 kb/sMaximum bit rate : 2 157 kb/sWidth : 468 pixelsHeight : 360 pixelsDisplay aspect ratio : 4:3Frame rate mode : ConstantFrame rate : 25.000 FPSColor space : YUVChroma subsampling : 4:2:0Bit depth : 8 bitsScan type : ProgressiveBits/(Pixel*Frame) : 0.256Stream size : 68.1 MiB (89%)Writing library : x264 core 148 r2744 b97ae06Encoding settings : cabac=1 / ref=11 / deblock=1:1:1 / analyse=0x3:0x133 / me=umh / subme=11 / psy=1 / psy_rd=0.70:0.00 / mixed_ref=1 / me_range=48 / chroma_me=1 / trellis=2 / 8x8dct=1 / cqm=0 / deadzone=21,11 / fast_pskip=0 / chroma_qp_offset=-2 / threads=6 / lookahead_threads=1 / sliced_threads=0 / nr=0 / decimate=0 / interlaced=0 / bluray_compat=0 / constrained_intra=0 / bframes=9 / b_pyramid=2 / b_adapt=2 / b_bias=0 / direct=3 / weightb=1 / open_gop=0 / weightp=2 / keyint=250 / keyint_min=25 / scenecut=40 / intra_refresh=0 / rc=2pass / mbtree=0 / bitrate=1080 / ratetol=1.0 / qcomp=0.65 / qpmin=0 / qpmax=69 / qpstep=4 / cplxblur=20.0 / qblur=0.5 / ip_ratio=1.40 / pb_ratio=1.30 / aq=3:0.90Language : EnglishEncoded date : UTC 2017-04-20 12:35:50Tagged date : UTC 2017-04-20 12:35:51Color range : LimitedColor primaries : BT.601 PALTransfer characteristics : BT.470 System B, BT.470 System GMatrix coefficients : BT.601

AudioID : 2Format : AACFormat/Info : Advanced Audio CodecFormat profile : LCCodec ID : 40Duration : 8 min 48 sBit rate mode : ConstantBit rate : 128 kb/sChannel(s) : 1 channelChannel positions : Front: CSampling rate : 48.0 kHzFrame rate : 46.875 FPS (1024 spf)Compression mode : LossyStream size : 8.07 MiB (11%)Language : RussianDefault : YesAlternate group : 1Encoded date : UTC 2017-04-20 12:35:51Tagged date : UTC 2017-04-20 12:35:51


Трекер:  [ 20-Апр-2017 15:30 ]

  

Скачать .torrent

Размер .torrent файла 12 KB


Размер: 77 MB
Хэш (hash) релиза: 7634fbce5c7e2a84b5a8ebac8fccff818b080f99

Еще никто не оставлял запись к записи скачать торрент [MULT] Крошка Енот . Будь первым!

!Обратная связь