ультра исо с кряком торрент | Free Rein HDTV 720p AC3 5.1 | Murder One - Der Fall Jessica

Скачать через торрент [MULT] Мама для мамонтенка бесплатно русская версия torrent активатор

Статистика раздачи
Размер:  70 MB   |    Зарегистрирован:  1 год 2 месяца   |    .torrent скачан:  29 раз   |   
Раздают:  1  
   
загрузка...
 
Автор Сообщение

Galfimbul

avatar Galfimbul


Мама для мамонтенка (ТВ)

Год выпуска: 1981
Страна: СССР
Жанр: мультфильм, короткометражка
Продолжительность: 00:08:02
Перевод: не требуется
Cубтитры: нет
Режиссер: Олег Чуркин
Роли озвучивали: Зиновий Гердт, Зинаида Нарышкина, Клара Румянова, Григорий Толчинский, Рина Зеленая
Описание: Мультфильм о судьбе мамонтёнка, который случайно избежал вымирания мамонтов (замёрз в вечной мерзлоте, а потом оттаял) и теперь ищет маму. Мамонтёнок знакомится с белым медвежонком и моржом, которые отправляют его на льдине в плаванье. Старый мудрый дедушка Морж рассказывает мамонтёнку, что далеко на юге есть огромный континент, где живут звери, похожие на него, только без шерсти. Может быть, там его мама? Мамонтёнок отправляется в далекое плавание через огромный океан, чтобы найти её.
Релиз группы
Качество: DVDRip / рип с DVD5 Крупный план
Формат: MP4
Видео кодек: H.264
Аудио кодек: AAC
Видео: 476x360 AR:1.32 1080 kbps 25 fps
Аудио : 1ch 48 kHz 128 kbps
avs [info]: 476x360p 1:1 @ 25/1 fps (cfr)
x264 [info]: using SAR=1/1
x264 [info]: using cpu capabilities: MMX2 SSE2Fast SSSE3 SSE4.2 AVX FMA3 AVX2 LZCNT BMI2
x264 [info]: profile High, level 4.1

x264 [info]: frame I:79 Avg QP:20.76 size: 30645
x264 [info]: frame P:3093 Avg QP:23.82 size: 10395
x264 [info]: frame B:8882 Avg QP:24.79 size: 3442
x264 [info]: consecutive B-frames: 3.0% 4.8% 11.6% 38.0% 19.9% 15.5% 4.2% 2.1% 0.9%
x264 [info]: mb I I16..4: 2.4% 66.5% 31.1%
x264 [info]: mb P I16..4: 0.6% 12.8% 2.7% P16..4: 35.0% 31.7% 14.3% 1.7% 0.2% skip: 0.9%
x264 [info]: mb B I16..4: 0.1% 2.0% 0.4% B16..8: 32.3% 21.8% 4.6% direct:11.3% skip:27.5% L0:43.2% L1:37.0% BI:19.8%
x264 [info]: 8x8 transform intra:78.1% inter:69.6%
x264 [info]: direct mvs spatial:95.7% temporal:4.3%
x264 [info]: coded y,uvDC,uvAC intra: 90.6% 83.9% 54.2% inter: 39.6% 38.5% 9.7%
x264 [info]: i16 v,h,dc,p: 20% 22% 8% 50%
x264 [info]: i8 v,h,dc,ddl,ddr,vr,hd,vl,hu: 9% 12% 9% 8% 10% 8% 15% 10% 19%
x264 [info]: i4 v,h,dc,ddl,ddr,vr,hd,vl,hu: 12% 11% 5% 8% 12% 10% 15% 11% 15%
x264 [info]: i8c dc,h,v,p: 31% 37% 16% 16%
x264 [info]: Weighted P-Frames: Y:62.6% UV:54.4%
x264 [info]: ref P L0: 45.0% 14.5% 11.4% 6.5% 4.3% 3.8% 3.2% 2.6% 2.3% 2.4% 2.2% 1.6% 0.0%
x264 [info]: ref B L0: 75.8% 10.1% 4.2% 2.5% 1.9% 1.6% 1.4% 1.1% 0.8% 0.6%
x264 [info]: ref B L1: 96.2% 3.8%
x264 [info]: kb/s:1080.89

encoded 12054 frames, 22.78 fps, 1080.90 kb/s
GeneralComplete name : D:\Torrents\Мама для мамонтенка.1981.DVDRip.x264.640x.rip by Frost O.S.mp4Format : MPEG-4Format profile : Base MediaCodec ID : isom (isom/avc1)File size : 70.1 MiBDuration : 8 min 2 sOverall bit rate mode : VariableOverall bit rate : 1 220 kb/sMovie name : Мама для мамонтенка 1981 DVDRip x264 640x rip by Frost O SDirector : Олег ЧуркинActor : Зиновий Гердт / Зинаида Нарышкина / Клара Румянова / Григорий Толчинский / Рина ЗеленаяGenre : AnimationContentType : Short FilmEncoded date : UTC 2017-04-20 13:04:45Tagged date : UTC 2017-04-20 13:04:46Writing application : MkvToMp4 version: 0.224 (x64)Cover : YesComment : rip by Frost O.SLongDescription : Мультфильм о судьбе мамонтёнка, который случайно избежал вымирания мамонтов (замёрз в вечной мерзлоте, а потом оттаял) и теперь ищет маму. Мамонтёнок знакомится с белым медвежонком и моржом, которые отправляют его на льдине в плаванье. Старый мудрый дедушка Морж рассказывает мамонтёнку, что далеко на юге есть огромный континент, где живут звери, похожие на него, только без шерсти. Может быть, там его мама? Мамонтёнок отправляется в далекое плавание через огромный океан, чтобы найти её.

VideoID : 1Format : AVCFormat/Info : Advanced Video CodecFormat profile : [email protected] settings, CABAC : YesFormat settings, ReFrames : 11 framesCodec ID : avc1Codec ID/Info : Advanced Video CodingDuration : 8 min 2 sBit rate : 1 080 kb/sMaximum bit rate : 2 861 kb/sWidth : 476 pixelsHeight : 360 pixelsDisplay aspect ratio : 4:3Frame rate mode : ConstantFrame rate : 25.000 FPSColor space : YUVChroma subsampling : 4:2:0Bit depth : 8 bitsScan type : ProgressiveBits/(Pixel*Frame) : 0.252Stream size : 62.1 MiB (89%)Writing library : x264 core 148 r2744 b97ae06Encoding settings : cabac=1 / ref=11 / deblock=1:1:1 / analyse=0x3:0x133 / me=umh / subme=11 / psy=1 / psy_rd=0.70:0.00 / mixed_ref=1 / me_range=48 / chroma_me=1 / trellis=2 / 8x8dct=1 / cqm=0 / deadzone=21,11 / fast_pskip=0 / chroma_qp_offset=-2 / threads=6 / lookahead_threads=1 / sliced_threads=0 / nr=0 / decimate=0 / interlaced=0 / bluray_compat=0 / constrained_intra=0 / bframes=8 / b_pyramid=2 / b_adapt=2 / b_bias=0 / direct=3 / weightb=1 / open_gop=0 / weightp=2 / keyint=250 / keyint_min=25 / scenecut=40 / intra_refresh=0 / rc=2pass / mbtree=0 / bitrate=1080 / ratetol=1.0 / qcomp=0.65 / qpmin=0 / qpmax=69 / qpstep=4 / cplxblur=20.0 / qblur=0.5 / ip_ratio=1.40 / pb_ratio=1.30 / aq=3:0.90Language : EnglishEncoded date : UTC 2017-04-20 13:04:45Tagged date : UTC 2017-04-20 13:04:46Color range : LimitedColor primaries : BT.601 PALTransfer characteristics : BT.470 System B, BT.470 System GMatrix coefficients : BT.601

AudioID : 2Format : AACFormat/Info : Advanced Audio CodecFormat profile : LCCodec ID : 40Duration : 8 min 2 sBit rate mode : VariableBit rate : 128 kb/sMaximum bit rate : 129 kb/sChannel(s) : 1 channelChannel positions : Front: CSampling rate : 48.0 kHzFrame rate : 46.875 FPS (1024 spf)Compression mode : LossyStream size : 7.36 MiB (10%)Language : RussianDefault : YesAlternate group : 1Encoded date : UTC 2017-04-20 13:04:45Tagged date : UTC 2017-04-20 13:04:46


Трекер:  [ 20-Апр-2017 15:30 ]

  

Скачать .torrent

Размер .torrent файла 11 KB


Размер: 70 MB
Хэш (hash) релиза: 4fab6f518dc2ff804c14bb6e90a3e182e20182c1

Еще никто не оставлял запись к записи скачать торрент [MULT] Мама для мамонтенка . Будь первым!

!Обратная связь