Murena - tome 1 - La Pourpre et l'or | Technology | Os meninos da Camorra

Скачать через торрент [MULT] Мешок яблок бесплатно русская версия torrent активатор

Статистика раздачи
Размер:  168 MB   |    Зарегистрирован:  1 год 2 месяца   |    .torrent скачан:  30 раз   |   
Раздают:  1  
   
загрузка...
 
Автор Сообщение

Galfimbul

avatar Galfimbul


Мешок яблок

Год выпуска: 1974
Страна: СССР
Жанр: мультфильм, короткометражка
Продолжительность: 00:19:18
Перевод: не требуется
Cубтитры: нет
Режиссер: Витольд Бордзиловский
Роли озвучивали: Георгий Вицин, Анатолий Папанов, Борис Владимиров, Борис Андреев, Готлиб Ронинсон, Борис Рунге
Описание: Набрал заяц мешок яблок для своей семьи. Да пока нёс домой, всё и раздал на угощения. Но лесные друзья его выручили.
Релиз группы
Качество: DVDRip / рип с DVD5 (Custom)
Формат: MP4
Видео кодек: H.264
Аудио кодек: AAC
Видео: 482x360 AR:1.34 1080 kbps 25 fps
Аудио : 1ch 48 kHz 128 kbps
avs [info]: 482x360p 1:1 @ 25/1 fps (cfr)
x264 [info]: using SAR=1/1
x264 [info]: using cpu capabilities: MMX2 SSE2Fast SSSE3 SSE4.2 AVX FMA3 AVX2 LZCNT BMI2
x264 [info]: profile High, level 4.1

x264 [info]: frame I:183 Avg QP:18.94 size: 32535
x264 [info]: frame P:6974 Avg QP:21.90 size: 10738
x264 [info]: frame B:21812 Avg QP:23.97 size: 3465
x264 [info]: consecutive B-frames: 1.6% 1.5% 10.8% 44.9% 22.5% 13.9% 3.6% 1.2%
x264 [info]: mb I I16..4: 1.1% 73.8% 25.0%
x264 [info]: mb P I16..4: 0.4% 7.9% 2.1% P16..4: 35.3% 34.4% 15.1% 3.1% 0.5% skip: 1.2%
x264 [info]: mb B I16..4: 0.0% 0.8% 0.4% B16..8: 29.9% 17.9% 4.9% direct: 7.8% skip:38.3% L0:47.2% L1:39.6% BI:13.2%
x264 [info]: 8x8 transform intra:72.3% inter:57.5%
x264 [info]: direct mvs spatial:97.2% temporal:2.8%
x264 [info]: coded y,uvDC,uvAC intra: 92.7% 78.8% 46.0% inter: 32.1% 29.3% 6.9%
x264 [info]: i16 v,h,dc,p: 59% 11% 5% 25%
x264 [info]: i8 v,h,dc,ddl,ddr,vr,hd,vl,hu: 12% 8% 11% 10% 13% 12% 12% 10% 13%
x264 [info]: i4 v,h,dc,ddl,ddr,vr,hd,vl,hu: 11% 11% 4% 8% 15% 15% 12% 9% 13%
x264 [info]: i8c dc,h,v,p: 31% 33% 20% 17%
x264 [info]: Weighted P-Frames: Y:60.4% UV:39.8%
x264 [info]: ref P L0: 39.7% 12.5% 11.2% 7.3% 5.7% 5.8% 4.8% 3.2% 2.7% 2.6% 2.6% 1.9% 0.1%
x264 [info]: ref B L0: 70.1% 10.6% 5.2% 3.4% 2.7% 2.6% 2.1% 1.5% 1.1% 0.8%
x264 [info]: ref B L1: 96.3% 3.7%
x264 [info]: kb/s:1079.94

encoded 28969 frames, 23.56 fps, 1079.94 kb/s
GeneralComplete name : D:\Torrents\Мешок яблок.1974.DVDRip.x264.640x.rip by Frost O.S.mp4Format : MPEG-4Format profile : Base MediaCodec ID : isom (isom/avc1)File size : 168 MiBDuration : 19 min 18 sOverall bit rate : 1 217 kb/sMovie name : Мешок яблок 1974 DVDRip x264 640x rip by Frost O SDirector : Витольд БордзиловскийActor : Георгий Вицин / Анатолий Папанов / Борис Владимиров / Борис Андреев / Готлиб Ронинсон / Борис РунгеGenre : AnimationContentType : Short FilmEncoded date : UTC 2017-04-20 11:47:24Tagged date : UTC 2017-04-20 11:47:43Writing application : MkvToMp4 version: 0.224 (x64)Cover : YesComment : rip by Frost O.SLongDescription : Набрал заяц мешок яблок для своей семьи. Да пока нёс домой, всё и раздал на угощения. Но лесные друзья его выручили.

VideoID : 1Format : AVCFormat/Info : Advanced Video CodecFormat profile : [email protected] settings, CABAC : YesFormat settings, ReFrames : 11 framesCodec ID : avc1Codec ID/Info : Advanced Video CodingDuration : 19 min 18 sBit rate : 1 080 kb/sMaximum bit rate : 3 568 kb/sWidth : 482 pixelsHeight : 360 pixelsDisplay aspect ratio : 4:3Frame rate mode : ConstantFrame rate : 25.000 FPSColor space : YUVChroma subsampling : 4:2:0Bit depth : 8 bitsScan type : ProgressiveBits/(Pixel*Frame) : 0.249Stream size : 149 MiB (89%)Writing library : x264 core 148 r2744 b97ae06Encoding settings : cabac=1 / ref=11 / deblock=1:-1:-1 / analyse=0x3:0x133 / me=umh / subme=11 / psy=1 / psy_rd=0.70:0.00 / mixed_ref=1 / me_range=48 / chroma_me=1 / trellis=2 / 8x8dct=1 / cqm=0 / deadzone=21,11 / fast_pskip=0 / chroma_qp_offset=-2 / threads=6 / lookahead_threads=1 / sliced_threads=0 / nr=0 / decimate=0 / interlaced=0 / bluray_compat=0 / constrained_intra=0 / bframes=7 / b_pyramid=2 / b_adapt=2 / b_bias=0 / direct=3 / weightb=1 / open_gop=0 / weightp=2 / keyint=250 / keyint_min=25 / scenecut=40 / intra_refresh=0 / rc=2pass / mbtree=0 / bitrate=1080 / ratetol=1.0 / qcomp=0.70 / qpmin=0 / qpmax=69 / qpstep=4 / cplxblur=20.0 / qblur=0.5 / ip_ratio=1.40 / pb_ratio=1.30 / aq=2:1.00Language : EnglishEncoded date : UTC 2017-04-20 11:47:24Tagged date : UTC 2017-04-20 11:47:39Color range : LimitedColor primaries : BT.601 PALTransfer characteristics : BT.470 System B, BT.470 System GMatrix coefficients : BT.601

AudioID : 2Format : AACFormat/Info : Advanced Audio CodecFormat profile : LCCodec ID : 40Duration : 19 min 18 sBit rate mode : ConstantBit rate : 128 kb/sChannel(s) : 1 channelChannel positions : Front: CSampling rate : 48.0 kHzFrame rate : 46.875 FPS (1024 spf)Compression mode : LossyStream size : 17.7 MiB (11%)Language : RussianDefault : YesAlternate group : 1Encoded date : UTC 2017-04-20 11:47:27Tagged date : UTC 2017-04-20 11:47:39


Трекер:  [ 20-Апр-2017 14:00 ]

  

Скачать .torrent

Размер .torrent файла 13 KB


Размер: 168 MB
Хэш (hash) релиза: 22710a28de8cdfc69b39e16c3d612def410592be

Еще никто не оставлял запись к записи скачать торрент [MULT] Мешок яблок . Будь первым!

!Обратная связь