Asylum of Fear | Ben 10 2016 S02E17 Super-Villain Team-Up 1080p WEB-DL AAC2 0 H264-YFN[rarbg] | Happy Hour Is 9 To 5

Скачать через торрент [VIDEO] Терраформирование Терраформеры бесплатно русская версия torrent активатор

Статистика раздачи
Размер:  1.53 GB   |    Зарегистрирован:  1 год 3 месяца   |    .torrent скачан:  25 раз   |   
Раздают:  1  
   
загрузка...
 
Автор Сообщение

Galfimbul

avatar Galfimbul


Терраформирование / Терраформеры / Terra Formars / Terafomazu

Год выпуска: 2016
Страна: Япония
Жанр: ужасы, фантастика, боевик
Продолжительность: 01:48:55
Перевод: Любительский (двухголосый, закадровый) GREEN TEA
Оригинальная дорожка: Есть
Cубтитры: английские ((FURRITSUBS))
Режиссер: Такаси Миике / Takashi Miike
В ролях: Ринко Кикути, Рила Фукусима, Кейн Косуги, Такаюки Ямада, Эми Такэи, Сюн Огури, Ямасита Томохиса, Марико Синода, Масая Като, Хидэаки Ито и другие .
Описание: С давних пор человечество изучает Марс, пытаясь подчинить себе этот безжизненный и суровый мир. Ученые уже не один десяток лет бьются над планами освоения этой планеты ради блага человечества, запуская на неё различные формы жизни и наблюдая за ними. Теперь, спустя сотни лет, когда Земля становится перенаселенной людьми, находится способ превратить красную планету в пригодное для жизни место. Запускается проект терраформирования, для завершения которого на Марс отправляется группа смельчаков. Но при приземлении их встречает отнюдь не безмолвная пустыня, а гигантские монстры.

Качество: HDRip / рип с BDRip 720p
Формат: MP4
Видео кодек: H.264
Аудио кодек: AAC
Видео: 960x402 AR:2.40 1740 kbps 23.976 fps
Аудио №1: [Russian] 2ch 48 kHz 128 kbps - [DVO] Любительский (двухголосый, закадровый) GREEN TEA
Аудио №2: [Japanese] 2ch 48 kHz 128 kbps - [Original] Японский
avs [info]: 960x402p 1:1 @ 2997/125 fps (cfr)
x264 [info]: using SAR=1/1
x264 [info]: using cpu capabilities: MMX2 SSE2Fast SSSE3 SSE4.2 AVX FMA3 AVX2 LZCNT BMI2
x264 [info]: profile High, level 4.1

x264 [info]: frame I:1011 Avg QP:13.75 size: 63225
x264 [info]: frame P:36545 Avg QP:17.05 size: 18467
x264 [info]: frame B:119149 Avg QP:19.39 size: 5722
x264 [info]: consecutive B-frames: 4.1% 3.6% 10.6% 15.7% 13.1% 35.4% 7.0% 2.7% 3.0% 1.6% 2.6% 0.6%
x264 [info]: mb I I16..4: 5.1% 68.9% 26.0%
x264 [info]: mb P I16..4: 1.0% 10.3% 2.5% P16..4: 29.5% 35.2% 12.5% 0.0% 0.0% skip: 9.0%
x264 [info]: mb B I16..4: 0.1% 1.1% 0.4% B16..8: 31.9% 19.9% 3.5% direct: 4.4% skip:38.9% L0:42.3% L1:44.8% BI:13.0%
x264 [info]: 8x8 transform intra:72.5% inter:53.2%
x264 [info]: direct mvs spatial:97.3% temporal:2.7%
x264 [info]: coded y,uvDC,uvAC intra: 82.3% 80.7% 57.5% inter: 21.0% 14.9% 6.6%
x264 [info]: i16 v,h,dc,p: 23% 13% 4% 60%
x264 [info]: i8 v,h,dc,ddl,ddr,vr,hd,vl,hu: 12% 8% 7% 10% 13% 12% 13% 11% 14%
x264 [info]: i4 v,h,dc,ddl,ddr,vr,hd,vl,hu: 31% 7% 6% 7% 11% 10% 10% 8% 10%
x264 [info]: i8c dc,h,v,p: 34% 30% 20% 16%
x264 [info]: Weighted P-Frames: Y:13.1% UV:9.2%
x264 [info]: ref P L0: 49.9% 8.3% 17.2% 7.0% 5.3% 4.0% 3.5% 2.1% 2.1% 0.5% 0.1%
x264 [info]: ref B L0: 73.6% 11.9% 5.9% 3.0% 2.2% 2.0% 1.1% 0.4%
x264 [info]: ref B L1: 94.0% 6.0%
x264 [info]: kb/s:1738.72

encoded 156705 frames, 15.78 fps, 1738.72 kb/s
GeneralComplete name : D:\Torrents\Terafomazu.2016.HDRip.x264.960x.rip by Frost O.S.mp4Format : MPEG-4Format profile : Base MediaCodec ID : isom (isom/avc1/iso2)File size : 1.53 GiBDuration : 1 h 48 minOverall bit rate mode : VariableOverall bit rate : 2 006 kb/sMovie name : Terafomazu 2016 HDRip x264 960x rip by Frost O SDirector : Такаси Миике / Takashi MiikeActor : Ринко Кикути / Рила Фукусима / Кейн Косуги / Такаюки Ямада / Эми Такэи / Сюн Огури / Ямасита Томохиса / Марико Синода / Масая Като / Хидэаки ИтоGenre : FantasyContentType : Short FilmEncoded date : UTC 2017-04-19 20:02:46Tagged date : UTC 2017-04-19 20:06:32Writing application : MkvToMp4 version: 0.224 (x64)Cover : YesComment : rip by Frost O.SLongDescription : С давних пор человечество изучает Марс, пытаясь подчинить себе этот безжизненный и суровый мир. Ученые уже не один десяток лет бьются над планами освоения этой планеты ради блага человечества, запуская на неё различные формы жизни и наблюдая за ними. Теперь, спустя сотни лет, когда Земля становится перенаселенной людьми, находится способ превратить красную планету в пригодное для жизни место. Запускается проект терраформирования, для завершения которого на Марс отправляется группа смельчаков. Но при приземлении их встречает отнюдь не безмолвная пустыня, а гигантские монстры.

VideoID : 1Format : AVCFormat/Info : Advanced Video CodecFormat profile : [email protected] settings, CABAC : YesFormat settings, ReFrames : 9 framesCodec ID : avc1Codec ID/Info : Advanced Video CodingDuration : 1 h 48 minBit rate : 1 740 kb/sMaximum bit rate : 11.0 Mb/sWidth : 960 pixelsHeight : 402 pixelsDisplay aspect ratio : 2.40:1Frame rate mode : ConstantFrame rate : 23.976 (24000/1001) FPSOriginal frame rate : 23.976 (23976/1000) FPSColor space : YUVChroma subsampling : 4:2:0Bit depth : 8 bitsScan type : ProgressiveBits/(Pixel*Frame) : 0.188Stream size : 1.32 GiB (87%)Writing library : x264 core 148 r2744 b97ae06Encoding settings : cabac=1 / ref=9 / deblock=1:-2:-2 / analyse=0x3:0x113 / me=umh / subme=11 / psy=1 / psy_rd=1.10:0.00 / mixed_ref=1 / me_range=32 / chroma_me=1 / trellis=2 / 8x8dct=1 / cqm=0 / deadzone=21,11 / fast_pskip=0 / chroma_qp_offset=-2 / threads=6 / lookahead_threads=1 / sliced_threads=0 / nr=0 / decimate=0 / interlaced=0 / bluray_compat=0 / constrained_intra=0 / bframes=11 / b_pyramid=2 / b_adapt=2 / b_bias=0 / direct=3 / weightb=1 / open_gop=0 / weightp=2 / keyint=250 / keyint_min=23 / scenecut=40 / intra_refresh=0 / rc=2pass / mbtree=0 / bitrate=1740 / ratetol=1.0 / qcomp=0.80 / qpmin=0 / qpmax=69 / qpstep=4 / cplxblur=20.0 / qblur=0.5 / ip_ratio=1.40 / pb_ratio=1.30 / aq=3:0.70Language : EnglishEncoded date : UTC 2017-04-19 20:02:46Tagged date : UTC 2017-04-19 20:03:58Color range : LimitedColor primaries : BT.709Transfer characteristics : BT.709Matrix coefficients : BT.709

Audio #1ID : 2Format : AACFormat/Info : Advanced Audio CodecFormat profile : LCCodec ID : 40Duration : 1 h 48 minBit rate mode : VariableBit rate : 128 kb/sMaximum bit rate : 135 kb/sChannel(s) : 2 channelsChannel positions : Front: L RSampling rate : 48.0 kHzFrame rate : 46.875 FPS (1024 spf)Compression mode : LossyStream size : 99.7 MiB (6%)Title : DVO_ GREEN TEA / DVO_ GREEN TEALanguage : RussianDefault : YesAlternate group : 1Encoded date : UTC 2017-04-19 20:03:27Tagged date : UTC 2017-04-19 20:03:58

Audio #2ID : 3Format : AACFormat/Info : Advanced Audio CodecFormat profile : LCCodec ID : 40Duration : 1 h 48 minBit rate mode : VariableBit rate : 128 kb/sMaximum bit rate : 135 kb/sChannel(s) : 2 channelsChannel positions : Front: L RSampling rate : 48.0 kHzFrame rate : 46.875 FPS (1024 spf)Compression mode : LossyStream size : 99.7 MiB (6%)Title : Original / OriginalLanguage : JapaneseDefault : NoAlternate group : 1Encoded date : UTC 2017-04-19 20:03:46Tagged date : UTC 2017-04-19 20:03:58

TextID : 4Format : Timed TextMuxing mode : sbtlCodec ID : tx3gDuration : 1 h 44 minBit rate mode : VariableBit rate : 43 b/sStream size : 32.7 KiB (0%)Title : _FURRITSUBS / _FURRITSUBSLanguage : EnglishDefault : YesForced : NoAlternate group : 2Encoded date : UTC 2017-04-19 20:03:58Tagged date : UTC 2017-04-19 20:03:58


Трекер:  [ 20-Апр-2017 12:30 ]

  

Скачать .torrent

Размер .torrent файла 15 KB


Размер: 1.53 GB
Хэш (hash) релиза: a1872483b2820c59040194aeb107de20cc43c2d5

Еще никто не оставлял запись к записи скачать торрент [VIDEO] Терраформирование Терраформеры . Будь первым!

!Обратная связь