MomXXX.18.04.01.Aubrey.Black.XXX.1080p.MP4-
May 2016 (751)

Скачать через торрент [VIDEO] Терраформирование Терраформеры бесплатно русская версия torrent активатор

Статистика раздачи
Размер:  495 MB   |    Зарегистрирован:  11 месяцев   |    .torrent скачан:  24 раза   |   
Раздают:  1  
   
загрузка...
 
Автор Сообщение

Galfimbul

avatar Galfimbul


Терраформирование / Терраформеры / Terra Formars / Terafomazu

Год выпуска: 2016
Страна: Япония
Жанр: ужасы, фантастика, боевик
Продолжительность: 01:48:55
Перевод: Любительский (двухголосый, закадровый) GREEN TEA
Cубтитры: нет
Режиссер: Такаси Миике / Takashi Miike
В ролях: Ринко Кикути, Рила Фукусима, Кейн Косуги, Такаюки Ямада, Эми Такэи, Сюн Огури, Ямасита Томохиса, Марико Синода, Масая Като, Хидэаки Ито и другие .
Описание: С давних пор человечество изучает Марс, пытаясь подчинить себе этот безжизненный и суровый мир. Ученые уже не один десяток лет бьются над планами освоения этой планеты ради блага человечества, запуская на неё различные формы жизни и наблюдая за ними. Теперь, спустя сотни лет, когда Земля становится перенаселенной людьми, находится способ превратить красную планету в пригодное для жизни место. Запускается проект терраформирования, для завершения которого на Марс отправляется группа смельчаков. Но при приземлении их встречает отнюдь не безмолвная пустыня, а гигантские монстры.

Качество: HDRip / рип с BDRip 720p
Формат: MP4
Видео кодек: XviD
Аудио кодек: AAC
Видео: 480x200 AR:2.40 500 kbps 23.976 fps
Аудио: [Russian] 2ch 48 kHz 128 kbps - [DVO] Любительский (двухголосый, закадровый) GREEN TEA
GeneralComplete name : D:\Torrents\Terafomazu.2016.HDRip.XviD.480x.rip by Frost O.S.mp4Format : MPEG-4Format profile : Base MediaCodec ID : isom (isom/iso2)File size : 495 MiBDuration : 1 h 48 minOverall bit rate mode : VariableOverall bit rate : 636 kb/sMovie name : Terafomazu 2016 HDRip XviD 480x rip by Frost O SDirector : Такаси Миике / Takashi MiikeActor : Ринко Кикути / Рила Фукусима / Кейн Косуги / Такаюки Ямада / Эми Такэи / Сюн Огури / Ямасита Томохиса / Марико Синода / Масая Като / Хидэаки ИтоGenre : FantasyContentType : Short FilmEncoded date : UTC 2017-04-19 20:12:13Tagged date : UTC 2017-04-19 20:13:08Writing application : MkvToMp4 version: 0.224 (x64)Cover : YesComment : rip by Frost O.SLongDescription : С давних пор человечество изучает Марс, пытаясь подчинить себе этот безжизненный и суровый мир. Ученые уже не один десяток лет бьются над планами освоения этой планеты ради блага человечества, запуская на неё различные формы жизни и наблюдая за ними. Теперь, спустя сотни лет, когда Земля становится перенаселенной людьми, находится способ превратить красную планету в пригодное для жизни место. Запускается проект терраформирования, для завершения которого на Марс отправляется группа смельчаков. Но при приземлении их встречает отнюдь не безмолвная пустыня, а гигантские монстры.

VideoID : 1Format : MPEG-4 VisualFormat profile : Advanced [email protected] settings, BVOP : YesFormat settings, QPel : NoFormat settings, GMC : No warppointsFormat settings, Matrix : CustomCodec ID : 20Duration : 1 h 48 minBit rate mode : VariableBit rate : 500 kb/sMaximum bit rate : 3 957 kb/sWidth : 480 pixelsHeight : 200 pixelsDisplay aspect ratio : 2.40:1Frame rate mode : ConstantFrame rate : 23.976 (24000/1001) FPSOriginal frame rate : 23.976 (23976/1000) FPSColor space : YUVChroma subsampling : 4:2:0Bit depth : 8 bitsScan type : ProgressiveCompression mode : LossyBits/(Pixel*Frame) : 0.217Stream size : 389 MiB (79%)Title : avi_GPAC0.5.2_DEV_rev248_g39d5978_masterWriting library : XviD 1.2.1 (UTC 2008-12-04)Language : EnglishTagged date : UTC 2017-04-19 20:12:20

AudioID : 2Format : AACFormat/Info : Advanced Audio CodecFormat profile : LCCodec ID : 40Duration : 1 h 48 minBit rate mode : VariableBit rate : 128 kb/sMaximum bit rate : 135 kb/sChannel(s) : 2 channelsChannel positions : Front: L RSampling rate : 48.0 kHzFrame rate : 46.875 FPS (1024 spf)Compression mode : LossyStream size : 99.7 MiB (20%)Title : DVO_ GREEN TEA / DVO_ GREEN TEALanguage : RussianDefault : YesAlternate group : 1Encoded date : UTC 2017-04-19 20:12:17Tagged date : UTC 2017-04-19 20:12:20


Трекер:  [ 20-Апр-2017 12:30 ]

  

Скачать .torrent

Размер .torrent файла 20 KB


Размер: 495 MB
Хэш (hash) релиза: 5912a9c27422008afcc3841083afaf44653a19b7

Еще никто не оставлял запись к записи скачать торрент [VIDEO] Терраформирование Терраформеры . Будь первым!

!Обратная связь