Jack Palance | Animal Kingdom S03E05 VOSTFR HDTV | Solubility Enhancement Techniques Pdf

Скачать через торрент [MULT] Луни Тюнз: Снова в деле Looney Tunes: Back in Action бесплатно русская версия torrent активатор

Статистика раздачи
Размер:  417 MB   |    Зарегистрирован:  1 год 2 месяца   |    .torrent скачан:  26 раз   |   
Раздают:  1  
   
загрузка...
 
Автор Сообщение

Galfimbul

avatar Galfimbul


Луни Тюнз: Снова в деле / Looney Tunes: Back in Action

Год выпуска: 2003
Страна: Германия, США
Жанр: мультфильм, комедия, приключения, семейный
Продолжительность: 01:31:38
Перевод: Русский Профессиональный (полное дублирование) R5
Cубтитры: нет
Режиссер: Джо Данте / Joe Dante
В ролях: Брендан Фрейзер, Дженна Элфмэн, Стив Мартин, Тимоти Далтон, Рон Перлман, Мэттью Лиллард, Хэзер Локлир, Джоан Кьюсак, Билл Голдберг, Дон Стэнтон, Дэн Стэнтон, Дик Миллер и другие .
Описание: Анимационные герои: Багс Банни и Даффи Дак — в реальной жизни! Поиски пропавшего человека и огромного мифического алмаза приводят Багса и Даффи сначала в Лас-Вегас, а затем в непроходимые джунгли Африки…
Релиз группы
Качество: HDRip / рип с BDRip 1080p
Формат: MP4
Видео кодек: XviD
Аудио кодек: AAC
Видео: 480х200 AR:2.40 500 kbps 23.976 fps
Аудио: [Russian] 2ch 48 kHz 128 kbps - Профессиональный (полное дублирование) R5
GeneralComplete name : D:\Torrents\Looney Tunes Back in Action.2003.HDRip.XviD.480x.rip by Frost O.S.mp4Format : MPEG-4Format profile : Base MediaCodec ID : isom (isom/iso2)File size : 417 MiBDuration : 1 h 31 minOverall bit rate mode : VariableOverall bit rate : 636 kb/sMovie name : Looney Tunes Back in Action 2003 HDRip XviD 480x rip by Frost O SDirector : Джо Данте / Joe DanteActor : Брендан Фрейзер / Дженна Элфмэн / Стив Мартин / Тимоти Далтон / Рон Перлман / Мэттью Лиллард / Хэзер Локлир / Джоан Кьюсак / Билл Голдберг / Дон Стэнтон / Дэн Стэнтон / Дик МиллерGenre : AnimationContentType : Short FilmEncoded date : UTC 2017-04-19 19:23:41Tagged date : UTC 2017-04-19 19:24:22Writing application : MkvToMp4 version: 0.224 (x64)Cover : YesComment : rip by Frost O.SLongDescription : Анимационные герои: Багс Банни и Даффи Дак — в реальной жизни! Поиски пропавшего человека и огромного мифического алмаза приводят Багса и Даффи сначала в Лас-Вегас, а затем в непроходимые джунгли Африки…

VideoID : 1Format : MPEG-4 VisualFormat profile : Advanced [email protected] settings, BVOP : YesFormat settings, QPel : YesFormat settings, GMC : No warppointsFormat settings, Matrix : CustomCodec ID : 20Duration : 1 h 31 minBit rate mode : VariableBit rate : 500 kb/sMaximum bit rate : 194 Mb/sWidth : 480 pixelsHeight : 200 pixelsDisplay aspect ratio : 2.40:1Frame rate mode : VariableFrame rate : 23.976 (23976/1000) FPSMinimum frame rate : 11.988 FPSMaximum frame rate : 23.976 FPSColor space : YUVChroma subsampling : 4:2:0Bit depth : 8 bitsScan type : ProgressiveCompression mode : LossyBits/(Pixel*Frame) : 0.217Stream size : 327 MiB (79%)Title : avi_GPAC0.5.2_DEV_rev248_g39d5978_masterWriting library : XviD 1.2.1 (UTC 2008-12-04)Language : EnglishTagged date : UTC 2017-04-19 19:23:45

AudioID : 2Format : AACFormat/Info : Advanced Audio CodecFormat profile : LCCodec ID : 40Duration : 1 h 31 minBit rate mode : VariableBit rate : 128 kb/sMaximum bit rate : 135 kb/sChannel(s) : 2 channelsChannel positions : Front: L RSampling rate : 48.0 kHzFrame rate : 46.875 FPS (1024 spf)Compression mode : LossyStream size : 83.9 MiB (20%)Title : Dub_ R5 / Dub_ R5Language : RussianDefault : YesAlternate group : 1Encoded date : UTC 2017-04-19 19:23:44Tagged date : UTC 2017-04-19 19:23:45


Трекер:  [ 19-Апр-2017 22:00 ]

  

Скачать .torrent

Размер .torrent файла 16 KB


Размер: 417 MB
Хэш (hash) релиза: dc8a09bf4c993938449e5e1977d20f6f3c53fd44

Торренты, похожие на [MULT] Луни Тюнз: Снова в деле Looney Tunes: Back in Action скачать торрент

Форум Название Автор Размер S L Добавлен
Видео (Фильмы/Клипы) ·· [MULT] Луни Тюнз: Снова в деле / Looney Tunes: Back in Action (Джо Данте / Joe Dante) [2003, мультфильм, комедия, приключения, семейный, BDRip] [MP4, 960x] Dub R5, DVO (П. Гланц, и И. Королёва, Tycoon), 4xMVO, Original, Sub (rus, eng) Galfimbul 19225415711.79 GB 0 0 1492600168

14:09

19-Апр-17

Еще никто не оставлял запись к записи скачать торрент [MULT] Луни Тюнз: Снова в деле Looney Tunes: Back in Action . Будь первым!

!Обратная связь