Show Highlight Million Dollar Listing New York Ryan Serhant's Team Gives Him the Ultimate Surprise S7/Ep4: Ryan can't go to China, so his team brought China to him! Watch Video 2 weeks ago | Download APK | Bye Bye Jaqueline Comédia / Nacional / Romance Idioma: Português 2018 MKV Torrent DownloadVídeo 10 / Áudio 10Completo e grátisSinopse: Jaqueline (Poliana Oliveira), uma jovem humilde de 16 anos, é bolsista em um colégio particular e passa seus dias dividida entre os estudos e os...

Скачать через торрент [MULT] Луни Тюнз: Снова в деле Looney Tunes: Back in Action бесплатно русская версия torrent активатор

Статистика раздачи
Размер:  1.79 GB   |    Зарегистрирован:  1 год 3 месяца   |    .torrent скачан:  27 раз   |   
Раздают:  1  
   
загрузка...
 
Автор Сообщение

Galfimbul

avatar Galfimbul


Луни Тюнз: Снова в деле / Looney Tunes: Back in Action

Год выпуска: 2003
Страна: Германия, США
Жанр: мультфильм, комедия, приключения, семейный
Продолжительность: 01:31:39
Перевод №1: Русский Профессиональный (полное дублирование) R5
Перевод №2: Русский Профессиональный (двухголосый, закадровый) П. Гланц, и И. Королёва
Перевод №3: Русский Профессиональный (двухголосый, закадровый) Tycoon
Перевод №4: Русский Профессиональный (многоголосый, закадровый) #1
Перевод №5: Русский Профессиональный (многоголосый, закадровый) #2
Перевод №6: Украинский Профессиональный (многоголосый, закадровый) Интер
Перевод №7: Украинский Профессиональный (многоголосый, закадровый) ICTV
Оригинальная дорожка: Есть
Cубтитры: русские (Forced, Full #1, Full #2), английские (Full)
Режиссер: Джо Данте / Joe Dante
В ролях: Брендан Фрейзер, Дженна Элфмэн, Стив Мартин, Тимоти Далтон, Рон Перлман, Мэттью Лиллард, Хэзер Локлир, Джоан Кьюсак, Билл Голдберг, Дон Стэнтон, Дэн Стэнтон, Дик Миллер и другие .
Описание: Анимационные герои: Багс Банни и Даффи Дак — в реальной жизни! Поиски пропавшего человека и огромного мифического алмаза приводят Багса и Даффи сначала в Лас-Вегас, а затем в непроходимые джунгли Африки…
Релиз группы
Качество: BDRip / рип с Blu-ray Disc 1080p
Формат: MP4
Видео кодек: H.264
Аудио кодек: AAC
Видео: 960х398 AR:2.40 1740 kbps 23.976 fps
Аудио №1: [Russian] 2ch 48 kHz 128 kbps - Профессиональный (полное дублирование) R5
Аудио №2: [Russian] 2ch 48 kHz 128 kbps - Профессиональный (двухголосый, закадровый) П. Гланц, и И. Королёва
Аудио №3: [Russian] 2ch 48 kHz 128 kbps - Профессиональный (двухголосый, закадровый) Tycoon
Аудио №4: [Russian] 2ch 48 kHz 128 kbps - Профессиональный (многоголосый, закадровый) #1
Аудио №5: [Russian] 2ch 48 kHz 128 kbps - Профессиональный (многоголосый, закадровый) #2
Аудио №6: [Ukrainian] 2ch 48 kHz 128 kbps - Профессиональный (многоголосый, закадровый) Интер
Аудио №7: [Ukrainian] 2ch 48 kHz 128 kbps - Профессиональный (многоголосый, закадровый) ICTV
Аудио №8: [English] 2ch 48 kHz 128 kbps - Оригинал
avs [info]: 960x398p 1:1 @ 2997/125 fps (cfr)
x264 [info]: using SAR=1/1
x264 [info]: using cpu capabilities: MMX2 SSE2Fast SSSE3 SSE4.2 AVX FMA3 AVX2 LZCNT BMI2
x264 [info]: profile High, level 4.1

x264 [info]: frame I:1266 Avg QP:18.78 size: 58357
x264 [info]: frame P:34464 Avg QP:22.16 size: 16712
x264 [info]: frame B:96103 Avg QP:24.08 size: 5680
x264 [info]: consecutive B-frames: 4.2% 5.4% 13.2% 32.0% 17.5% 19.7% 3.8% 2.4% 0.9% 0.9%
x264 [info]: mb I I16..4: 3.6% 66.8% 29.5%
x264 [info]: mb P I16..4: 0.8% 7.9% 2.9% P16..4: 32.7% 34.3% 11.3% 0.0% 0.0% skip:10.1%
x264 [info]: mb B I16..4: 0.1% 1.0% 0.4% B16..8: 32.6% 17.5% 3.6% direct: 4.2% skip:40.5% L0:42.6% L1:43.9% BI:13.4%
x264 [info]: 8x8 transform intra:67.4% inter:57.1%
x264 [info]: direct mvs spatial:96.7% temporal:3.3%
x264 [info]: coded y,uvDC,uvAC intra: 87.0% 79.0% 53.8% inter: 22.5% 14.7% 5.6%
x264 [info]: i16 v,h,dc,p: 29% 19% 5% 47%
x264 [info]: i8 v,h,dc,ddl,ddr,vr,hd,vl,hu: 9% 8% 6% 10% 14% 14% 14% 12% 13%
x264 [info]: i4 v,h,dc,ddl,ddr,vr,hd,vl,hu: 12% 10% 8% 8% 14% 13% 13% 10% 12%
x264 [info]: i8c dc,h,v,p: 35% 28% 20% 17%
x264 [info]: Weighted P-Frames: Y:9.1% UV:5.8%
x264 [info]: ref P L0: 51.6% 12.9% 15.9% 5.8% 4.7% 3.6% 3.2% 2.0% 0.3% 0.0%
x264 [info]: ref B L0: 75.8% 11.0% 5.9% 2.9% 2.3% 1.5% 0.6%
x264 [info]: ref B L1: 94.6% 5.4%
x264 [info]: kb/s:1739.69

encoded 131833 frames, 16.58 fps, 1739.69 kb/s
GeneralComplete name : D:\Torrents\Looney Tunes Back in Action.2003.BDRip.x264.960x.rip by Frost O.S.mp4Format : MPEG-4Format profile : Base MediaCodec ID : isom (isom/avc1/iso2)File size : 1.79 GiBDuration : 1 h 31 minOverall bit rate mode : VariableOverall bit rate : 2 797 kb/sMovie name : Looney Tunes Back in Action 2003 BDRip x264 960x rip by Frost O SDirector : Джо Данте / Joe DanteActor : Брендан Фрейзер / Дженна Элфмэн / Стив Мартин / Тимоти Далтон / Рон Перлман / Мэттью Лиллард / Хэзер Локлир / Джоан Кьюсак / Билл Голдберг / Дон Стэнтон / Дэн Стэнтон / Дик МиллерGenre : AnimationContentType : Short FilmEncoded date : UTC 2017-04-19 10:47:57Tagged date : UTC 2017-04-19 10:52:57Writing application : MkvToMp4 version: 0.224 (x64)Cover : YesComment : rip by Frost O.SLongDescription : Анимационные герои: Багс Банни и Даффи Дак — в реальной жизни! Поиски пропавшего человека и огромного мифического алмаза приводят Багса и Даффи сначала в Лас-Вегас, а затем в непроходимые джунгли Африки…

VideoID : 1Format : AVCFormat/Info : Advanced Video CodecFormat profile : [email protected] settings, CABAC : YesFormat settings, ReFrames : 8 framesCodec ID : avc1Codec ID/Info : Advanced Video CodingDuration : 1 h 31 minBit rate : 1 740 kb/sMaximum bit rate : 6 522 kb/sWidth : 960 pixelsHeight : 398 pixelsDisplay aspect ratio : 2.40:1Frame rate mode : ConstantFrame rate : 23.976 (24000/1001) FPSOriginal frame rate : 23.976 (23976/1000) FPSColor space : YUVChroma subsampling : 4:2:0Bit depth : 8 bitsScan type : ProgressiveBits/(Pixel*Frame) : 0.190Stream size : 1.11 GiB (62%)Writing library : x264 core 148 r2744 b97ae06Encoding settings : cabac=1 / ref=8 / deblock=1:-1:0 / analyse=0x3:0x113 / me=umh / subme=11 / psy=1 / psy_rd=1.00:0.00 / mixed_ref=1 / me_range=32 / chroma_me=1 / trellis=2 / 8x8dct=1 / cqm=0 / deadzone=21,11 / fast_pskip=0 / chroma_qp_offset=-2 / threads=6 / lookahead_threads=1 / sliced_threads=0 / nr=0 / decimate=0 / interlaced=0 / bluray_compat=0 / constrained_intra=0 / bframes=9 / b_pyramid=2 / b_adapt=2 / b_bias=0 / direct=3 / weightb=1 / open_gop=0 / weightp=2 / keyint=250 / keyint_min=23 / scenecut=40 / intra_refresh=0 / rc=2pass / mbtree=0 / bitrate=1740 / ratetol=1.0 / qcomp=0.70 / qpmin=0 / qpmax=69 / qpstep=4 / cplxblur=20.0 / qblur=0.5 / ip_ratio=1.40 / pb_ratio=1.30 / aq=2:0.90Language : EnglishEncoded date : UTC 2017-04-19 10:47:57Tagged date : UTC 2017-04-19 10:49:50Color range : LimitedColor primaries : BT.709Transfer characteristics : BT.709Matrix coefficients : BT.709

Audio #1ID : 2Format : AACFormat/Info : Advanced Audio CodecFormat profile : LCCodec ID : 40Duration : 1 h 31 minBit rate mode : VariableBit rate : 128 kb/sMaximum bit rate : 135 kb/sChannel(s) : 2 channelsChannel positions : Front: L RSampling rate : 48.0 kHzFrame rate : 46.875 FPS (1024 spf)Compression mode : LossyStream size : 83.9 MiB (5%)Title : Dub_ R5 / Dub_ R5Language : RussianDefault : YesAlternate group : 1Encoded date : UTC 2017-04-19 10:48:43Tagged date : UTC 2017-04-19 10:49:50

Audio #2ID : 3Format : AACFormat/Info : Advanced Audio CodecFormat profile : LCCodec ID : 40Duration : 1 h 31 minBit rate mode : VariableBit rate : 128 kb/sMaximum bit rate : 135 kb/sChannel(s) : 2 channelsChannel positions : Front: L RSampling rate : 48.0 kHzFrame rate : 46.875 FPS (1024 spf)Compression mode : LossyStream size : 83.9 MiB (5%)Title : DVO_ Glanz _ Koroleva / DVO_ Glanz _ KorolevaLanguage : RussianDefault : NoAlternate group : 1Encoded date : UTC 2017-04-19 10:48:59Tagged date : UTC 2017-04-19 10:49:50

Audio #3ID : 4Format : AACFormat/Info : Advanced Audio CodecFormat profile : LCCodec ID : 40Duration : 1 h 31 minBit rate mode : VariableBit rate : 128 kb/sMaximum bit rate : 132 kb/sChannel(s) : 2 channelsChannel positions : Front: L RSampling rate : 48.0 kHzFrame rate : 46.875 FPS (1024 spf)Compression mode : LossyStream size : 83.9 MiB (5%)Title : DVO_ Tycoon / DVO_ TycoonLanguage : RussianDefault : NoAlternate group : 1Encoded date : UTC 2017-04-19 10:49:08Tagged date : UTC 2017-04-19 10:49:50

Audio #4ID : 5Format : AACFormat/Info : Advanced Audio CodecFormat profile : LCCodec ID : 40Duration : 1 h 31 minBit rate mode : VariableBit rate : 128 kb/sMaximum bit rate : 135 kb/sChannel(s) : 2 channelsChannel positions : Front: L RSampling rate : 48.0 kHzFrame rate : 46.875 FPS (1024 spf)Compression mode : LossyStream size : 83.9 MiB (5%)Title : MVO _1 / MVO _1Language : RussianDefault : NoAlternate group : 1Encoded date : UTC 2017-04-19 10:49:16Tagged date : UTC 2017-04-19 10:49:50

Audio #5ID : 6Format : AACFormat/Info : Advanced Audio CodecFormat profile : LCCodec ID : 40Duration : 1 h 31 minBit rate mode : VariableBit rate : 128 kb/sMaximum bit rate : 134 kb/sChannel(s) : 2 channelsChannel positions : Front: L RSampling rate : 48.0 kHzFrame rate : 46.875 FPS (1024 spf)Compression mode : LossyStream size : 83.9 MiB (5%)Title : MVO _2 / MVO _2Language : RussianDefault : NoAlternate group : 1Encoded date : UTC 2017-04-19 10:49:23Tagged date : UTC 2017-04-19 10:49:50

Audio #6ID : 7Format : AACFormat/Info : Advanced Audio CodecFormat profile : LCCodec ID : 40Duration : 1 h 31 minBit rate mode : VariableBit rate : 128 kb/sMaximum bit rate : 132 kb/sChannel(s) : 2 channelsChannel positions : Front: L RSampling rate : 48.0 kHzFrame rate : 46.875 FPS (1024 spf)Compression mode : LossyStream size : 83.9 MiB (5%)Title : MVO_ Inter / MVO_ InterLanguage : UkrainianDefault : NoAlternate group : 1Encoded date : UTC 2017-04-19 10:49:30Tagged date : UTC 2017-04-19 10:49:50

Audio #7ID : 8Format : AACFormat/Info : Advanced Audio CodecFormat profile : LCCodec ID : 40Duration : 1 h 31 minBit rate mode : VariableBit rate : 128 kb/sMaximum bit rate : 133 kb/sChannel(s) : 2 channelsChannel positions : Front: L RSampling rate : 48.0 kHzFrame rate : 46.875 FPS (1024 spf)Compression mode : LossyStream size : 83.9 MiB (5%)Title : MVO_ ICTV / MVO_ ICTVLanguage : UkrainianDefault : NoAlternate group : 1Encoded date : UTC 2017-04-19 10:49:39Tagged date : UTC 2017-04-19 10:49:50

Audio #8ID : 9Format : AACFormat/Info : Advanced Audio CodecFormat profile : LCCodec ID : 40Duration : 1 h 31 minBit rate mode : VariableBit rate : 128 kb/sMaximum bit rate : 135 kb/sChannel(s) : 2 channelsChannel positions : Front: L RSampling rate : 48.0 kHzFrame rate : 46.875 FPS (1024 spf)Compression mode : LossyStream size : 83.9 MiB (5%)Title : Original / OriginalLanguage : EnglishDefault : NoAlternate group : 1Encoded date : UTC 2017-04-19 10:49:45Tagged date : UTC 2017-04-19 10:49:50

Text #1ID : 10Format : Timed TextMuxing mode : sbtlCodec ID : tx3gDuration : 1 h 20 minBit rate mode : VariableBit rate : 3 b/sStream size : 1.82 KiB (0%)Title : forced / forcedLanguage : RussianDefault : YesForced : NoAlternate group : 2Encoded date : UTC 2017-04-19 10:49:50Tagged date : UTC 2017-04-19 10:49:50

Text #2ID : 11Format : Timed TextMuxing mode : sbtlCodec ID : tx3gDuration : 1 h 24 minBit rate mode : VariableBit rate : 107 b/sStream size : 66.3 KiB (0%)Title : full _1 / full _1Language : RussianDefault : NoForced : NoAlternate group : 2Encoded date : UTC 2017-04-19 10:49:50Tagged date : UTC 2017-04-19 10:49:50

Text #3ID : 12Format : Timed TextMuxing mode : sbtlCodec ID : tx3gDuration : 1 h 24 minBit rate mode : VariableBit rate : 112 b/sStream size : 69.0 KiB (0%)Title : full _2 / full _2Language : RussianDefault : NoForced : NoAlternate group : 2Encoded date : UTC 2017-04-19 10:49:50Tagged date : UTC 2017-04-19 10:49:50

Text #4ID : 13Format : Timed TextMuxing mode : sbtlCodec ID : tx3gDuration : 1 h 24 minBit rate mode : VariableBit rate : 67 b/sStream size : 41.4 KiB (0%)Title : full / fullLanguage : EnglishDefault : NoForced : NoAlternate group : 2Encoded date : UTC 2017-04-19 10:49:50Tagged date : UTC 2017-04-19 10:49:50


Трекер:  [ 19-Апр-2017 13:00 ]

  

Скачать .torrent

Размер .torrent файла 18 KB


Размер: 1.79 GB
Хэш (hash) релиза: 41e43d8db1012f5e3e6aa410a70611d0629ebeb9

Торренты, похожие на [MULT] Луни Тюнз: Снова в деле Looney Tunes: Back in Action скачать торрент

Форум Название Автор Размер S L Добавлен
Видео (Фильмы/Клипы) ·· [MULT] Луни Тюнз: Снова в деле / Looney Tunes: Back in Action (Джо Данте / Joe Dante) [2003, мультфильм, комедия, приключения, семейный, HDRip] [MP4, 480x] Dub R5 Galfimbul 436828788417 MB 0 0 1492632446

23:07

19-Апр-17

Еще никто не оставлял запись к записи скачать торрент [MULT] Луни Тюнз: Снова в деле Looney Tunes: Back in Action . Будь первым!

!Обратная связь