Big Brother (US) | Giochiamo ancora | Doris, Redescobrindo o Amor Assistir Doris, Redescobrindo o Amor 720p Dublado/Legendado Online Doris (Sally Field) já passou dos 60 anos de idade, mas ainda leva uma vida entediante no escritório onde trabalha. Ela desenvolve uma verdadeira obsessão por um colega mais jovem (Max Greenfield). Após participar de um seminário de autoajuda, Doris está determinada a tentar um romance com seu pretendente. Ver filme Doris, Redescobrindo o ...

Скачать через торрент [MULT] Зверопой Sing бесплатно русская версия torrent активатор

Статистика раздачи
Размер:  1.51 GB   |    Зарегистрирован:  1 год 3 месяца   |    .torrent скачан:  38 раз   |   
Раздают:  1  
   
загрузка...
 
Автор Сообщение

Galfimbul

avatar Galfimbul


Зверопой / Sing
«Auditions begin 2016»

Год выпуска: 2016
Страна: США / Universal Pictures, Illumination Entertainment
Жанр: мультфильм, комедия, семейный, музыка
Продолжительность: 01:47:54
Перевод: Русский Профессиональный (полное дублирование) (R5)
Оригинальная дорожка: Есть
Cубтитры: русские (Full), английские (Full, SDH)
Режиссеры: Кристоф Лурделе / Christophe Lourdelet, Гарт Дженнингс / Garth Jennings
В ролях: Мэттью МакКонахи (Buster Moon), Риз Уизерспун (Rosita), Сет МакФарлейн (Mike), Скарлетт Йоханссон (Ash), Джон Си Райли (Eddie), Тэрон Эджертон (Johnny), Тори Келли (Meena), Дженнифер Сондерс (Nana), Дженнифер Хадсон (Young Nana), Гарт Дженнингс (Miss Crawly) и другие .
Описание: В мире, который населяют звери, коала по имени Бастер Мун изо всех сил пытается предотвратить закрытие своего театра. В итоге Бастер и его друг, баран Эдди, устраивают конкурс певцов, предлагая принять участие каждому жителю города.
Релиз группы
Качество: BDRip / рип с Blu-ray disc 1080p
Формат: MP4
Видео кодек: H.264
Аудио кодек: AAC
Видео: 960х518 AR:1.85 1740 kbps 23.976 fps
Аудио №1: [Russian] 2ch 48 kHz 128 kbps - Профессиональный (полное дублирование) (R5)
Аудио №2: [English] 2ch 48 kHz 128 kbps - Оригинал
avs [info]: 960x518p 1:1 @ 2997/125 fps (cfr)
x264 [info]: using SAR=1/1
x264 [info]: using cpu capabilities: MMX2 SSE2Fast SSSE3 SSE4.2 AVX FMA3 AVX2 LZCNT BMI2
x264 [info]: profile High, level 4.1

x264 [info]: frame I:1339 Avg QP:17.15 size: 70586
x264 [info]: frame P:38013 Avg QP:21.40 size: 18227
x264 [info]: frame B:115861 Avg QP:23.19 size: 5357
x264 [info]: consecutive B-frames: 3.5% 4.4% 11.3% 25.1% 17.3% 30.5% 3.9% 2.1% 2.0%
x264 [info]: mb I I16..4: 5.5% 71.5% 23.0%
x264 [info]: mb P I16..4: 1.5% 9.7% 2.0% P16..4: 35.2% 35.8% 10.0% 0.0% 0.0% skip: 5.9%
x264 [info]: mb B I16..4: 0.1% 1.3% 0.2% B16..8: 31.8% 15.4% 2.4% direct: 3.0% skip:45.8% L0:42.8% L1:43.9% BI:13.3%
x264 [info]: 8x8 transform intra:74.5% inter:66.3%
x264 [info]: direct mvs spatial:95.2% temporal:4.8%
x264 [info]: coded y,uvDC,uvAC intra: 84.1% 83.9% 56.3% inter: 15.6% 15.8% 6.8%
x264 [info]: i16 v,h,dc,p: 10% 13% 2% 75%
x264 [info]: i8 v,h,dc,ddl,ddr,vr,hd,vl,hu: 11% 9% 3% 10% 14% 13% 15% 11% 14%
x264 [info]: i4 v,h,dc,ddl,ddr,vr,hd,vl,hu: 14% 11% 3% 8% 15% 13% 14% 10% 12%
x264 [info]: i8c dc,h,v,p: 30% 27% 21% 22%
x264 [info]: Weighted P-Frames: Y:10.7% UV:7.2%
x264 [info]: ref P L0: 50.8% 11.0% 16.5% 6.3% 5.0% 4.0% 3.6% 2.4% 0.3% 0.0%
x264 [info]: ref B L0: 74.7% 10.6% 6.8% 3.1% 2.5% 1.6% 0.6%
x264 [info]: ref B L1: 94.4% 5.6%
x264 [info]: kb/s:1739.97

encoded 155213 frames, 13.27 fps, 1739.97 kb/s
GeneralComplete name : D:\Torrents\Sing.2016.BDRip.x264.960x.rip by Frost O.S.mp4Format : MPEG-4Format profile : Base MediaCodec ID : isom (isom/avc1/iso2)File size : 1.51 GiBDuration : 1 h 47 minOverall bit rate mode : VariableOverall bit rate : 2 008 kb/sMovie name : Sing 2016 BDRip x264 960x rip by Frost O SDirector : Кристоф Лурделе / Christophe Lourdelet / Гарт Дженнингс / Garth JenningsActor : Мэттью МакКонахи (Buster Moon) / Риз Уизерспун (Rosita) / Сет МакФарлейн (Mike) / Скарлетт Йоханссон (Ash) / Джон Си Райли (Eddie) / Тэрон Эджертон (Johnny) / Тори Келли (Meena) / Дженнифер Сондерс (Nana) / Дженнифер Хадсон (Young Nana) / Гарт Дженнингс (Miss Crawly)Genre : AnimationContentType : Short FilmEncoded date : UTC 2017-04-18 10:06:21Tagged date : UTC 2017-04-18 10:10:26Writing application : MkvToMp4 version: 0.224 (x64)Cover : YesComment : rip by Frost O.SLongDescription : В мире, который населяют звери, коала по имени Бастер Мун изо всех сил пытается предотвратить закрытие своего театра. В итоге Бастер и его друг, баран Эдди, устраивают конкурс певцов, предлагая принять участие каждому жителю города.

VideoID : 1Format : AVCFormat/Info : Advanced Video CodecFormat profile : [email protected] settings, CABAC : YesFormat settings, ReFrames : 8 framesCodec ID : avc1Codec ID/Info : Advanced Video CodingDuration : 1 h 47 minBit rate : 1 740 kb/sMaximum bit rate : 8 784 kb/sWidth : 960 pixelsHeight : 518 pixelsDisplay aspect ratio : 1.85:1Frame rate mode : ConstantFrame rate : 23.976 (24000/1001) FPSOriginal frame rate : 23.976 (23976/1000) FPSColor space : YUVChroma subsampling : 4:2:0Bit depth : 8 bitsScan type : ProgressiveBits/(Pixel*Frame) : 0.146Stream size : 1.31 GiB (87%)Writing library : x264 core 148 r2744 b97ae06Encoding settings : cabac=1 / ref=8 / deblock=1:-2:-2 / analyse=0x3:0x113 / me=umh / subme=11 / psy=1 / psy_rd=0.80:0.00 / mixed_ref=1 / me_range=32 / chroma_me=1 / trellis=2 / 8x8dct=1 / cqm=0 / deadzone=21,11 / fast_pskip=0 / chroma_qp_offset=-2 / threads=6 / lookahead_threads=1 / sliced_threads=0 / nr=0 / decimate=0 / interlaced=0 / bluray_compat=0 / constrained_intra=0 / bframes=8 / b_pyramid=2 / b_adapt=2 / b_bias=0 / direct=3 / weightb=1 / open_gop=0 / weightp=2 / keyint=250 / keyint_min=23 / scenecut=40 / intra_refresh=0 / rc=2pass / mbtree=0 / bitrate=1740 / ratetol=1.0 / qcomp=0.70 / qpmin=0 / qpmax=69 / qpstep=4 / cplxblur=20.0 / qblur=0.5 / ip_ratio=1.40 / pb_ratio=1.30 / aq=2:0.80Language : EnglishEncoded date : UTC 2017-04-18 10:06:21Tagged date : UTC 2017-04-18 10:07:48Color range : LimitedColor primaries : BT.709Transfer characteristics : BT.709Matrix coefficients : BT.709

Audio #1ID : 2Format : AACFormat/Info : Advanced Audio CodecFormat profile : LCCodec ID : 40Duration : 1 h 47 minBit rate mode : VariableBit rate : 128 kb/sMaximum bit rate : 135 kb/sChannel(s) : 2 channelsChannel positions : Front: L RSampling rate : 48.0 kHzFrame rate : 46.875 FPS (1024 spf)Compression mode : LossyStream size : 98.8 MiB (6%)Title : Dub_ _R5_ / Dub_ _R5_Language : RussianDefault : YesAlternate group : 1Encoded date : UTC 2017-04-18 10:07:34Tagged date : UTC 2017-04-18 10:07:48

Audio #2ID : 3Format : AACFormat/Info : Advanced Audio CodecFormat profile : LCCodec ID : 40Duration : 1 h 47 minBit rate mode : VariableBit rate : 128 kb/sMaximum bit rate : 135 kb/sChannel(s) : 2 channelsChannel positions : Front: L RSampling rate : 48.0 kHzFrame rate : 46.875 FPS (1024 spf)Compression mode : LossyStream size : 98.8 MiB (6%)Title : Original / OriginalLanguage : EnglishDefault : NoAlternate group : 1Encoded date : UTC 2017-04-18 10:07:42Tagged date : UTC 2017-04-18 10:07:48

Text #1ID : 4Format : Timed TextMuxing mode : sbtlCodec ID : tx3gDuration : 1 h 40 minBit rate mode : VariableBit rate : 96 b/sStream size : 70.6 KiB (0%)Title : Full / FullLanguage : RussianDefault : YesForced : NoAlternate group : 2Encoded date : UTC 2017-04-18 10:07:48Tagged date : UTC 2017-04-18 10:07:48

Text #2ID : 5Format : Timed TextMuxing mode : sbtlCodec ID : tx3gDuration : 1 h 40 minBit rate mode : VariableBit rate : 63 b/sStream size : 46.1 KiB (0%)Title : Full / FullLanguage : EnglishDefault : NoForced : NoAlternate group : 2Encoded date : UTC 2017-04-18 10:07:48Tagged date : UTC 2017-04-18 10:07:48

Text #3ID : 6Format : Timed TextMuxing mode : sbtlCodec ID : tx3gDuration : 1 h 40 minBit rate mode : VariableBit rate : 80 b/sStream size : 58.8 KiB (0%)Title : SDH / SDHLanguage : EnglishDefault : NoForced : NoAlternate group : 2Encoded date : UTC 2017-04-18 10:07:48Tagged date : UTC 2017-04-18 10:07:48


Трекер:  [ 18-Апр-2017 13:00 ]

  

Скачать .torrent

Размер .torrent файла 15 KB


Размер: 1.51 GB
Хэш (hash) релиза: 19a26345ac478660e8f280b3b7e0cd57c1670bbb

Еще никто не оставлял запись к записи скачать торрент [MULT] Зверопой Sing . Будь первым!

!Обратная связь