Vikings Season 4 EP1 -EP10 720p | Télécharger Part 28 | I'm Ping Pong King :)

Скачать через торрент [MULT] Зверопой Sing бесплатно русская версия torrent активатор

Статистика раздачи
Размер:  482 MB   |    Зарегистрирован:  1 год 3 месяца   |    .torrent скачан:  21 раз   |   
Раздают:  1  
   
загрузка...
 
Автор Сообщение

Galfimbul

avatar Galfimbul


Зверопой / Sing
«Auditions begin 2016»

Год выпуска: 2016
Страна: США / Universal Pictures, Illumination Entertainment
Жанр: мультфильм, комедия, семейный, музыка
Продолжительность: 01:47:54
Перевод: Русский Профессиональный (полное дублирование) (R5)
Cубтитры: нет
Режиссеры: Кристоф Лурделе / Christophe Lourdelet, Гарт Дженнингс / Garth Jennings
В ролях: Мэттью МакКонахи (Buster Moon), Риз Уизерспун (Rosita), Сет МакФарлейн (Mike), Скарлетт Йоханссон (Ash), Джон Си Райли (Eddie), Тэрон Эджертон (Johnny), Тори Келли (Meena), Дженнифер Сондерс (Nana), Дженнифер Хадсон (Young Nana), Гарт Дженнингс (Miss Crawly) и другие .
Описание: В мире, который населяют звери, коала по имени Бастер Мун изо всех сил пытается предотвратить закрытие своего театра. В итоге Бастер и его друг, баран Эдди, устраивают конкурс певцов, предлагая принять участие каждому жителю города.
Релиз группы
Качество: HDRip / рип с BDRip 1080p
Формат: MP4
Видео кодек: XviD
Аудио кодек: AAC
Видео: 480х256 AR:1.88 489 kbps 23.976 fps
Аудио: [Russian] 2ch 48 kHz 128 kbps - Профессиональный (полное дублирование) (R5)
GeneralComplete name : D:\Torrents\Sing.2016.HDRip.XviD.480x.rip by Frost O.S.mp4Format : MPEG-4Format profile : Base MediaCodec ID : isom (isom/iso2)File size : 482 MiBDuration : 1 h 47 minOverall bit rate mode : VariableOverall bit rate : 625 kb/sMovie name : Sing 2016 HDRip XviD 480x rip by Frost O SDirector : Кристоф Лурделе / Christophe Lourdelet / Гарт Дженнингс / Garth JenningsActor : Мэттью МакКонахи (Buster Moon) / Риз Уизерспун (Rosita) / Сет МакФарлейн (Mike) / Скарлетт Йоханссон (Ash) / Джон Си Райли (Eddie) / Тэрон Эджертон (Johnny) / Тори Келли (Meena) / Дженнифер Сондерс (Nana) / Дженнифер Хадсон (Young Nana) / Гарт Дженнингс (Miss Crawly)Genre : AnimationContentType : Short FilmEncoded date : UTC 2017-04-18 10:17:24Tagged date : UTC 2017-04-18 10:19:00Writing application : MkvToMp4 version: 0.224 (x64)Cover : YesComment : rip by Frost O.SLongDescription : В мире, который населяют звери, коала по имени Бастер Мун изо всех сил пытается предотвратить закрытие своего театра. В итоге Бастер и его друг, баран Эдди, устраивают конкурс певцов, предлагая принять участие каждому жителю города.

VideoID : 1Format : MPEG-4 VisualFormat profile : Advanced [email protected] settings, BVOP : YesFormat settings, QPel : NoFormat settings, GMC : No warppointsFormat settings, Matrix : CustomCodec ID : 20Duration : 1 h 47 minBit rate mode : VariableBit rate : 489 kb/sMaximum bit rate : 193 Mb/sWidth : 480 pixelsHeight : 256 pixelsDisplay aspect ratio : 1.85:1Frame rate mode : VariableFrame rate : 23.976 (23976/1000) FPSMinimum frame rate : 11.988 FPSMaximum frame rate : 23.976 FPSColor space : YUVChroma subsampling : 4:2:0Bit depth : 8 bitsScan type : ProgressiveCompression mode : LossyBits/(Pixel*Frame) : 0.166Stream size : 378 MiB (78%)Title : avi_GPAC0.5.2_DEV_rev248_g39d5978_masterWriting library : XviD 1.2.1 (UTC 2008-12-04)Language : EnglishTagged date : UTC 2017-04-18 10:18:05

AudioID : 2Format : AACFormat/Info : Advanced Audio CodecFormat profile : LCCodec ID : 40Duration : 1 h 47 minBit rate mode : VariableBit rate : 128 kb/sMaximum bit rate : 135 kb/sChannel(s) : 2 channelsChannel positions : Front: L RSampling rate : 48.0 kHzFrame rate : 46.875 FPS (1024 spf)Compression mode : LossyStream size : 98.8 MiB (20%)Title : Dub_ _R5_ / Dub_ _R5_Language : RussianDefault : YesAlternate group : 1Encoded date : UTC 2017-04-18 10:18:03Tagged date : UTC 2017-04-18 10:18:05


Трекер:  [ 18-Апр-2017 13:00 ]

  

Скачать .torrent

Размер .torrent файла 19 KB


Размер: 482 MB
Хэш (hash) релиза: ee4254ea817824a1f747ebfeae8adaab268898b2

Еще никто не оставлял запись к записи скачать торрент [MULT] Зверопой Sing . Будь первым!

!Обратная связь