Los camioneros | July 2016 (3902) | Calendar Girl. Ottobre - Novembre - Dicembre

Скачать через торрент [VIDEO] Монстр-траки Monster Trucks бесплатно русская версия torrent активатор

Статистика раздачи
Размер:  2.33 GB   |    Зарегистрирован:  1 год 3 месяца   |    .torrent скачан:  23 раза   |   
Раздают:  1  
   
загрузка...
 
Автор Сообщение

Galfimbul

avatar Galfimbul


Монстр-траки / Monster Trucks
«Знакомьтесь с Кричем»
Премьера: 2016
Оригинальное название: Monster Trucks
Страна: США, Канада
Жанр: фантастика, боевик, комедия, семейный
Возраст: 6+

Режиссер: Крис Уэдж / Chris Wedge

В ролях: Лукас Тилл, Джейн Леви, Томас Леннон, Бэрри Пеппер, Роб Лоу, Дэнни Гловер, Эми Райан, Холт МакКэллани, Фрэнк Уэйли, Алийа О’Брайен

Описание: Старшеклассник Трипп мечтает сбежать из скучного городка, где родился и вырос, и увлеченно собирает монстр-трак из обломков старых авто. И когда происшествие на буровой вышке высвобождает из-под земли удивительное создание, знающее толк в скорости, у Триппа появляется реальный шанс не только наконец-то изменить жизнь, но и обрести настоящего друга… Если, конечно, никто не вмешается.

Продолжительность: 01:44:44
Перевод: Дублированный [Лицензия]
Оригинальная дорожка: есть

Автор рипа:

Качество видео: BDRip Исходник: Blu-Ray Remux (1080p) Формат: mp4
Видео кодек: MPEG-4 AVC Аудио кодек: AAC
Видео: 1280x534 (2.40:1) at 23.976 fps, AVC at 2 916 kbps avg, 0.178 bit/pixel
Аудио №1 Rus: 48.0 KHz, AAC, 2 ch, 128.0 Kbps
Аудио №2 Eng: 48.0 KHz, AAC, 2 ch, 128.0 Kbps
Субтитры: русские (форсированные, полные), английские (полные)
Навигация по главам: есть
Размер: 2.33 GiB
avs [info]: 1280x534p 1:1 @ 24000/1001 fps (cfr)
x264 [info]: using SAR=1/1
x264 [info]: using cpu capabilities: MMX2 SSE2Fast SSSE3 Cache64
x264 [info]: profile High, level 4.1
x264 [info]: frame I:1490 Avg QP:13.33 size:106545
x264 [info]: frame P:35989 Avg QP:16.79 size: 30731
x264 [info]: frame B:113193 Avg QP:19.41 size: 9065
x264 [info]: consecutive B-frames: 2.8% 4.2% 7.9% 32.4% 17.5% 28.5% 6.7%
x264 [info]: mb I I16..4: 4.4% 71.9% 23.7%
x264 [info]: mb P I16..4: 1.5% 12.1% 1.9% P16..4: 39.3% 25.5% 13.8% 0.0% 0.0% skip: 6.0%
x264 [info]: mb B I16..4: 0.1% 1.3% 0.3% B16..8: 41.8% 9.5% 2.1% direct: 5.1% skip:39.7% L0:41.5% L1:46.8% BI:11.7%
x264 [info]: 8x8 transform intra:77.1% inter:64.1%
x264 [info]: coded y,uvDC,uvAC intra: 79.3% 80.7% 53.6% inter: 21.3% 24.1% 5.6%
x264 [info]: i16 v,h,dc,p: 27% 23% 6% 44%
x264 [info]: i8 v,h,dc,ddl,ddr,vr,hd,vl,hu: 18% 20% 15% 5% 8% 8% 9% 7% 9%
x264 [info]: i4 v,h,dc,ddl,ddr,vr,hd,vl,hu: 23% 20% 12% 5% 10% 8% 9% 6% 6%
x264 [info]: i8c dc,h,v,p: 52% 22% 18% 8%
x264 [info]: Weighted P-Frames: Y:3.1% UV:1.7%
x264 [info]: ref P L0: 51.7% 11.5% 15.4% 6.8% 4.9% 4.0% 3.2% 2.4% 0.3% 0.0%
x264 [info]: ref B L0: 81.1% 9.2% 4.5% 2.1% 1.7% 0.9% 0.5%
x264 [info]: ref B L1: 93.7% 6.3%
x264 [info]: kb/s:2916.25
encoded 150672 frames, 2.45 fps, 2916.25 kb/s
GeneralComplete name : ...Monstr-traki_2016_KinoGadget.mp4Format : MPEG-4Format profile : Base MediaCodec ID : isom (isom)File size : 2.33 GiBDuration : 1 h 44 minOverall bit rate mode : VariableOverall bit rate : 3 184 kb/sMovie name : Монстр-траки | KinoGadgetPerformer : Крис УэджDirector : Крис УэджActor : Лукас Тилл / Джейн Леви / Томас Леннон / Бэрри Пеппер / Роб Лоу / Дэнни Гловер / Эми Райан / Холт МакКэллани / Фрэнк Уэйли / Алийа О’БрайенScreenplay by : Дерек Коннолли / Мэттью Робинсон / Джонатан АйбелProducer : Мэри Пэрент / Дэнис Л. Стюарт / Джонатан АйбелGenre : Action, Adventure, AnimationContentType : Short FilmRecorded date : 2016Encoded date : UTC 2017-04-17 10:37:58Tagged date : UTC 2017-04-17 11:47:22Cover : YesContentRating : mpaa|PG|200|LongDescription : Старшеклассник Трипп мечтает сбежать из скучного городка, где родился и вырос, и увлеченно собирает монстр-трак из обломков старых авто. И когда происшествие на буровой вышке высвобождает из-под земли удивительное создание, знающее толк в скорости, у Триппа появляется реальный шанс не только наконец-то изменить жизнь, но и обрести настоящего друга… Если, конечно, никто не вмешается.HDVideo : Yes

VideoID : 1Format : AVCFormat/Info : Advanced Video CodecFormat profile : [email protected] settings, CABAC : YesFormat settings, ReFrames : 8 framesCodec ID : avc1Codec ID/Info : Advanced Video CodingDuration : 1 h 44 minBit rate : 2 916 kb/sMaximum bit rate : 15.5 Mb/sWidth : 1 280 pixelsHeight : 534 pixelsDisplay aspect ratio : 2.40:1Frame rate mode : ConstantFrame rate : 23.976 (24000/1001) FPSColor space : YUVChroma subsampling : 4:2:0Bit depth : 8 bitsScan type : ProgressiveBits/(Pixel*Frame) : 0.178Stream size : 2.13 GiB (92%)Writing library : x264 core 148 r2638 7599210Encoding settings : cabac=1 / ref=8 / deblock=1:-2:-1 / analyse=0x3:0x113 / me=umh / subme=7 / psy=1 / psy_rd=1.00:0.00 / mixed_ref=1 / me_range=32 / chroma_me=1 / trellis=2 / 8x8dct=1 / cqm=0 / deadzone=21,11 / fast_pskip=0 / chroma_qp_offset=-2 / threads=3 / lookahead_threads=1 / sliced_threads=0 / nr=0 / decimate=1 / interlaced=0 / bluray_compat=0 / constrained_intra=0 / bframes=6 / b_pyramid=2 / b_adapt=2 / b_bias=0 / direct=1 / weightb=1 / open_gop=0 / weightp=2 / keyint=250 / keyint_min=25 / scenecut=40 / intra_refresh=0 / rc_lookahead=60 / rc=crf / mbtree=1 / crf=17.0 / qcomp=0.60 / qpmin=0 / qpmax=69 / qpstep=4 / vbv_maxrate=62500 / vbv_bufsize=78125 / crf_max=0.0 / nal_hrd=none / filler=0 / ip_ratio=1.40 / aq=1:1.00Encoded date : UTC 2017-04-17 09:10:35Tagged date : UTC 2017-04-17 10:38:45

Audio #1ID : 2Format : AACFormat/Info : Advanced Audio CodecFormat profile : LCCodec ID : 40Duration : 1 h 44 minBit rate mode : VariableBit rate : 128 kb/sMaximum bit rate : 135 kb/sChannel(s) : 2 channelsChannel positions : Front: L RSampling rate : 48.0 kHzFrame rate : 46.875 FPS (1024 spf)Compression mode : LossyStream size : 95.9 MiB (4%)Title : Dub [License]Language : RussianEncoded date : UTC 2017-04-17 10:23:13Tagged date : UTC 2017-04-17 10:38:45

Audio #2ID : 3Format : AACFormat/Info : Advanced Audio CodecFormat profile : LCCodec ID : 40Duration : 1 h 44 minBit rate mode : VariableBit rate : 128 kb/sMaximum bit rate : 135 kb/sChannel(s) : 2 channelsChannel positions : Front: L RSampling rate : 48.0 kHzFrame rate : 46.875 FPS (1024 spf)Compression mode : LossyStream size : 95.9 MiB (4%)Title : OriginalLanguage : EnglishEncoded date : UTC 2017-04-17 10:30:47Tagged date : UTC 2017-04-17 10:38:45

Text #1ID : 4Format : Timed TextCodec ID : tx3gDuration : 1 h 36 minBit rate mode : VariableBit rate : 0 b/sStream size : 154 Bytes (0%)Title : ForcedLanguage : RussianForced : NoEncoded date : UTC 2017-04-17 10:38:45Tagged date : UTC 2017-04-17 10:38:45

Text #2ID : 5Format : Timed TextCodec ID : tx3gDuration : 1 h 39 minBit rate mode : VariableBit rate : 61 b/sStream size : 44.5 KiB (0%)Title : FullLanguage : RussianForced : NoEncoded date : UTC 2017-04-17 10:38:45Tagged date : UTC 2017-04-17 10:38:45

Text #3ID : 6Format : Timed TextCodec ID : tx3gDuration : 1 h 36 minBit rate mode : VariableBit rate : 45 b/sStream size : 31.7 KiB (0%)Title : FullLanguage : EnglishForced : NoEncoded date : UTC 2017-04-17 10:38:45Tagged date : UTC 2017-04-17 10:38:45

Menu00:00:00.000 : 00:00:00.00000:06:09.369 : 00:06:09.36900:11:33.735 : 00:11:33.73500:18:58.971 : 00:18:58.97100:24:50.489 : 00:24:50.48900:34:57.137 : 00:34:57.13700:43:16.928 : 00:43:16.92800:47:54.872 : 00:47:54.87200:53:32.000 : 00:53:32.00000:58:24.668 : 00:58:24.66801:05:10.698 : 01:05:10.69801:13:26.652 : 01:13:26.65201:20:47.634 : 01:20:47.63401:26:58.505 : 01:26:58.50501:33:13.671 : 01:33:13.67101:38:44.669 : 01:38:44.669


Трекер:  [ 17-Апр-2017 14:30 ]

  

Скачать .torrent

Размер .torrent файла 12 KB


Размер: 2.33 GB
Хэш (hash) релиза: 44f53aba3cc53fb489690c2711aee3ebd6a32fc1

Еще никто не оставлял запись к записи скачать торрент [VIDEO] Монстр-траки Monster Trucks . Будь первым!

!Обратная связь