A 7.500 quilometres de distancia | Prospectus of FULL TAX CONSULTANCY WITH ADVANCED EXCEL TRAINING by tnmtraining | Chapter 108

Скачать через торрент [VIDEO] Призраки в Коннектикуте 2: Тени прошлого The Haunting in Connecticut 2: Ghosts of Georgia бесплатно русская версия torrent активатор

Статистика раздачи
Размер:  2.19 GB   |    Зарегистрирован:  1 год 3 месяца   |    .torrent скачан:  20 раз   |   
Раздают:  1  
   
загрузка...
 
Автор Сообщение

Galfimbul

avatar Galfimbul


Призраки в Коннектикуте 2: Тени прошлого / The Haunting in Connecticut 2: Ghosts of Georgia
Год выпуска: 2013
Оригинальное название: The Haunting in Connecticut 2: Ghosts of Georgia
Страна: США
Жанр: ужасы, триллер, драма, детектив
Возраст: 16+

Режиссер: Том Элкинс / Tom Elkins

В ролях: Чад Майкл Мюррэй, Кэти Сакхофф, Эбигейл Спенсер, Сисели Тайсон, Эмили Элин Линд, Андреа Франкл, Лорен Пеннингтон, Брэд Джеймс, Лэнс Э. Николс, Уэйн Пер

Описание: Девочка Хайди недавно переехала в Джорджию вместе со своими родителями. Однако жизнь на новом месте не задалась, так как ее начали терроризировать призраки. Вынужденные поверить в происходящее, родители пытаются выяснить причину паранормальных явлений.

Продолжительность: 01:40:58
Перевод: Дублированный [Лицензия]
Оригинальная дорожка: есть

Автор рипа:

Качество видео: BDRip Исходник: Blu-Ray Remux (1080p) Формат: mp4
Видео кодек: MPEG-4 AVC Аудио кодек: AAC
Видео: 1280x536 (2.40:1) at 23.976 fps, AVC at 2 839 kbps avg, 0.173 bit/pixel
Аудио №1 Rus: 48.0 KHz, AAC, 2 ch, 128.0 Kbps
Аудио №2 Eng: 48.0 KHz, AAC, 2 ch, 128.0 Kbps
Субтитры: русские (полные), английские (полные)
Навигация по главам: есть
Размер: 2.19 GiB
avs [info]: 1280x536p 1:1 @ 24000/1001 fps (cfr)
x264 [info]: using SAR=1/1
x264 [info]: using cpu capabilities: MMX2 SSE2Fast SSSE3 Cache64
x264 [info]: profile High, level 4.1
x264 [info]: frame I:1934 Avg QP:13.08 size:113080
x264 [info]: frame P:34230 Avg QP:16.21 size: 27774
x264 [info]: frame B:109095 Avg QP:19.15 size: 8992
x264 [info]: consecutive B-frames: 3.2% 3.6% 15.3% 21.8% 17.4% 24.8% 5.1% 3.3% 5.6%
x264 [info]: mb I I16..4: 8.5% 65.5% 26.0%
x264 [info]: mb P I16..4: 2.8% 11.1% 1.8% P16..4: 41.4% 20.3% 12.2% 0.0% 0.0% skip:10.4%
x264 [info]: mb B I16..4: 0.2% 1.4% 0.2% B16..8: 34.1% 6.0% 1.5% direct: 5.1% skip:51.5% L0:41.6% L1:47.3% BI:11.2%
x264 [info]: 8x8 transform intra:71.2% inter:65.0%
x264 [info]: coded y,uvDC,uvAC intra: 68.5% 75.2% 51.6% inter: 16.4% 18.9% 3.7%
x264 [info]: i16 v,h,dc,p: 49% 13% 7% 31%
x264 [info]: i8 v,h,dc,ddl,ddr,vr,hd,vl,hu: 20% 12% 25% 5% 8% 8% 7% 8% 7%
x264 [info]: i4 v,h,dc,ddl,ddr,vr,hd,vl,hu: 30% 14% 17% 6% 8% 8% 7% 6% 5%
x264 [info]: i8c dc,h,v,p: 54% 17% 20% 9%
x264 [info]: Weighted P-Frames: Y:11.5% UV:8.3%
x264 [info]: ref P L0: 56.5% 9.0% 14.7% 6.5% 4.3% 3.7% 2.7% 2.0% 0.5% 0.0%
x264 [info]: ref B L0: 79.7% 9.9% 5.0% 2.3% 1.7% 1.0% 0.5%
x264 [info]: ref B L1: 92.5% 7.5%
x264 [info]: kb/s:2839.54
encoded 145259 frames, 2.52 fps, 2839.54 kb/s
GeneralComplete name : ...Prizraki_v_konnektikute_2_teni_proshlogo_2013_KinoGadget.mp4Format : MPEG-4Format profile : Base MediaCodec ID : isom (isom)File size : 2.19 GiBDuration : 1 h 40 minOverall bit rate mode : VariableOverall bit rate : 3 107 kb/sMovie name : Призраки в Коннектикуте 2: Тени прошлого | KinoGadgetPerformer : Том ЭлкинсDirector : Том ЭлкинсActor : Чад Майкл Мюррэй / Кэти Сакхофф / Эбигейл Спенсер / Сисели Тайсон / Эмили Элин Линд / Андреа Франкл / Лорен Пеннингтон / Брэд Джеймс / Лэнс Э. Николс / Уэйн ПерScreenplay by : Дэвид Коггшолл / Сарай ГиватиProducer : Пол Брукс / Скотт Ниемейер / Леон КлэрансGenre : Drama, Horror, MysteryContentType : Short FilmRecorded date : 2013Encoded date : UTC 2017-04-16 12:59:29Tagged date : UTC 2017-04-16 13:26:52Cover : YesContentRating : mpaa|R|400|LongDescription : Девочка Хайди недавно переехала в Джорджию вместе со своими родителями. Однако жизнь на новом месте не задалась, так как ее начали терроризировать призраки. Вынужденные поверить в происходящее, родители пытаются выяснить причину паранормальных явлений.HDVideo : Yes

VideoID : 1Format : AVCFormat/Info : Advanced Video CodecFormat profile : [email protected] settings, CABAC : YesFormat settings, ReFrames : 8 framesCodec ID : avc1Codec ID/Info : Advanced Video CodingDuration : 1 h 40 minBit rate : 2 839 kb/sMaximum bit rate : 31.0 Mb/sWidth : 1 280 pixelsHeight : 536 pixelsDisplay aspect ratio : 2.40:1Frame rate mode : ConstantFrame rate : 23.976 (24000/1001) FPSColor space : YUVChroma subsampling : 4:2:0Bit depth : 8 bitsScan type : ProgressiveBits/(Pixel*Frame) : 0.173Stream size : 2.00 GiB (91%)Writing library : x264 core 148 r2638 7599210Encoding settings : cabac=1 / ref=8 / deblock=1:-2:-2 / analyse=0x3:0x113 / me=umh / subme=7 / psy=1 / psy_rd=1.00:0.00 / mixed_ref=1 / me_range=32 / chroma_me=1 / trellis=2 / 8x8dct=1 / cqm=0 / deadzone=21,11 / fast_pskip=0 / chroma_qp_offset=-2 / threads=3 / lookahead_threads=1 / sliced_threads=0 / nr=0 / decimate=1 / interlaced=0 / bluray_compat=0 / constrained_intra=0 / bframes=8 / b_pyramid=2 / b_adapt=2 / b_bias=0 / direct=1 / weightb=1 / open_gop=0 / weightp=2 / keyint=250 / keyint_min=25 / scenecut=40 / intra_refresh=0 / rc_lookahead=60 / rc=crf / mbtree=1 / crf=17.5 / qcomp=0.60 / qpmin=0 / qpmax=69 / qpstep=4 / vbv_maxrate=62500 / vbv_bufsize=78125 / crf_max=0.0 / nal_hrd=none / filler=0 / ip_ratio=1.40 / aq=1:1.00Encoded date : UTC 2017-04-16 10:51:35Tagged date : UTC 2017-04-16 13:00:26

Audio #1ID : 2Format : AACFormat/Info : Advanced Audio CodecFormat profile : LCCodec ID : 40Duration : 1 h 40 minBit rate mode : VariableBit rate : 128 kb/sMaximum bit rate : 135 kb/sChannel(s) : 2 channelsChannel positions : Front: L RSampling rate : 48.0 kHzFrame rate : 46.875 FPS (1024 spf)Compression mode : LossyStream size : 92.4 MiB (4%)Title : Dub [License]Language : RussianEncoded date : UTC 2017-04-16 10:55:34Tagged date : UTC 2017-04-16 13:00:26

Audio #2ID : 3Format : AACFormat/Info : Advanced Audio CodecFormat profile : LCCodec ID : 40Duration : 1 h 40 minBit rate mode : VariableBit rate : 128 kb/sMaximum bit rate : 135 kb/sChannel(s) : 2 channelsChannel positions : Front: L RSampling rate : 48.0 kHzFrame rate : 46.875 FPS (1024 spf)Compression mode : LossyStream size : 92.4 MiB (4%)Title : OriginalLanguage : EnglishEncoded date : UTC 2017-04-16 12:35:26Tagged date : UTC 2017-04-16 13:00:26

Text #1ID : 4Format : Timed TextCodec ID : tx3gDuration : 1 h 34 minBit rate mode : VariableBit rate : 65 b/sStream size : 44.9 KiB (0%)Title : FullLanguage : RussianForced : NoEncoded date : UTC 2017-04-16 13:00:26Tagged date : UTC 2017-04-16 13:00:26

Text #2ID : 5Format : Timed TextCodec ID : tx3gDuration : 1 h 40 minBit rate mode : VariableBit rate : 51 b/sStream size : 37.5 KiB (0%)Title : FullLanguage : EnglishForced : NoEncoded date : UTC 2017-04-16 13:00:26Tagged date : UTC 2017-04-16 13:00:26

Menu


Трекер:  [ 16-Апр-2017 16:00 ]

  

Скачать .torrent

Размер .torrent файла 11 KB


Размер: 2.19 GB
Хэш (hash) релиза: 976c503d3a9ca0456b73aa637ff9e7f5ce4312ed

Еще никто не оставлял запись к записи скачать торрент [VIDEO] Призраки в Коннектикуте 2: Тени прошлого The Haunting in Connecticut 2: Ghosts of Georgia . Будь первым!

!Обратная связь