Naruto: Shippuuden Movie 5 – Blood Prison | Running Man Episode 345 | Chandler Riggs

Скачать через торрент [VIDEO] Монстр-траки Monster Trucks бесплатно русская версия torrent активатор

Статистика раздачи
Размер:  1.5 GB   |    Зарегистрирован:  1 год 3 месяца   |    .torrent скачан:  41 раз   |   
Раздают:  1  
   
загрузка...
 
Автор Сообщение

Galfimbul

avatar Galfimbul


Монстр-траки / Monster Trucks
«Знакомьтесь с Кричем»

Год выпуска: 2016
Страна: США, Канада
Жанр: фантастика, боевик, комедия, семейный
Продолжительность: 01:44:44
Перевод №1: Русский Профессиональный (полное дублирование) Blu-ray CEE
Перевод №2: Украинский Профессиональный (полное дублирование) Blu-ray CEE
Оригинальная дорожка: Есть
Cубтитры: русские (Forced iTunes, iTunes), английские (Full, SDH)
Режиссер: Крис Уэдж / Chris Wedge
В ролях: Лукас Тилл (Tripp), Джейн Леви (Meredith), Томас Леннон (Jim Dowd), Барри Пеппер (Sheriff Rick), Роб Лоу (Reece Tenneson), Дэнни Гловер (Mr. Weathers), Эми Райан (Cindy), Холт МакКэллани (Burke), Фрэнк Уэйли (Wade Coley), Алийа О’Брайен (Junior Scientist), Дэниэл Бэйкон (Technician), Фаустино Ди Бауда (Roughneck) и другие .
Описание: Старшеклассник Трипп мечтает сбежать из скучного городка, где родился и вырос, и увлеченно собирает монстр-трак из обломков старых авто. И когда происшествие на буровой вышке высвобождает из-под земли удивительное создание, знающее толк в скорости, у Триппа появляется реальный шанс не только наконец-то изменить жизнь, но и обрести настоящего друга… Если, конечно, никто не вмешается.
Релиз группы
Качество: BDRip / рип с Blu-ray CEE 1080p
Формат: MP4
Видео кодек: H.264
Аудио кодек: AAC
Видео: 960х400 AR:2.40 1650 kbps 23.976 fps
Аудио №1: [Russian] 2ch 48 kHz 128 kbps - Профессиональный (полное дублирование) Blu-ray CEE
Аудио №2: [Ukrainian] 2ch 48 kHz 128 kbps - Профессиональный (полное дублирование) Blu-ray CEE
Аудио №3: [English] 2ch 48 kHz 128 kbps - Оригинал
avs [info]: 960x400p 1:1 @ 2997/125 fps (cfr)
x264 [info]: using SAR=1/1
x264 [info]: using cpu capabilities: MMX2 SSE2Fast SSSE3 SSE4.2 AVX FMA3 AVX2 LZCNT BMI2
x264 [info]: profile High, level 4.1

x264 [info]: frame I:1306 Avg QP:15.00 size: 55424
x264 [info]: frame P:39468 Avg QP:18.69 size: 16786
x264 [info]: frame B:109898 Avg QP:20.96 size: 5105
x264 [info]: consecutive B-frames: 4.3% 5.9% 11.9% 30.8% 17.5% 21.7% 3.8% 2.7% 0.8% 0.5%
x264 [info]: mb I I16..4: 3.8% 70.7% 25.5%
x264 [info]: mb P I16..4: 0.9% 11.8% 2.1% P16..4: 31.9% 36.2% 12.0% 0.0% 0.0% skip: 5.1%
x264 [info]: mb B I16..4: 0.1% 1.5% 0.2% B16..8: 34.6% 21.0% 3.2% direct: 3.9% skip:35.5% L0:41.7% L1:43.2% BI:15.1%
x264 [info]: 8x8 transform intra:79.0% inter:58.0%
x264 [info]: direct mvs spatial:94.0% temporal:6.0%
x264 [info]: coded y,uvDC,uvAC intra: 88.1% 77.0% 48.9% inter: 20.2% 16.0% 8.5%
x264 [info]: i16 v,h,dc,p: 22% 19% 5% 54%
x264 [info]: i8 v,h,dc,ddl,ddr,vr,hd,vl,hu: 8% 12% 5% 9% 13% 12% 14% 12% 16%
x264 [info]: i4 v,h,dc,ddl,ddr,vr,hd,vl,hu: 9% 13% 6% 8% 15% 13% 14% 9% 13%
x264 [info]: i8c dc,h,v,p: 35% 32% 17% 16%
x264 [info]: Weighted P-Frames: Y:9.2% UV:5.0%
x264 [info]: ref P L0: 52.9% 12.0% 15.3% 6.2% 4.7% 3.6% 3.1% 2.0% 0.2% 0.0%
x264 [info]: ref B L0: 78.8% 10.0% 5.0% 2.4% 2.1% 1.0% 0.6%
x264 [info]: ref B L1: 95.3% 4.7%
x264 [info]: kb/s:1649.69

encoded 150672 frames, 16.04 fps, 1649.69 kb/s
GeneralComplete name : D:\Torrents\Monster Trucks.2016.BDRip.x264.960x.rip by Frost O.S.mp4Format : MPEG-4Format profile : Base MediaCodec ID : isom (isom/avc1/iso2)File size : 1.50 GiBDuration : 1 h 44 minOverall bit rate mode : VariableOverall bit rate : 2 049 kb/sMovie name : Monster Trucks 2016 BDRip x264 960x rip by Frost O SDirector : Крис Уэдж / Chris WedgeActor : Лукас Тилл (Tripp) / Джейн Леви (Meredith) / Томас Леннон (Jim Dowd) / Барри Пеппер (Sheriff Rick) / Роб Лоу (Reece Tenneson) / Дэнни Гловер (Mr. Weathers) / Эми Райан (Cindy) / Холт МакКэллани (Burke) / Фрэнк Уэйли (Wade Coley) / Алийа О’Брайен (Junior Scientist) / Дэниэл Бэйкон (Technician) / Фаустино Ди Бауда (Roughneck)ContentType : Short FilmEncoded date : UTC 2017-04-15 11:09:54Tagged date : UTC 2017-04-15 11:13:19Writing application : MkvToMp4 version: 0.224 (x64)Cover : YesComment : rip by Frost O.SLongDescription : Старшеклассник Трипп мечтает сбежать из скучного городка, где родился и вырос, и увлеченно собирает монстр-трак из обломков старых авто. И когда происшествие на буровой вышке высвобождает из-под земли удивительное создание, знающее толк в скорости, у Триппа появляется реальный шанс не только наконец-то изменить жизнь, но и обрести настоящего друга… Если, конечно, никто не вмешается.

VideoID : 1Format : AVCFormat/Info : Advanced Video CodecFormat profile : [email protected] settings, CABAC : YesFormat settings, ReFrames : 8 framesCodec ID : avc1Codec ID/Info : Advanced Video CodingDuration : 1 h 44 minBit rate : 1 650 kb/sMaximum bit rate : 8 082 kb/sWidth : 960 pixelsHeight : 400 pixelsDisplay aspect ratio : 2.40:1Frame rate mode : ConstantFrame rate : 23.976 (24000/1001) FPSOriginal frame rate : 23.976 (23976/1000) FPSColor space : YUVChroma subsampling : 4:2:0Bit depth : 8 bitsScan type : ProgressiveBits/(Pixel*Frame) : 0.179Stream size : 1.21 GiB (81%)Writing library : x264 core 148 r2744 b97ae06Encoding settings : cabac=1 / ref=8 / deblock=1:-2:-2 / analyse=0x3:0x113 / me=umh / subme=11 / psy=1 / psy_rd=0.90:0.00 / mixed_ref=1 / me_range=32 / chroma_me=1 / trellis=2 / 8x8dct=1 / cqm=0 / deadzone=21,11 / fast_pskip=0 / chroma_qp_offset=-2 / threads=6 / lookahead_threads=1 / sliced_threads=0 / nr=0 / decimate=0 / interlaced=0 / bluray_compat=0 / constrained_intra=0 / bframes=9 / b_pyramid=2 / b_adapt=2 / b_bias=0 / direct=3 / weightb=1 / open_gop=0 / weightp=2 / keyint=250 / keyint_min=23 / scenecut=40 / intra_refresh=0 / rc=2pass / mbtree=0 / bitrate=1650 / ratetol=1.0 / qcomp=0.80 / qpmin=0 / qpmax=69 / qpstep=4 / cplxblur=20.0 / qblur=0.5 / ip_ratio=1.40 / pb_ratio=1.30 / aq=3:0.90Language : EnglishEncoded date : UTC 2017-04-15 11:09:54Tagged date : UTC 2017-04-15 11:11:10Color range : LimitedColor primaries : BT.709Transfer characteristics : BT.709Matrix coefficients : BT.709

Audio #1ID : 2Format : AACFormat/Info : Advanced Audio CodecFormat profile : LCCodec ID : 40Duration : 1 h 44 minBit rate mode : VariableBit rate : 128 kb/sMaximum bit rate : 135 kb/sChannel(s) : 2 channelsChannel positions : Front: L RSampling rate : 48.0 kHzFrame rate : 46.875 FPS (1024 spf)Compression mode : LossyStream size : 95.9 MiB (6%)Title : Dub_ Blu_ray CEE / Dub_ Blu_ray CEELanguage : RussianDefault : YesAlternate group : 1Encoded date : UTC 2017-04-15 11:10:46Tagged date : UTC 2017-04-15 11:11:10

Audio #2ID : 3Format : AACFormat/Info : Advanced Audio CodecFormat profile : LCCodec ID : 40Duration : 1 h 44 minBit rate mode : VariableBit rate : 128 kb/sMaximum bit rate : 135 kb/sChannel(s) : 2 channelsChannel positions : Front: L RSampling rate : 48.0 kHzFrame rate : 46.875 FPS (1024 spf)Compression mode : LossyStream size : 95.9 MiB (6%)Title : Dub_ Blu_ray CEE / Dub_ Blu_ray CEELanguage : UkrainianDefault : NoAlternate group : 1Encoded date : UTC 2017-04-15 11:10:56Tagged date : UTC 2017-04-15 11:11:10

Audio #3ID : 4Format : AACFormat/Info : Advanced Audio CodecFormat profile : LCCodec ID : 40Duration : 1 h 44 minBit rate mode : VariableBit rate : 128 kb/sMaximum bit rate : 135 kb/sChannel(s) : 2 channelsChannel positions : Front: L RSampling rate : 48.0 kHzFrame rate : 46.875 FPS (1024 spf)Compression mode : LossyStream size : 95.9 MiB (6%)Title : Original / OriginalLanguage : EnglishDefault : NoAlternate group : 1Encoded date : UTC 2017-04-15 11:11:02Tagged date : UTC 2017-04-15 11:11:10

Text #1ID : 5Format : Timed TextMuxing mode : sbtlCodec ID : tx3gDuration : 1 h 36 minBit rate mode : VariableBit rate : 0 b/sStream size : 154 Bytes (0%)Title : Forced_ iTunes / Forced_ iTunesLanguage : RussianDefault : YesForced : NoAlternate group : 2Encoded date : UTC 2017-04-15 11:11:10Tagged date : UTC 2017-04-15 11:11:10

Text #2ID : 6Format : Timed TextMuxing mode : sbtlCodec ID : tx3gDuration : 1 h 39 minBit rate mode : VariableBit rate : 61 b/sStream size : 44.5 KiB (0%)Title : iTunes / iTunesLanguage : RussianDefault : NoForced : NoAlternate group : 2Encoded date : UTC 2017-04-15 11:11:10Tagged date : UTC 2017-04-15 11:11:10

Text #3ID : 7Format : Timed TextMuxing mode : sbtlCodec ID : tx3gDuration : 1 h 36 minBit rate mode : VariableBit rate : 45 b/sStream size : 32.3 KiB (0%)Title : Full / FullLanguage : EnglishDefault : NoForced : NoAlternate group : 2Encoded date : UTC 2017-04-15 11:11:10Tagged date : UTC 2017-04-15 11:11:10

Text #4ID : 8Format : Timed TextMuxing mode : sbtlCodec ID : tx3gDuration : 1 h 37 minBit rate mode : VariableBit rate : 52 b/sStream size : 37.0 KiB (0%)Title : SDH / SDHLanguage : EnglishDefault : NoForced : NoAlternate group : 2Encoded date : UTC 2017-04-15 11:11:10Tagged date : UTC 2017-04-15 11:11:10


Трекер:  [ 15-Апр-2017 13:30 ]

  

Скачать .torrent

Размер .torrent файла 15 KB


Размер: 1.5 GB
Хэш (hash) релиза: 43ed93e5734a57b562518e5f3faafdc127981163

Торренты, похожие на [VIDEO] Монстр-траки Monster Trucks скачать торрент

Форум Название Автор Размер S L Добавлен
Видео (Фильмы/Клипы) ·· [VIDEO] Монстр-траки / Monster Trucks (Крис Уэдж / Chris Wedge) [2016, фантастика, боевик, комедия, семейный, BDRip] [MP4, 1280x] Galfimbul 25012690452.33 GB 0 0 1492433279

15:47

17-Апр-17

Видео (Фильмы/Клипы) ·· [VIDEO] Монстр-траки / Monster Trucks (Крис Уэдж / Chris Wedge) [2016, фантастика, боевик, комедия, семейный, HDRip] [MP4, 480x] Dub Galfimbul 458651634437 MB 0 0 1492255843

14:30

15-Апр-17

Еще никто не оставлял запись к записи скачать торрент [VIDEO] Монстр-траки Monster Trucks . Будь первым!

!Обратная связь