I Kill Giants 2017 ver la película completa en línea gratis
Catholic Church

Скачать через торрент [VIDEO] Монстр-траки Monster Trucks бесплатно русская версия torrent активатор

Статистика раздачи
Размер:  437 MB   |    Зарегистрирован:  1 год   |    .torrent скачан:  17 раз   |   
Раздают:  1  
   
загрузка...
 
Автор Сообщение

Galfimbul

avatar Galfimbul


Монстр-траки / Monster Trucks
«Знакомьтесь с Кричем»

Год выпуска: 2016
Страна: США, Канада
Жанр: фантастика, боевик, комедия, семейный
Продолжительность: 01:44:44
Перевод: Русский Профессиональный (полное дублирование) Blu-ray CEE
Cубтитры: нет
Режиссер: Крис Уэдж / Chris Wedge
В ролях: Лукас Тилл (Tripp), Джейн Леви (Meredith), Томас Леннон (Jim Dowd), Барри Пеппер (Sheriff Rick), Роб Лоу (Reece Tenneson), Дэнни Гловер (Mr. Weathers), Эми Райан (Cindy), Холт МакКэллани (Burke), Фрэнк Уэйли (Wade Coley), Алийа О’Брайен (Junior Scientist), Дэниэл Бэйкон (Technician), Фаустино Ди Бауда (Roughneck) и другие .
Описание: Старшеклассник Трипп мечтает сбежать из скучного городка, где родился и вырос, и увлеченно собирает монстр-трак из обломков старых авто. И когда происшествие на буровой вышке высвобождает из-под земли удивительное создание, знающее толк в скорости, у Триппа появляется реальный шанс не только наконец-то изменить жизнь, но и обрести настоящего друга… Если, конечно, никто не вмешается.
Релиз группы
Качество: HDRip / рип с BDRip 1080p
Формат: MP4
Видео кодек: XviD
Аудио кодек: AAC
Видео: 480х200 AR:2.40 448 kbps 23.976 fps
Аудио: [Russian] 2ch 48 kHz 128 kbps - Профессиональный (полное дублирование) Blu-ray CEE
GeneralComplete name : D:\Torrents\Monster Trucks.2016.HDRip.XviD.480x.rip by Frost O.S.mp4Format : MPEG-4Format profile : Base MediaCodec ID : isom (isom/iso2)File size : 437 MiBDuration : 1 h 44 minOverall bit rate mode : VariableOverall bit rate : 584 kb/sMovie name : Monster Trucks 2016 HDRip XviD 480x rip by Frost O SDirector : Крис Уэдж / Chris WedgeActor : Лукас Тилл (Tripp) / Джейн Леви (Meredith) / Томас Леннон (Jim Dowd) / Барри Пеппер (Sheriff Rick) / Роб Лоу (Reece Tenneson) / Дэнни Гловер (Mr. Weathers) / Эми Райан (Cindy) / Холт МакКэллани (Burke) / Фрэнк Уэйли (Wade Coley) / Алийа О’Брайен (Junior Scientist) / Дэниэл Бэйкон (Technician) / Фаустино Ди Бауда (Roughneck)ContentType : Short FilmEncoded date : UTC 2017-04-15 11:20:06Tagged date : UTC 2017-04-15 11:20:43Writing application : MkvToMp4 version: 0.224 (x64)Cover : YesComment : rip by Frost O.SLongDescription : Старшеклассник Трипп мечтает сбежать из скучного городка, где родился и вырос, и увлеченно собирает монстр-трак из обломков старых авто. И когда происшествие на буровой вышке высвобождает из-под земли удивительное создание, знающее толк в скорости, у Триппа появляется реальный шанс не только наконец-то изменить жизнь, но и обрести настоящего друга… Если, конечно, никто не вмешается.

VideoID : 1Format : MPEG-4 VisualFormat profile : Advanced [email protected] settings, BVOP : YesFormat settings, QPel : YesFormat settings, GMC : No warppointsFormat settings, Matrix : CustomCodec ID : 20Duration : 1 h 44 minBit rate mode : VariableBit rate : 448 kb/sMaximum bit rate : 4 167 kb/sWidth : 480 pixelsHeight : 200 pixelsDisplay aspect ratio : 2.40:1Frame rate mode : ConstantFrame rate : 23.976 (24000/1001) FPSOriginal frame rate : 23.976 (23976/1000) FPSColor space : YUVChroma subsampling : 4:2:0Bit depth : 8 bitsScan type : ProgressiveCompression mode : LossyBits/(Pixel*Frame) : 0.195Stream size : 336 MiB (77%)Title : avi_GPAC0.5.2_DEV_rev248_g39d5978_masterWriting library : XviD 1.2.1 (UTC 2008-12-04)Language : EnglishTagged date : UTC 2017-04-15 11:20:15

AudioID : 2Format : AACFormat/Info : Advanced Audio CodecFormat profile : LCCodec ID : 40Duration : 1 h 44 minBit rate mode : VariableBit rate : 128 kb/sMaximum bit rate : 135 kb/sChannel(s) : 2 channelsChannel positions : Front: L RSampling rate : 48.0 kHzFrame rate : 46.875 FPS (1024 spf)Compression mode : LossyStream size : 95.9 MiB (22%)Title : Dub_ Blu_ray CEE / Dub_ Blu_ray CEELanguage : RussianDefault : YesAlternate group : 1Encoded date : UTC 2017-04-15 11:20:13Tagged date : UTC 2017-04-15 11:20:15


Трекер:  [ 15-Апр-2017 13:30 ]

  

Скачать .torrent

Размер .torrent файла 17 KB


Размер: 437 MB
Хэш (hash) релиза: b8ab8d425fba966688207aa20dfd88e56adc532f

Еще никто не оставлял запись к записи скачать торрент [VIDEO] Монстр-траки Monster Trucks . Будь первым!

!Обратная связь