Yannick Lorté
Blade Runner 2049 2017 Minęło 30 lat od wydarzeń przedstawionych w filmie Łowca androidów Ridleya Scotta. Wtedy w 2019 roku agent Rick Deckard ścigał w Los Angeles zbuntowane androidy z serii Nexus 6....

Скачать через торрент [VIDEO] Хеллбой: Дилогия Hellboy: Dilogy бесплатно русская версия torrent активатор

Статистика раздачи
Размер:  3.82 GB   |    Зарегистрирован:  1 год   |    .torrent скачан:  36 раз   |   
Раздают:  1  
   
загрузка...
 
Автор Сообщение

Galfimbul

avatar Galfimbul


Хеллбой: Дилогия / Hellboy: Dilogy (Theatrical cut)

Хеллбой: Герой из пекла / Hellboy (Theatrical cut)
«In the Absence of Light Darkness Prevails»

Год выпуска: 2004
Страна: США
Жанр: ужасы, фантастика, фэнтези, боевик
Продолжительность: 02:01:58
Перевод: русский Профессиональный (полное дублирование) Blu-ray CEE
Оригинальная дорожка: Есть
Cубтитры: русские (полные), английские (полные)
Режиссер: Гильермо Дель Торо / Guillermo del Toro
В ролях: Рон Перлман, Джон Хёрт, Сэльма Блэр, Руперт Эванс, Карел Роден, Джеффри Тэмбор, Даг Джонс, Брайан Стил, Ладислав Беран, Бидди Ходсон и другие .
Описание: Вторая мировая война. Нацисты терпят одно сокрушительное поражение за другим. В результате исследования оккультных ритуалов в супер-секретной лаборатории ученым, работающим на фашистский режим, удается поднять из небытия Демона Ада, который должен помочь переломить ход войны.

Но в научную лабораторию тайно проникает отряд союзников и поворачивает это мистическое и грозное оружие против нацистов. Однако никто из участников эксперимента и не предполагает, что врата потустороннего мира после открытия окажутся неподвластны людям, и им придется столкнуться с существами еще более опасными и непредсказуемыми, чем Демон Ада…
Релиз группы
Качество: BDRip / рип с Blu-ray 1080p CEE
Формат: MP4
Видео кодек: H.264
Аудио кодек: AAC
Видео: 960x520 AR:1.85 1740 kbps 23.976 fps
Аудио №1: [Russian] 2ch 48 kHz 128 kbps - [Dub] Профессиональный (полное дублирование) Blu-ray CEE
Аудио №2: [English] 2ch 48 kHz 128 kbps - Оригинал (английский)
<div class="sp-wrap">
<div class="sp-head folded">Logx264</div>
<div class="sp-body">avs [info]: 960x520p 1:1 @ 2997/125 fps (cfr)
x264 [info]: using SAR=1/1
x264 [info]: using cpu capabilities: MMX2 SSE2Fast SSSE3 SSE4.2 AVX FMA3 AVX2 LZCNT BMI2
x264 [info]: profile High, level 4.1

x264 [info]: frame I:1610 Avg QP:18.85 size: 54817
x264 [info]: frame P:43384 Avg QP:22.45 size: 16926
x264 [info]: frame B:130470 Avg QP:24.20 size: 5890
x264 [info]: consecutive B-frames: 3.6% 7.2% 9.0% 22.6% 18.2% 27.1% 6.2% 3.8% 2.2%
x264 [info]: mb I I16..4: 11.2% 69.0% 19.9%
x264 [info]: mb P I16..4: 1.1% 9.0% 1.4% P16..4: 34.0% 34.0% 8.7% 0.0% 0.0% skip:11.7%
x264 [info]: mb B I16..4: 0.1% 1.2% 0.2% B16..8: 35.1% 15.7% 2.5% direct: 3.6% skip:41.7% L0:44.1% L1:47.8% BI: 8.1%
x264 [info]: 8x8 transform intra:77.2% inter:64.1%
x264 [info]: direct mvs spatial:95.0% temporal:5.0%
x264 [info]: coded y,uvDC,uvAC intra: 79.3% 76.8% 49.6% inter: 18.9% 16.9% 6.4%
x264 [info]: i16 v,h,dc,p: 23% 19% 7% 51%
x264 [info]: i8 v,h,dc,ddl,ddr,vr,hd,vl,hu: 8% 5% 5% 11% 16% 15% 15% 12% 12%
x264 [info]: i4 v,h,dc,ddl,ddr,vr,hd,vl,hu: 12% 6% 5% 9% 15% 14% 14% 11% 13%
x264 [info]: i8c dc,h,v,p: 37% 24% 18% 21%
x264 [info]: Weighted P-Frames: Y:16.0% UV:11.5%
x264 [info]: ref P L0: 51.7% 9.4% 17.0% 6.5% 4.8% 3.6% 3.1% 1.7% 1.7% 0.4% 0.1%
x264 [info]: ref B L0: 78.1% 10.2% 5.0% 2.4% 1.7% 1.4% 0.9% 0.3%
x264 [info]: ref B L1: 95.1% 4.9%
x264 [info]: kb/s:1739.21

encoded 175464 frames, 13.25 fps, 1739.21 kb/s
GeneralComplete name : D:\Torrents\Hellboy Dilogy.(Theatrical cut).2004-2008.BDRip.x264.960x\Hellboy.(Theatrical cut).2004.BDRip.x264.960x.rip by Frost O.S.mp4Format : MPEG-4Format profile : Base MediaCodec ID : isom (isom/avc1/iso2)File size : 1.71 GiBDuration : 2 h 1 minOverall bit rate mode : VariableOverall bit rate : 2 007 kb/sMovie name : Hellboy (Theatrical cut) 2004 BDRip x264 960x rip by Frost O SDirector : Гильермо Дель Торо / Guillermo del ToroActor : Рон Перлман / Джон Хёрт / Сэльма Блэр / Руперт Эванс / Карел Роден / Джеффри Тэмбор / Даг Джонс / Брайан Стил / Ладислав Беран / Бидди ХодсонGenre : ActionContentType : Short FilmEncoded date : UTC 2017-04-14 12:16:54Tagged date : UTC 2017-04-14 12:19:31Writing application : MkvToMp4 version: 0.224 (x64)Cover : YesComment : rip by Frost O.SLongDescription : Вторая мировая война. Нацисты терпят одно сокрушительное поражение за другим. В результате исследования оккультных ритуалов в супер-секретной лаборатории ученым, работающим на фашистский режим, удается поднять из небытия Демона Ада, который должен помочь переломить ход войны. / Но в научную лабораторию тайно проникает отряд союзников и поворачивает это мистическое и грозное оружие против нацистов. Однако никто из участников эксперимента и не предполагает, что врата потустороннего мира после открытия окажутся неподвластны людям, и им придется столкнуться с существами еще более опасными и непредсказуемыми, чем Демон Ада…

VideoID : 1Format : AVCFormat/Info : Advanced Video CodecFormat profile : [email protected] settings, CABAC : YesFormat settings, ReFrames : 9 framesCodec ID : avc1Codec ID/Info : Advanced Video CodingDuration : 2 h 1 minBit rate : 1 740 kb/sMaximum bit rate : 6 525 kb/sWidth : 960 pixelsHeight : 520 pixelsDisplay aspect ratio : 1.85:1Frame rate mode : ConstantFrame rate : 23.976 (24000/1001) FPSOriginal frame rate : 23.976 (23976/1000) FPSColor space : YUVChroma subsampling : 4:2:0Bit depth : 8 bitsScan type : ProgressiveBits/(Pixel*Frame) : 0.145Stream size : 1.48 GiB (87%)Writing library : x264 core 148 r2744 b97ae06Encoding settings : cabac=1 / ref=9 / deblock=1:-1:-1 / analyse=0x3:0x113 / me=umh / subme=11 / psy=1 / psy_rd=1.00:0.00 / mixed_ref=1 / me_range=32 / chroma_me=1 / trellis=2 / 8x8dct=1 / cqm=0 / deadzone=21,11 / fast_pskip=0 / chroma_qp_offset=-2 / threads=6 / lookahead_threads=1 / sliced_threads=0 / nr=0 / decimate=0 / interlaced=0 / bluray_compat=0 / constrained_intra=0 / bframes=8 / b_pyramid=2 / b_adapt=2 / b_bias=0 / direct=3 / weightb=1 / open_gop=0 / weightp=2 / keyint=250 / keyint_min=23 / scenecut=40 / intra_refresh=0 / rc=2pass / mbtree=0 / bitrate=1740 / ratetol=1.0 / qcomp=0.65 / qpmin=0 / qpmax=69 / qpstep=4 / cplxblur=20.0 / qblur=0.5 / ip_ratio=1.40 / pb_ratio=1.30 / aq=2:0.70Language : EnglishEncoded date : UTC 2017-04-14 12:16:54Tagged date : UTC 2017-04-14 12:18:01Color range : LimitedColor primaries : BT.709Transfer characteristics : BT.709Matrix coefficients : BT.709

Audio #1ID : 2Format : AACFormat/Info : Advanced Audio CodecFormat profile : LCCodec ID : 40Duration : 2 h 1 minBit rate mode : VariableBit rate : 128 kb/sMaximum bit rate : 135 kb/sChannel(s) : 2 channelsChannel positions : Front: L RSampling rate : 48.0 kHzFrame rate : 46.875 FPS (1024 spf)Compression mode : LossyStream size : 112 MiB (6%)Title : Dub_ Blu_ray CEE / Dub_ Blu_ray CEELanguage : RussianDefault : YesAlternate group : 1Encoded date : UTC 2017-04-14 12:17:46Tagged date : UTC 2017-04-14 12:18:01

Audio #2ID : 3Format : AACFormat/Info : Advanced Audio CodecFormat profile : LCCodec ID : 40Duration : 2 h 1 minBit rate mode : VariableBit rate : 128 kb/sMaximum bit rate : 135 kb/sChannel(s) : 2 channelsChannel positions : Front: L RSampling rate : 48.0 kHzFrame rate : 46.875 FPS (1024 spf)Compression mode : LossyStream size : 112 MiB (6%)Title : Original / OriginalLanguage : EnglishDefault : NoAlternate group : 1Encoded date : UTC 2017-04-14 12:17:54Tagged date : UTC 2017-04-14 12:18:01

Text #1ID : 4Format : Timed TextMuxing mode : sbtlCodec ID : tx3gDuration : 1 h 55 minBit rate mode : VariableBit rate : 67 b/sStream size : 57.2 KiB (0%)Title : Full / FullLanguage : RussianDefault : YesForced : NoAlternate group : 2Encoded date : UTC 2017-04-14 12:18:01Tagged date : UTC 2017-04-14 12:18:01

Text #2ID : 5Format : Timed TextMuxing mode : sbtlCodec ID : tx3gDuration : 1 h 55 minBit rate mode : VariableBit rate : 39 b/sStream size : 33.5 KiB (0%)Title : Full / FullLanguage : EnglishDefault : NoForced : NoAlternate group : 2Encoded date : UTC 2017-04-14 12:18:01Tagged date : UTC 2017-04-14 12:18:01
</div>
</div>
Хеллбой II: Золотая армия / Hellboy II: The Golden Army (Theatrical cut)
«Золотая орда»

Год выпуска: 2008
Страна: США, Германия
Жанр: ужасы, фантастика, фэнтези, боевик, приключения
Продолжительность: 01:59:40
Перевод №1: русский Профессиональный (полное дублирование) Blu-ray CEE
Перевод №2: русский Профессиональный (многоголосый, закадровый) (С.Р.И. "Kravec")
Перевод №3: русский Авторский (одноголосый, закадровый) В. Королёв
Перевод №4: русский Авторский (одноголосый, закадровый) А. Гаврилов
Перевод №5: русский Авторский (одноголосый, закадровый) Ю. Живов
Оригинальная дорожка: Есть
Cубтитры: русские (captions, полные), английские (полные)
Режиссер: Гильермо Дель Торо / Guillermo del Toro
В ролях: Рон Перлман, Сэльма Блэр, Даг Джонс, Джон Александр, Джеймс Додд, Сет МакФарлейн, Люк Госс, Анна Уолтон, Джефри Тэмбор, Джон Хёрт и другие .
Описание: После того как древнее перемирие между человечеством и тайным миром было нарушено, на Земле вот-вот разверзнется ад. Безжалостный лидер, вхожий в оба мира, бросает вызов своей крови и пробуждает на свет неодолимую армию чудовищ.

Настало время самому Хэллбою сразиться с беспощадным диктатором и его воинами. Вместе со своей пополняющей ряды командой «Бюро Паранормальных Исследований и Развития» он будет бороздить границы двух миров — нашего и скрытого, где самые невероятные существа обретают плоть. Хэллбою, порожденному обоими мирами, но не принадлежащему ни одному из них, предстоит выбирать между жизнью, которую он знает, и неизвестностью новой судьбы.
Релиз группы
Качество: BDRip / рип с Blu-ray 1080p CEE
Формат: MP4
Видео кодек: H.264
Аудио кодек: AAC
Видео: 960x520 AR:1.85 1740 kbps 23.976 fps
Аудио №1: [Russian] 2ch 48 kHz 128 kbps - [Dub] Профессиональный (полное дублирование) Blu-ray CEE
Аудио №2: [Russian] 2ch 48 kHz 128 kbps - [MVO] Профессиональный (многоголосый, закадровый) (С.Р.И. "Kravec")
Аудио №3: [Russian] 2ch 48 kHz 128 kbps - [VO] Авторский (одноголосый, закадровый) В. Королёв
Аудио №4: [Russian] 2ch 48 kHz 128 kbps - [VO] Авторский (одноголосый, закадровый) А. Гаврилов
Аудио №5: [Russian] 2ch 48 kHz 128 kbps - [VO] Авторский (одноголосый, закадровый) Ю. Живов
Аудио №6: [English] 2ch 48 kHz 128 kbps - Оригинал (английский)
<div class="sp-wrap">
<div class="sp-head folded">Logx264</div>
<div class="sp-body">avs [info]: 960x520p 1:1 @ 2997/125 fps (cfr)
x264 [info]: using SAR=1/1
x264 [info]: using cpu capabilities: MMX2 SSE2Fast SSSE3 SSE4.2 AVX FMA3 AVX2 LZCNT BMI2
x264 [info]: profile High, level 4.1

x264 [info]: frame I:1453 Avg QP:18.66 size: 57139
x264 [info]: frame P:46072 Avg QP:22.30 size: 17182
x264 [info]: frame B:124644 Avg QP:24.07 size: 5447
x264 [info]: consecutive B-frames: 4.5% 6.1% 13.5% 28.7% 19.4% 22.9% 2.7% 2.2%
x264 [info]: mb I I16..4: 9.3% 70.2% 20.5%
x264 [info]: mb P I16..4: 1.3% 9.4% 1.4% P16..4: 33.9% 35.8% 9.8% 0.0% 0.0% skip: 8.2%
x264 [info]: mb B I16..4: 0.1% 1.1% 0.1% B16..8: 34.6% 16.5% 2.6% direct: 3.4% skip:41.6% L0:41.6% L1:46.7% BI:11.7%
x264 [info]: 8x8 transform intra:76.7% inter:64.3%
x264 [info]: direct mvs spatial:95.3% temporal:4.7%
x264 [info]: coded y,uvDC,uvAC intra: 77.0% 79.8% 54.0% inter: 18.2% 16.0% 6.2%
x264 [info]: i16 v,h,dc,p: 19% 18% 7% 57%
x264 [info]: i8 v,h,dc,ddl,ddr,vr,hd,vl,hu: 9% 5% 5% 10% 15% 14% 15% 12% 13%
x264 [info]: i4 v,h,dc,ddl,ddr,vr,hd,vl,hu: 14% 7% 7% 8% 14% 13% 14% 10% 12%
x264 [info]: i8c dc,h,v,p: 38% 24% 19% 20%
x264 [info]: Weighted P-Frames: Y:11.5% UV:8.2%
x264 [info]: ref P L0: 57.1% 11.5% 14.5% 5.7% 3.9% 2.9% 2.3% 1.5% 0.3% 0.0%
x264 [info]: ref B L0: 83.8% 7.9% 3.6% 1.8% 1.8% 0.8% 0.3%
x264 [info]: ref B L1: 96.3% 3.7%
x264 [info]: kb/s:1730.77

encoded 172169 frames, 14.06 fps, 1730.77 kb/s
GeneralComplete name : D:\Torrents\Hellboy Dilogy.(Theatrical cut).2004-2008.BDRip.x264.960x\Hellboy II The Golden Army.(Theatrical cut).2008.BDRip.x264.960x.rip by Frost O.S.mp4Format : MPEG-4Format profile : Base MediaCodec ID : isom (isom/avc1/iso2)File size : 2.11 GiBDuration : 1 h 59 minOverall bit rate mode : VariableOverall bit rate : 2 525 kb/sMovie name : Hellboy II The Golden Army (Theatrical cut) 2008 BDRip x264 960x rip by Frost O SDirector : Гильермо Дель Торо / Guillermo del ToroActor : Рон Перлман / Сэльма Блэр / Даг Джонс / Джон Александр / Джеймс Додд / Сет МакФарлейн / Люк Госс / Анна Уолтон / Джефри Тэмбор / Джон ХёртGenre : ActionContentType : Short FilmEncoded date : UTC 2017-04-14 12:28:46Tagged date : UTC 2017-04-14 12:34:08Writing application : MkvToMp4 version: 0.224 (x64)Cover : YesComment : rip by Frost O.SLongDescription : После того как древнее перемирие между человечеством и тайным миром было нарушено, на Земле вот-вот разверзнется ад. Безжалостный лидер, вхожий в оба мира, бросает вызов своей крови и пробуждает на свет неодолимую армию чудовищ. / Настало время самому Хэллбою сразиться с беспощадным диктатором и его воинами. Вместе со своей пополняющей ряды командой «Бюро Паранормальных Исследований и Развития» он будет бороздить границы двух миров — нашего и скрытого, где самые невероятные существа обретают плоть. Хэллбою, порожденному обоими мирами, но не принадлежащему ни одному из них, предстоит выбирать между жизнью, которую он знает, и неизвестностью новой судьбы.

VideoID : 1Format : AVCFormat/Info : Advanced Video CodecFormat profile : [email protected] settings, CABAC : YesFormat settings, ReFrames : 8 framesCodec ID : avc1Codec ID/Info : Advanced Video CodingDuration : 1 h 59 minBit rate : 1 740 kb/sMaximum bit rate : 7 043 kb/sWidth : 960 pixelsHeight : 520 pixelsDisplay aspect ratio : 1.85:1Frame rate mode : ConstantFrame rate : 23.976 (24000/1001) FPSOriginal frame rate : 23.976 (23976/1000) FPSColor space : YUVChroma subsampling : 4:2:0Bit depth : 8 bitsScan type : ProgressiveBits/(Pixel*Frame) : 0.145Stream size : 1.45 GiB (69%)Writing library : x264 core 148 r2744 b97ae06Encoding settings : cabac=1 / ref=8 / deblock=1:-1:-1 / analyse=0x3:0x113 / me=umh / subme=11 / psy=1 / psy_rd=1.05:0.00 / mixed_ref=1 / me_range=32 / chroma_me=1 / trellis=2 / 8x8dct=1 / cqm=0 / deadzone=21,11 / fast_pskip=0 / chroma_qp_offset=-2 / threads=6 / lookahead_threads=1 / sliced_threads=0 / nr=0 / decimate=0 / interlaced=0 / bluray_compat=0 / constrained_intra=0 / bframes=7 / b_pyramid=2 / b_adapt=2 / b_bias=0 / direct=3 / weightb=1 / open_gop=0 / weightp=2 / keyint=250 / keyint_min=23 / scenecut=40 / intra_refresh=0 / rc=2pass / mbtree=0 / bitrate=1740 / ratetol=1.0 / qcomp=0.60 / qpmin=0 / qpmax=69 / qpstep=4 / cplxblur=20.0 / qblur=0.5 / ip_ratio=1.40 / pb_ratio=1.30 / aq=2:0.80Language : EnglishEncoded date : UTC 2017-04-14 12:28:46Tagged date : UTC 2017-04-14 12:30:22Color range : LimitedColor primaries : BT.709Transfer characteristics : BT.709Matrix coefficients : BT.709

Audio #1ID : 2Format : AACFormat/Info : Advanced Audio CodecFormat profile : LCCodec ID : 40Duration : 1 h 59 minBit rate mode : VariableBit rate : 128 kb/sMaximum bit rate : 135 kb/sChannel(s) : 2 channelsChannel positions : Front: L RSampling rate : 48.0 kHzFrame rate : 46.875 FPS (1024 spf)Compression mode : LossyStream size : 110 MiB (5%)Title : Dub_ Blu_ray CEE / Dub_ Blu_ray CEELanguage : RussianDefault : YesAlternate group : 1Encoded date : UTC 2017-04-14 12:29:33Tagged date : UTC 2017-04-14 12:30:22

Audio #2ID : 3Format : AACFormat/Info : Advanced Audio CodecFormat profile : LCCodec ID : 40Duration : 1 h 59 minBit rate mode : VariableBit rate : 128 kb/sMaximum bit rate : 135 kb/sChannel(s) : 2 channelsChannel positions : Front: L RSampling rate : 48.0 kHzFrame rate : 46.875 FPS (1024 spf)Compression mode : LossyStream size : 110 MiB (5%)Title : MVO_ Kravec / MVO_ KravecLanguage : RussianDefault : NoAlternate group : 1Encoded date : UTC 2017-04-14 12:29:40Tagged date : UTC 2017-04-14 12:30:22

Audio #3ID : 4Format : AACFormat/Info : Advanced Audio CodecFormat profile : LCCodec ID : 40Duration : 1 h 59 minBit rate mode : VariableBit rate : 128 kb/sMaximum bit rate : 134 kb/sChannel(s) : 2 channelsChannel positions : Front: L RSampling rate : 48.0 kHzFrame rate : 46.875 FPS (1024 spf)Compression mode : LossyStream size : 110 MiB (5%)Title : VO_ Korolev / VO_ KorolevLanguage : RussianDefault : NoAlternate group : 1Encoded date : UTC 2017-04-14 12:29:48Tagged date : UTC 2017-04-14 12:30:22

Audio #4ID : 5Format : AACFormat/Info : Advanced Audio CodecFormat profile : LCCodec ID : 40Duration : 1 h 59 minBit rate mode : VariableBit rate : 128 kb/sMaximum bit rate : 135 kb/sChannel(s) : 2 channelsChannel positions : Front: L RSampling rate : 48.0 kHzFrame rate : 46.875 FPS (1024 spf)Compression mode : LossyStream size : 110 MiB (5%)Title : VO_ Gavrilov / VO_ GavrilovLanguage : RussianDefault : NoAlternate group : 1Encoded date : UTC 2017-04-14 12:29:56Tagged date : UTC 2017-04-14 12:30:22

Audio #5ID : 6Format : AACFormat/Info : Advanced Audio CodecFormat profile : LCCodec ID : 40Duration : 1 h 59 minBit rate mode : VariableBit rate : 128 kb/sMaximum bit rate : 135 kb/sChannel(s) : 2 channelsChannel positions : Front: L RSampling rate : 48.0 kHzFrame rate : 46.875 FPS (1024 spf)Compression mode : LossyStream size : 110 MiB (5%)Title : VO_ Zhuvov / VO_ ZhuvovLanguage : RussianDefault : NoAlternate group : 1Encoded date : UTC 2017-04-14 12:30:06Tagged date : UTC 2017-04-14 12:30:22

Audio #6ID : 7Format : AACFormat/Info : Advanced Audio CodecFormat profile : LCCodec ID : 40Duration : 1 h 59 minBit rate mode : VariableBit rate : 128 kb/sMaximum bit rate : 135 kb/sChannel(s) : 2 channelsChannel positions : Front: L RSampling rate : 48.0 kHzFrame rate : 46.875 FPS (1024 spf)Compression mode : LossyStream size : 110 MiB (5%)Title : Original / OriginalLanguage : EnglishDefault : NoAlternate group : 1Encoded date : UTC 2017-04-14 12:30:13Tagged date : UTC 2017-04-14 12:30:22

Text #1ID : 8Format : Timed TextMuxing mode : sbtlCodec ID : tx3gDuration : 38 min 57 sBit rate mode : VariableBit rate : 1 b/sStream size : 213 Bytes (0%)Title : captions / captionsLanguage : RussianDefault : YesForced : NoAlternate group : 2Encoded date : UTC 2017-04-14 12:30:22Tagged date : UTC 2017-04-14 12:30:22

Text #2ID : 9Format : Timed TextMuxing mode : sbtlCodec ID : tx3gDuration : 1 h 51 minBit rate mode : VariableBit rate : 92 b/sStream size : 75.6 KiB (0%)Title : Full / FullLanguage : RussianDefault : NoForced : NoAlternate group : 2Encoded date : UTC 2017-04-14 12:30:22Tagged date : UTC 2017-04-14 12:30:22

Text #3ID : 10Format : Timed TextMuxing mode : sbtlCodec ID : tx3gDuration : 1 h 51 minBit rate mode : VariableBit rate : 55 b/sStream size : 45.4 KiB (0%)Title : Full / FullLanguage : EnglishDefault : NoForced : NoAlternate group : 2Encoded date : UTC 2017-04-14 12:30:22Tagged date : UTC 2017-04-14 12:30:22
</div>
</div>

Трекер:  [ 14-Апр-2017 15:00 ]

  

Скачать .torrent

Размер .torrent файла 19 KB


Размер: 3.82 GB
Хэш (hash) релиза: 10e949307abddd847acbdb4e00c7deab89576e42

Торренты, похожие на [VIDEO] Хеллбой: Дилогия Hellboy: Dilogy скачать торрент

Форум Название Автор Размер S L Добавлен
Видео (Фильмы/Клипы) ·· [VIDEO] Хеллбой. Дилогия / Hellboy. Dilogy (Гильермо дель Торо) [2004, 2008 г., Фантастика, фэнтези, боевик, приключения, HDRip] КПК, MP4, 640х alien.09 14707761451.37 GB 0 0 1395520241

23:30

22-Мар-14

Еще никто не оставлял запись к записи скачать торрент [VIDEO] Хеллбой: Дилогия Hellboy: Dilogy . Будь первым!

!Обратная связь