下載 APK | Dawn of Titans - Epische oorlogsstrategiegame | Pharanyu Rojanawuthitham

Скачать через торрент [VIDEO] Хеллбой Hellboy бесплатно русская версия torrent активатор

Статистика раздачи
Размер:  2.47 GB   |    Зарегистрирован:  1 год 3 месяца   |    .torrent скачан:  31 раз   |   
Раздают:  1  
   
загрузка...
 
Автор Сообщение

Galfimbul

avatar Galfimbul


Хеллбой: Герой из пекла / Hellboy (Director's Cut)

«In the Absence of Light Darkness Prevails»

Год выпуска: 2004
Страна: США
Жанр: ужасы, фантастика, фэнтези, боевик
Продолжительность: 02:12:28
Перевод №1: русский Профессиональный (полное дублирование) Blu-ray CEE + MVO (со вставками многоголосого перевода) Киномания
Перевод №2: русский Профессиональный (многоголосый, закадровый) (Киномания)
Перевод №3: русский Авторский (одноголосый, закадровый) Дмитрий Пучков (Гоблин)
Перевод №4: русский Авторский (одноголосый, закадровый) А. Гаврилов
Перевод №5: русский Авторский (одноголосый, закадровый) Ю. Живов
Перевод №6: русский Одноголосый (закадровый) Б. Кутафин
Оригинальная дорожка: Есть
Cубтитры: русские (полные), английские (полные)
Режиссер: Гильермо Дель Торо / Guillermo del Toro
В ролях: Рон Перлман, Джон Хёрт, Сэльма Блэр, Руперт Эванс, Карел Роден, Джеффри Тэмбор, Даг Джонс, Брайан Стил, Ладислав Беран, Бидди Ходсон и другие .
Описание: Вторая мировая война. Нацисты терпят одно сокрушительное поражение за другим. В результате исследования оккультных ритуалов в супер-секретной лаборатории ученым, работающим на фашистский режим, удается поднять из небытия Демона Ада, который должен помочь переломить ход войны.

Но в научную лабораторию тайно проникает отряд союзников и поворачивает это мистическое и грозное оружие против нацистов. Однако никто из участников эксперимента и не предполагает, что врата потустороннего мира после открытия окажутся неподвластны людям, и им придется столкнуться с существами еще более опасными и непредсказуемыми, чем Демон Ада…
Релиз группы
Качество: BDRip / BDRemux 1080p
Формат: MP4
Видео кодек: H.264
Аудио кодек: AAC
Видео: 960x520 AR:1.85 1740 kbps 23.976 fps
Аудио №1: [Russian] 2ch 48 kHz 128 kbps - [Dub] Профессиональный (полное дублирование) Blu-ray CEE + MVO (со вставками многоголосого перевода) Киномания
Аудио №2: [Russian] 2ch 48 kHz 128 kbps - [MVO] Профессиональный (многоголосый, закадровый) (Киномания)
Аудио №3: [Russian] 2ch 48 kHz 128 kbps - [VO] Авторский (одноголосый, закадровый) Дмитрий Пучков (Гоблин)
Аудио №4: [Russian] 2ch 48 kHz 128 kbps - [VO] Авторский (одноголосый, закадровый) А. Гаврилов
Аудио №5: [Russian] 2ch 48 kHz 128 kbps - [VO] Авторский (одноголосый, закадровый) Ю. Живов
Аудио №6: [Russian] 2ch 48 kHz 128 kbps - [VO] Одноголосый (закадровый) Б. Кутафин
Аудио №7: [English] 2ch 48 kHz 128 kbps - Оригинал (английский)
avs [info]: 960x520p 1:1 @ 2997/125 fps (cfr)
x264 [info]: using SAR=1/1
x264 [info]: using cpu capabilities: MMX2 SSE2Fast SSSE3 SSE4.2 AVX FMA3 AVX2 LZCNT BMI2
x264 [info]: profile High, level 4.1

x264 [info]: frame I:1702 Avg QP:18.91 size: 56209
x264 [info]: frame P:47100 Avg QP:22.00 size: 17295
x264 [info]: frame B:141780 Avg QP:23.91 size: 5769
x264 [info]: consecutive B-frames: 3.3% 6.8% 9.0% 25.1% 18.1% 28.9% 5.0% 2.2% 1.6%
x264 [info]: mb I I16..4: 14.3% 69.3% 16.4%
x264 [info]: mb P I16..4: 2.6% 9.3% 1.3% P16..4: 44.1% 18.9% 12.2% 0.0% 0.0% skip:11.5%
x264 [info]: mb B I16..4: 0.1% 0.8% 0.1% B16..8: 41.5% 7.8% 2.3% direct: 4.3% skip:43.0% L0:44.6% L1:48.8% BI: 6.5%
x264 [info]: 8x8 transform intra:71.1% inter:62.3%
x264 [info]: direct mvs spatial:94.8% temporal:5.2%
x264 [info]: coded y,uvDC,uvAC intra: 73.0% 75.6% 47.6% inter: 20.5% 22.0% 7.2%
x264 [info]: i16 v,h,dc,p: 48% 18% 9% 25%
x264 [info]: i8 v,h,dc,ddl,ddr,vr,hd,vl,hu: 10% 6% 6% 11% 16% 14% 15% 11% 12%
x264 [info]: i4 v,h,dc,ddl,ddr,vr,hd,vl,hu: 10% 6% 3% 10% 16% 15% 15% 11% 13%
x264 [info]: i8c dc,h,v,p: 40% 23% 18% 18%
x264 [info]: Weighted P-Frames: Y:15.4% UV:10.9%
x264 [info]: ref P L0: 52.2% 10.2% 16.8% 6.5% 4.9% 3.6% 3.2% 2.0% 0.5% 0.1%
x264 [info]: ref B L0: 77.9% 10.6% 5.3% 2.6% 1.9% 1.2% 0.5%
x264 [info]: ref B L1: 94.9% 5.1%
x264 [info]: kb/s:1739.27

encoded 190582 frames, 21.12 fps, 1739.27 kb/s
GeneralComplete name : D:\Torrents\Hellboy.(Director's Cut).2004.BDRip.x264.960x.rip by Frost O.S.mp4Format : MPEG-4Format profile : Base MediaCodec ID : isom (isom/avc1/iso2)File size : 2.47 GiBDuration : 2 h 12 minOverall bit rate mode : VariableOverall bit rate : 2 664 kb/sMovie name : Hellboy (Director's Cut) 2004 BDRip x264 960x rip by Frost O SDirector : Гильермо Дель Торо / Guillermo del ToroActor : Рон Перлман / Джон Хёрт / Сэльма Блэр / Руперт Эванс / Карел Роден / Джеффри Тэмбор / Даг Джонс / Брайан Стил / Ладислав Беран / Бидди ХодсонGenre : ActionContentType : Short FilmEncoded date : UTC 2017-04-14 11:55:15Tagged date : UTC 2017-04-14 12:01:21Writing application : MkvToMp4 version: 0.224 (x64)Cover : YesComment : rip by Frost O.SLongDescription : Вторая мировая война. Нацисты терпят одно сокрушительное поражение за другим. В результате исследования оккультных ритуалов в супер-секретной лаборатории ученым, работающим на фашистский режим, удается поднять из небытия Демона Ада, который должен помочь переломить ход войны. / Но в научную лабораторию тайно проникает отряд союзников и поворачивает это мистическое и грозное оружие против нацистов. Однако никто из участников эксперимента и не предполагает, что врата потустороннего мира после открытия окажутся неподвластны людям, и им придется столкнуться с существами еще более опасными и непредсказуемыми, чем Демон Ада…

VideoID : 1Format : AVCFormat/Info : Advanced Video CodecFormat profile : [email protected] settings, CABAC : YesFormat settings, ReFrames : 8 framesCodec ID : avc1Codec ID/Info : Advanced Video CodingDuration : 2 h 12 minBit rate : 1 740 kb/sMaximum bit rate : 5 781 kb/sWidth : 960 pixelsHeight : 520 pixelsDisplay aspect ratio : 1.85:1Frame rate mode : ConstantFrame rate : 23.976 (24000/1001) FPSOriginal frame rate : 23.976 (23976/1000) FPSColor space : YUVChroma subsampling : 4:2:0Bit depth : 8 bitsScan type : ProgressiveBits/(Pixel*Frame) : 0.145Stream size : 1.61 GiB (65%)Writing library : x264 core 148 r2744 b97ae06Encoding settings : cabac=1 / ref=8 / deblock=1:-1:-1 / analyse=0x3:0x113 / me=umh / subme=9 / psy=1 / psy_rd=1.10:0.00 / mixed_ref=1 / me_range=24 / chroma_me=1 / trellis=2 / 8x8dct=1 / cqm=0 / deadzone=21,11 / fast_pskip=0 / chroma_qp_offset=-2 / threads=6 / lookahead_threads=1 / sliced_threads=0 / nr=0 / decimate=0 / interlaced=0 / bluray_compat=0 / constrained_intra=0 / bframes=8 / b_pyramid=2 / b_adapt=2 / b_bias=0 / direct=3 / weightb=1 / open_gop=0 / weightp=2 / keyint=250 / keyint_min=23 / scenecut=40 / intra_refresh=0 / rc=2pass / mbtree=0 / bitrate=1740 / ratetol=1.0 / qcomp=0.60 / qpmin=0 / qpmax=69 / qpstep=4 / cplxblur=20.0 / qblur=0.5 / ip_ratio=1.40 / pb_ratio=1.30 / aq=2:0.90Language : EnglishEncoded date : UTC 2017-04-14 11:55:15Tagged date : UTC 2017-04-14 11:57:25Color range : LimitedColor primaries : BT.709Transfer characteristics : BT.709Matrix coefficients : BT.709

Audio #1ID : 2Format : AACFormat/Info : Advanced Audio CodecFormat profile : LCCodec ID : 40Duration : 2 h 12 minBit rate mode : VariableBit rate : 128 kb/sMaximum bit rate : 134 kb/sChannel(s) : 2 channelsChannel positions : Front: L RSampling rate : 48.0 kHzFrame rate : 46.875 FPS (1024 spf)Compression mode : LossyStream size : 121 MiB (5%)Title : Dub_ Blu_ray CEE _ MVO_ Kinomaniya / Dub_ Blu_ray CEE _ MVO_ KinomaniyaLanguage : RussianDefault : YesAlternate group : 1Encoded date : UTC 2017-04-14 11:56:05Tagged date : UTC 2017-04-14 11:57:25

Audio #2ID : 3Format : AACFormat/Info : Advanced Audio CodecFormat profile : LCCodec ID : 40Duration : 2 h 12 minBit rate mode : VariableBit rate : 128 kb/sMaximum bit rate : 135 kb/sChannel(s) : 2 channelsChannel positions : Front: L RSampling rate : 48.0 kHzFrame rate : 46.875 FPS (1024 spf)Compression mode : LossyStream size : 121 MiB (5%)Title : MVO_ Kinomaniya / MVO_ KinomaniyaLanguage : RussianDefault : NoAlternate group : 1Encoded date : UTC 2017-04-14 11:56:14Tagged date : UTC 2017-04-14 11:57:25

Audio #3ID : 4Format : AACFormat/Info : Advanced Audio CodecFormat profile : LCCodec ID : 40Duration : 2 h 12 minBit rate mode : VariableBit rate : 128 kb/sMaximum bit rate : 135 kb/sChannel(s) : 2 channelsChannel positions : Front: L RSampling rate : 48.0 kHzFrame rate : 46.875 FPS (1024 spf)Compression mode : LossyStream size : 121 MiB (5%)Title : VO_ Goblin / VO_ GoblinLanguage : RussianDefault : NoAlternate group : 1Encoded date : UTC 2017-04-14 11:56:21Tagged date : UTC 2017-04-14 11:57:25

Audio #4ID : 5Format : AACFormat/Info : Advanced Audio CodecFormat profile : LCCodec ID : 40Duration : 2 h 12 minBit rate mode : VariableBit rate : 128 kb/sMaximum bit rate : 135 kb/sChannel(s) : 2 channelsChannel positions : Front: L RSampling rate : 48.0 kHzFrame rate : 46.875 FPS (1024 spf)Compression mode : LossyStream size : 121 MiB (5%)Title : VO_ Gavrilov / VO_ GavrilovLanguage : RussianDefault : NoAlternate group : 1Encoded date : UTC 2017-04-14 11:56:28Tagged date : UTC 2017-04-14 11:57:25

Audio #5ID : 6Format : AACFormat/Info : Advanced Audio CodecFormat profile : LCCodec ID : 40Duration : 2 h 12 minBit rate mode : VariableBit rate : 128 kb/sMaximum bit rate : 135 kb/sChannel(s) : 2 channelsChannel positions : Front: L RSampling rate : 48.0 kHzFrame rate : 46.875 FPS (1024 spf)Compression mode : LossyStream size : 121 MiB (5%)Title : VO_ Zhuvov / VO_ ZhuvovLanguage : RussianDefault : NoAlternate group : 1Encoded date : UTC 2017-04-14 11:56:44Tagged date : UTC 2017-04-14 11:57:25

Audio #6ID : 7Format : AACFormat/Info : Advanced Audio CodecFormat profile : LCCodec ID : 40Duration : 2 h 12 minBit rate mode : VariableBit rate : 128 kb/sMaximum bit rate : 135 kb/sChannel(s) : 2 channelsChannel positions : Front: L RSampling rate : 48.0 kHzFrame rate : 46.875 FPS (1024 spf)Compression mode : LossyStream size : 121 MiB (5%)Title : VO_ Kytafin / VO_ KytafinLanguage : RussianDefault : NoAlternate group : 1Encoded date : UTC 2017-04-14 11:56:58Tagged date : UTC 2017-04-14 11:57:25

Audio #7ID : 8Format : AACFormat/Info : Advanced Audio CodecFormat profile : LCCodec ID : 40Duration : 2 h 12 minBit rate mode : VariableBit rate : 128 kb/sMaximum bit rate : 135 kb/sChannel(s) : 2 channelsChannel positions : Front: L RSampling rate : 48.0 kHzFrame rate : 46.875 FPS (1024 spf)Compression mode : LossyStream size : 121 MiB (5%)Title : Original / OriginalLanguage : EnglishDefault : NoAlternate group : 1Encoded date : UTC 2017-04-14 11:57:09Tagged date : UTC 2017-04-14 11:57:25

Text #1ID : 9Format : Timed TextMuxing mode : sbtlCodec ID : tx3gDuration : 2 h 6 minBit rate mode : VariableBit rate : 67 b/sStream size : 61.9 KiB (0%)Title : Full / FullLanguage : RussianDefault : YesForced : NoAlternate group : 2Encoded date : UTC 2017-04-14 11:57:24Tagged date : UTC 2017-04-14 11:57:25

Text #2ID : 10Format : Timed TextMuxing mode : sbtlCodec ID : tx3gDuration : 2 h 6 minBit rate mode : VariableBit rate : 41 b/sStream size : 38.1 KiB (0%)Title : Full / FullLanguage : EnglishDefault : NoForced : NoAlternate group : 2Encoded date : UTC 2017-04-14 11:57:25Tagged date : UTC 2017-04-14 11:57:25


Трекер:  [ 14-Апр-2017 14:30 ]

  

Скачать .torrent

Размер .torrent файла 13 KB


Размер: 2.47 GB
Хэш (hash) релиза: dcb240a4842a676643e462f9a1e40251b89f4ce6

Торренты, похожие на [VIDEO] Хеллбой Hellboy скачать торрент

Форум Название Автор Размер S L Добавлен
Видео (Фильмы/Клипы) ·· [VIDEO] Хеллбой: Дилогия / Hellboy: Dilogy (Гильермо Дель Торо / Guillermo del Toro) [2004 - 2008, фантастика, фэнтези, боевик, BDRip] [MP4, 960x] [Theatrical cut] Dub, MVO Kravec, VO Королёв, VO Гаврилов, VO Живов, Original, Sub (rus, eng) Galfimbul 41021777763.82 GB 0 0 1492175372

16:09

14-Апр-17

Видео (Фильмы/Клипы) ·· [VIDEO] Хеллбой. Дилогия / Hellboy. Dilogy (Гильермо дель Торо) [2004, 2008 г., Фантастика, фэнтези, боевик, приключения, HDRip] КПК, MP4, 640х alien.09 14707761451.37 GB 0 0 1395520241

23:30

22-Мар-14

Видео (Фильмы/Клипы) ·· [VIDEO] Хеллбой: Герой из пекла / Hellboy (Гильермо Дель Торо / Guillermo del Toro) [2004 г., США, Боевик, Фэнтези, Приключения, BDRip] [MP4, 640x] [Режиссерская версия / Director's Cut] Galfimbul 12042013681.12 GB 0 0 1336588200

21:30

9-Май-12

Видео (Фильмы/Клипы) ·· [VIDEO] Хеллбой II: Золотая армия / Hellboy II: The Golden Army (Гильермо Дель Торо / Guillermo del Toro) [2008 г., США, Германия, Боевик, Фэнтези, Приключения, BDRip] [MP4, 640x] Galfimbul 10833007041.01 GB 0 0 1336588260

21:31

9-Май-12

Еще никто не оставлял запись к записи скачать торрент [VIDEO] Хеллбой Hellboy . Будь первым!

!Обратная связь