Watch movie | Psychologie Et Alchimie | Chalk N Duster 2016 Official Trailer Free Download HD 720p

Скачать через торрент [VIDEO] Призраки в Коннектикуте The Haunting in Connecticut бесплатно русская версия torrent активатор

Статистика раздачи
Размер:  2.1 GB   |    Зарегистрирован:  1 год 3 месяца   |    .torrent скачан:  23 раза   |   
Раздают:  1  
   
загрузка...
 
Автор Сообщение

Galfimbul

avatar Galfimbul


Призраки в Коннектикуте / The Haunting in Connecticut
«Некоторые вещи необъяснимы»
Год выпуска: 2009
Оригинальное название: The Haunting in Connecticut
Страна: США, Канада
Жанр: ужасы, триллер, драма, детектив
Возраст: 16+

Режиссер: Питер Корнвэлл / Peter Cornwell

В ролях: Вирджиния Мэдсен, Кайл Галлнер, Элиас Котеас, Аманда Крю, Мартин Донован, Софи Найт, Ти Вуд, Эрик Дж. Берг, Джон Блютнер, Д.В. Браун, Джон Б. Лоу, Адриана О’Нил, Уилл Войтович, Джеймс Дархэм, Даррен Росс, Сара Констибл, Блейк Тейлор, Кейт Джеймс, Келли Вольфман, Джессика Бёрлсон, Мэтт Киппен

Описание: История о семье, вынужденной переехать ближе к клинике, где их сын лечится от рака. И без того испытывающие финансовое и моральное напряжение, они обнаруживают, что их недавно отреставрированный дом хранит мрачные тайны. После нескольких столкновений со сверхъестественными силами в доме, семья обращается за помощью к священнику…

Продолжительность: 01:42:26
Перевод: Дублированный
Оригинальная дорожка: нет

Автор рипа:

Качество видео: BDRip Исходник: Blu-Ray (1080p) Формат: mp4
Видео кодек: MPEG-4 AVC Аудио кодек: AAC
Видео: 1280x544 (2.35:1) at 23.976 fps, AVC at 2 803 kbps avg, 0.168 bit/pixel
Аудио №1 Rus: 48.0 KHz, AAC, 2 ch, 128.0 Kbps
Субтитры: нет
Навигация по главам: нет
Размер: 2.10 GiB
avs [info]: 1280x544p 1:1 @ 24000/1001 fps (cfr)
x264 [info]: using SAR=1/1
x264 [info]: using cpu capabilities: MMX2 SSE2Fast SSSE3 Cache64
x264 [info]: profile High, level 4.1
x264 [info]: frame I:1404 Avg QP:16.54 size: 89801
x264 [info]: frame P:27539 Avg QP:20.34 size: 25770
x264 [info]: frame B:118417 Avg QP:21.35 size: 11127
x264 [info]: consecutive B-frames: 2.9% 1.7% 3.4% 8.5% 10.2% 40.8% 10.2% 3.9% 5.9% 7.3% 5.3%
x264 [info]: mb I I16..4: 8.2% 78.8% 13.0%
x264 [info]: mb P I16..4: 1.4% 10.4% 0.9% P16..4: 40.0% 21.2% 13.9% 0.0% 0.0% skip:12.1%
x264 [info]: mb B I16..4: 0.1% 1.0% 0.1% B16..8: 43.2% 8.7% 2.0% direct: 6.3% skip:38.8% L0:47.0% L1:49.0% BI: 4.0%
x264 [info]: 8x8 transform intra:82.3% inter:65.5%
x264 [info]: coded y,uvDC,uvAC intra: 76.4% 73.6% 47.5% inter: 27.5% 32.3% 4.8%
x264 [info]: i16 v,h,dc,p: 50% 13% 7% 31%
x264 [info]: i8 v,h,dc,ddl,ddr,vr,hd,vl,hu: 15% 11% 31% 6% 8% 8% 8% 7% 7%
x264 [info]: i4 v,h,dc,ddl,ddr,vr,hd,vl,hu: 23% 16% 14% 7% 10% 9% 9% 7% 6%
x264 [info]: i8c dc,h,v,p: 59% 15% 18% 8%
x264 [info]: Weighted P-Frames: Y:7.4% UV:4.5%
x264 [info]: ref P L0: 43.5% 10.3% 18.8% 7.1% 6.1% 4.2% 3.9% 2.0% 2.0% 1.8% 0.3% 0.0%
x264 [info]: ref B L0: 64.4% 14.9% 8.3% 4.1% 3.0% 2.4% 1.9% 0.7% 0.3%
x264 [info]: ref B L1: 89.4% 10.6%
x264 [info]: kb/s:2802.92
encoded 147360 frames, 1.99 fps, 2802.92 kb/s
GeneralComplete name : ...Prizraki_v_konnektikute_2009_KinoGadget.mp4Format : MPEG-4Format profile : Base MediaCodec ID : isom (isom)File size : 2.10 GiBDuration : 1 h 42 minOverall bit rate mode : VariableOverall bit rate : 2 938 kb/sMovie name : Призраки в Коннектикуте | KinoGadgetPerformer : Питер КорнвэллDirector : Питер КорнвэллActor : Вирджиния Мэдсен / Кайл Галлнер / Элиас Котеас / Аманда Крю / Мартин Донован / Софи Найт / Ти Вуд / Эрик Дж. Берг / Джон Блютнер / Д.В. Браун / Джон Б. Лоу / Адриана О’Нил / Уилл Войтович / Джеймс Дархэм / Даррен Росс / Сара Констибл / Блейк Тейлор / Кейт Джеймс / Келли Вольфман / Джессика Бёрлсон / Мэтт КиппенScreenplay by : Адам Саймон / Тим МеткалфProducer : Пол Брукс / Дэниэл Фаррандс / Венди РоудсGenre : Drama, Horror, MysteryContentType : Short FilmRecorded date : 2009Encoded date : UTC 2017-04-12 18:30:27Tagged date : UTC 2017-04-13 05:49:35Cover : YesContentRating : mpaa|PG-13|300|LongDescription : История о семье, вынужденной переехать ближе к клинике, где их сын лечится от рака. И без того испытывающие финансовое и моральное напряжение, они обнаруживают, что их недавно отреставрированный дом хранит мрачные тайны. После нескольких столкновений со сверхъестественными силами в доме, семья обращается за помощью к священнику…HDVideo : Yes

VideoID : 1Format : AVCFormat/Info : Advanced Video CodecFormat profile : [email protected] settings, CABAC : YesFormat settings, ReFrames : 10 framesCodec ID : avc1Codec ID/Info : Advanced Video CodingDuration : 1 h 42 minBit rate : 2 803 kb/sMaximum bit rate : 15.5 Mb/sWidth : 1 280 pixelsHeight : 544 pixelsDisplay aspect ratio : 2.35:1Frame rate mode : ConstantFrame rate : 23.976 (24000/1001) FPSColor space : YUVChroma subsampling : 4:2:0Bit depth : 8 bitsScan type : ProgressiveBits/(Pixel*Frame) : 0.168Stream size : 2.01 GiB (95%)Writing library : x264 core 148 r2638 7599210Encoding settings : cabac=1 / ref=10 / deblock=1:-2:-1 / analyse=0x3:0x113 / me=umh / subme=7 / psy=1 / psy_rd=1.00:0.00 / mixed_ref=1 / me_range=32 / chroma_me=1 / trellis=2 / 8x8dct=1 / cqm=0 / deadzone=21,11 / fast_pskip=0 / chroma_qp_offset=-2 / threads=3 / lookahead_threads=1 / sliced_threads=0 / nr=0 / decimate=1 / interlaced=0 / bluray_compat=0 / constrained_intra=0 / bframes=10 / b_pyramid=2 / b_adapt=2 / b_bias=0 / direct=1 / weightb=1 / open_gop=0 / weightp=2 / keyint=250 / keyint_min=25 / scenecut=40 / intra_refresh=0 / rc_lookahead=60 / rc=crf / mbtree=1 / crf=20.0 / qcomp=0.60 / qpmin=0 / qpmax=69 / qpstep=4 / vbv_maxrate=62500 / vbv_bufsize=78125 / crf_max=0.0 / nal_hrd=none / filler=0 / ip_ratio=1.40 / aq=1:1.00Encoded date : UTC 2017-04-12 13:17:28Tagged date : UTC 2017-04-12 18:31:19

AudioID : 2Format : AACFormat/Info : Advanced Audio CodecFormat profile : LCCodec ID : 40Duration : 1 h 42 minBit rate mode : VariableBit rate : 128 kb/sMaximum bit rate : 135 kb/sChannel(s) : 2 channelsChannel positions : Front: L RSampling rate : 48.0 kHzFrame rate : 46.875 FPS (1024 spf)Compression mode : LossyStream size : 93.8 MiB (4%)Title : DubLanguage : RussianEncoded date : UTC 2017-04-12 17:34:57Tagged date : UTC 2017-04-12 18:31:19


Трекер:  [ 13-Апр-2017 08:30 ]

  

Скачать .torrent

Размер .torrent файла 11 KB


Размер: 2.1 GB
Хэш (hash) релиза: cda67b05c0453c446d1efbed4d2d765cd65cc82c

Торренты, похожие на [VIDEO] Призраки в Коннектикуте The Haunting in Connecticut скачать торрент

Форум Название Автор Размер S L Добавлен
Видео (Фильмы/Клипы) ·· [VIDEO] Призраки в Коннектикуте 2: Тени прошлого / The Haunting in Connecticut 2: Ghosts of Georgia (Том Элкинс / Tom Elkins) [2013, ужасы, триллер, драма, детектив, BDRip] [MP4, 1280x] Galfimbul 23532580232.19 GB 0 0 1492351946

17:12

16-Апр-17

Еще никто не оставлял запись к записи скачать торрент [VIDEO] Призраки в Коннектикуте The Haunting in Connecticut . Будь первым!

!Обратная связь