Neues GEZ-Modell: Rundfunkbeitrag soll automatisch steigen – warum das gut ist | Télécharger Part 2 | Euphoria

Скачать через торрент [VIDEO] Другой мир: Пенталогия Underworld: Pentalogy бесплатно русская версия torrent активатор

Статистика раздачи
Размер:  7.63 GB   |    Зарегистрирован:  1 год 3 месяца   |    .torrent скачан:  38 раз   |   
Раздают:  1  
   
загрузка...
 
Автор Сообщение

Galfimbul

avatar Galfimbul


Другой мир: Пенталогия / Underworld: Pentalogy

Другой мир / Underworld (Theatrical cut)
«Во время финальной битвы вампиров и оборотней на чьей стороне будете Вы?»

Год выпуска: 2003
Страна: США, Германия, Великобритания, Венгрия / Lakeshore Entertainment
Жанр: фэнтези, боевик, триллер
Продолжительность: 02:01:13
Перевод №1: русский Профессиональный (полное дублирование) R5
Перевод №2: русский Авторский (одноголосый, закадровый) Е. Рудой
Перевод №3: русский Авторский (одноголосый, закадровый) Ю. Живов
Оригинальная дорожка: Есть
Cубтитры: русские (R5), английские (полные)
Режиссер: Лен Уайзман / Len Wiseman
В ролях: Кейт Бекинсейл (Selene), Скотт Спидман (Michael Corvin), Майкл Шин (Lucian), Шэйн Бролли (Kraven), Билл Найи (Viktor), Эрвин Ледер (Singe), София Майлс (Erika), Робби Ги (Kahn), Вентворт Миллер (Dr. Adam Lockwood), Кевин Гревье (Raze), Зита Горог (Amelia) и другие .
Описание: Столетиями властители царства мрака, вампиры и оборотни ведут беспощадную войну, невидимую человеческому взору. Бесстрашная Селина, воин-вампир, каждую ночь истребляет оборотней, влекомая неутолимой жаждой мести. Ее клан уверен, что вампирам удалось одержать верх над заклятыми врагами, но Селина подозревает, что у оборотней есть тайный план, сулящий гибель ее роду.
В центре этого плана — смертный парень Майкл. Его генетический код — ключ к созданию сверхсущества, которое будет бессмертно и неуязвимо. Теперь Селина должна любой ценой первой добраться до него, чтобы определить исход вечного противостояния двух могущественных рас, которых люди до сих пор считали мифом…
Релиз группы
Качество: BDRip / рип с Blu-ray disc 1080p
Формат: MP4
Видео кодек: H.264
Аудио кодек: AAC
Видео: 960x408 AR:2.35 1740 kbps 23.976 fps
Аудио №1: [Russian] 2ch 48 kHz 128 kbps - [Dub] Профессиональный (полное дублирование) R5
Аудио №2: [Russian] 2ch 48 kHz 128 kbps - [VO] Авторский (одноголосый, закадровый) Е. Рудой
Аудио №3: [Russian] 2ch 48 kHz 128 kbps - [VO] Авторский (одноголосый, закадровый) Ю. Живов
Аудио №4: [English] 2ch 48 kHz 128 kbps - Оригинал (английский)
<div class="sp-wrap">
<div class="sp-head folded">Logx264</div>
<div class="sp-body">avs [info]: 960x408p 1:1 @ 2997/125 fps (cfr)
x264 [info]: using SAR=1/1
x264 [info]: using cpu capabilities: MMX2 SSE2Fast SSSE3 SSE4.2 AVX FMA3 AVX2 LZCNT BMI2
x264 [info]: profile High, level 4.1

x264 [info]: frame I:1572 Avg QP:16.76 size: 53891
x264 [info]: frame P:37308 Avg QP:20.47 size: 17745
x264 [info]: frame B:135480 Avg QP:22.18 size: 6148
x264 [info]: consecutive B-frames: 2.8% 3.4% 7.3% 15.5% 16.4% 35.2% 7.4% 2.1% 3.0% 3.4% 3.5%
x264 [info]: mb I I16..4: 9.6% 69.1% 21.3%
x264 [info]: mb P I16..4: 0.9% 9.6% 1.5% P16..4: 32.3% 36.8% 10.7% 0.0% 0.0% skip: 8.2%
x264 [info]: mb B I16..4: 0.0% 0.8% 0.1% B16..8: 36.3% 17.7% 3.0% direct: 5.3% skip:36.7% L0:46.7% L1:45.1% BI: 8.2%
x264 [info]: 8x8 transform intra:78.0% inter:60.0%
x264 [info]: direct mvs spatial:97.6% temporal:2.4%
x264 [info]: coded y,uvDC,uvAC intra: 84.6% 75.3% 48.0% inter: 24.8% 22.0% 8.5%
x264 [info]: i16 v,h,dc,p: 38% 24% 4% 33%
x264 [info]: i8 v,h,dc,ddl,ddr,vr,hd,vl,hu: 10% 5% 7% 11% 16% 15% 14% 12% 12%
x264 [info]: i4 v,h,dc,ddl,ddr,vr,hd,vl,hu: 12% 6% 6% 11% 15% 14% 13% 11% 12%
x264 [info]: i8c dc,h,v,p: 40% 24% 18% 18%
x264 [info]: Weighted P-Frames: Y:17.8% UV:11.6%
x264 [info]: ref P L0: 44.0% 8.4% 18.8% 7.4% 6.2% 4.5% 4.1% 2.1% 2.1% 1.8% 0.5% 0.1%
x264 [info]: ref B L0: 66.8% 13.7% 7.6% 3.9% 2.8% 2.3% 1.9% 0.8% 0.3%
x264 [info]: ref B L1: 92.5% 7.5%
x264 [info]: kb/s:1737.73

encoded 174360 frames, 13.28 fps, 1737.73 kb/s
GeneralComplete name : D:\Torrents\Underworld Pentalogy.(Theatrical cut).2003-2016.BDRip.x264.960x\Underworld.(Theatrical cut).2003.BDRip.x264.960x.rip by Frost O.S.mp4Format : MPEG-4Format profile : Base MediaCodec ID : isom (isom/avc1/iso2)File size : 1.92 GiBDuration : 2 h 1 minOverall bit rate mode : VariableOverall bit rate : 2 268 kb/sMovie name : Underworld (Theatrical cut) 2003 BDRip x264 960x rip by Frost O SDirector : Лен Уайзман / Len WisemanActor : Кейт Бекинсейл (Selene) / Скотт Спидман (Michael Corvin) / Майкл Шин (Lucian) / Шэйн Бролли (Kraven) / Билл Найи (Viktor) / Эрвин Ледер (Singe) / София Майлс (Erika) / Робби Ги (Kahn) / Вентворт Миллер (Dr. Adam Lockwood) / Кевин Гревье (Raze) / Зита Горог (AmeliaGenre : ActionContentType : Short FilmEncoded date : UTC 2017-04-08 10:46:34Tagged date : UTC 2017-04-08 10:51:00Writing application : MkvToMp4 version: 0.224 (x64)Cover : YesComment : rip by Frost O.SLongDescription : Столетиями властители царства мрака, вампиры и оборотни ведут беспощадную войну, невидимую человеческому взору. Бесстрашная Селина, воин-вампир, каждую ночь истребляет оборотней, влекомая неутолимой жаждой мести. Ее клан уверен, что вампирам удалось одержать верх над заклятыми врагами, но Селина подозревает, что у оборотней есть тайный план, сулящий гибель ее роду. В центре этого плана — смертный парень Майкл. Его генетический код — ключ к созданию сверхсущества, которое будет бессмертно и неуязвимо. Теперь Селина должна любой ценой первой добраться до него, чтобы определить исход вечного противостояния двух могущественных рас, которых люди до сих пор считали мифом…

VideoID : 1Format : AVCFormat/Info : Advanced Video CodecFormat profile : [email protected] settings, CABAC : YesFormat settings, ReFrames : 10 framesCodec ID : avc1Codec ID/Info : Advanced Video CodingDuration : 2 h 1 minBit rate : 1 740 kb/sMaximum bit rate : 5 025 kb/sWidth : 960 pixelsHeight : 408 pixelsDisplay aspect ratio : 2.35:1Frame rate mode : ConstantFrame rate : 23.976 (24000/1001) FPSOriginal frame rate : 23.976 (23976/1000) FPSColor space : YUVChroma subsampling : 4:2:0Bit depth : 8 bitsScan type : ProgressiveBits/(Pixel*Frame) : 0.185Stream size : 1.47 GiB (77%)Writing library : x264 core 148 r2744 b97ae06Encoding settings : cabac=1 / ref=10 / deblock=1:-1:-1 / analyse=0x3:0x113 / me=umh / subme=11 / psy=1 / psy_rd=1.05:0.00 / mixed_ref=1 / me_range=32 / chroma_me=1 / trellis=2 / 8x8dct=1 / cqm=0 / deadzone=21,11 / fast_pskip=0 / chroma_qp_offset=-2 / threads=6 / lookahead_threads=1 / sliced_threads=0 / nr=0 / decimate=0 / interlaced=0 / bluray_compat=0 / constrained_intra=0 / bframes=10 / b_pyramid=2 / b_adapt=2 / b_bias=0 / direct=3 / weightb=1 / open_gop=0 / weightp=2 / keyint=250 / keyint_min=23 / scenecut=40 / intra_refresh=0 / rc=2pass / mbtree=0 / bitrate=1740 / ratetol=1.0 / qcomp=0.60 / qpmin=0 / qpmax=69 / qpstep=4 / cplxblur=20.0 / qblur=0.5 / ip_ratio=1.40 / pb_ratio=1.30 / aq=3:0.80Language : EnglishEncoded date : UTC 2017-04-08 10:46:34Tagged date : UTC 2017-04-08 10:48:12Color range : LimitedColor primaries : BT.709Transfer characteristics : BT.709Matrix coefficients : BT.709

Audio #1ID : 2Format : AACFormat/Info : Advanced Audio CodecFormat profile : LCCodec ID : 40Duration : 2 h 1 minBit rate mode : VariableBit rate : 128 kb/sMaximum bit rate : 135 kb/sChannel(s) : 2 channelsChannel positions : Front: L RSampling rate : 48.0 kHzFrame rate : 46.875 FPS (1024 spf)Compression mode : LossyStream size : 111 MiB (6%)Title : Dub_ R5 / Dub_ R5Language : RussianDefault : YesAlternate group : 1Encoded date : UTC 2017-04-08 10:47:40Tagged date : UTC 2017-04-08 10:48:12

Audio #2ID : 3Format : AACFormat/Info : Advanced Audio CodecFormat profile : LCCodec ID : 40Duration : 2 h 1 minBit rate mode : VariableBit rate : 128 kb/sMaximum bit rate : 135 kb/sChannel(s) : 2 channelsChannel positions : Front: L RSampling rate : 48.0 kHzFrame rate : 46.875 FPS (1024 spf)Compression mode : LossyStream size : 111 MiB (6%)Title : VO_ Rudoi / VO_ RudoiLanguage : RussianDefault : NoAlternate group : 1Encoded date : UTC 2017-04-08 10:47:49Tagged date : UTC 2017-04-08 10:48:12

Audio #3ID : 4Format : AACFormat/Info : Advanced Audio CodecFormat profile : LCCodec ID : 40Duration : 2 h 1 minBit rate mode : VariableBit rate : 128 kb/sMaximum bit rate : 135 kb/sChannel(s) : 2 channelsChannel positions : Front: L RSampling rate : 48.0 kHzFrame rate : 46.875 FPS (1024 spf)Compression mode : LossyStream size : 111 MiB (6%)Title : VO_ Zhuvov / VO_ ZhuvovLanguage : RussianDefault : NoAlternate group : 1Encoded date : UTC 2017-04-08 10:47:56Tagged date : UTC 2017-04-08 10:48:12

Audio #4ID : 5Format : AACFormat/Info : Advanced Audio CodecFormat profile : LCCodec ID : 40Duration : 2 h 1 minBit rate mode : VariableBit rate : 128 kb/sMaximum bit rate : 135 kb/sChannel(s) : 2 channelsChannel positions : Front: L RSampling rate : 48.0 kHzFrame rate : 46.875 FPS (1024 spf)Compression mode : LossyStream size : 111 MiB (6%)Title : Original / OriginalLanguage : EnglishDefault : NoAlternate group : 1Encoded date : UTC 2017-04-08 10:48:04Tagged date : UTC 2017-04-08 10:48:12

Text #1ID : 6Format : Timed TextMuxing mode : sbtlCodec ID : tx3gDuration : 1 h 54 minBit rate mode : VariableBit rate : 54 b/sStream size : 45.1 KiB (0%)Title : R5 / R5Language : RussianDefault : YesForced : NoAlternate group : 2Encoded date : UTC 2017-04-08 10:48:12Tagged date : UTC 2017-04-08 10:48:12

Text #2ID : 7Format : Timed TextMuxing mode : sbtlCodec ID : tx3gDuration : 1 h 53 minBit rate mode : VariableBit rate : 31 b/sStream size : 25.4 KiB (0%)Title : Full / FullLanguage : EnglishDefault : NoForced : NoAlternate group : 2Encoded date : UTC 2017-04-08 10:48:12Tagged date : UTC 2017-04-08 10:48:12
</div>
</div>
Другой мир 2: Эволюция / Underworld: Evolution (Theatrical cut)
«Новая глава. Новая раса. Новая битва»

Год выпуска: 2005
Страна: США / Lakeshore Entertainment, Screen Gems Inc.
Жанр: фантастика, фэнтези, боевик, триллер
Продолжительность: 01:46:22
Перевод №1: русский Профессиональный (полное дублирование)
Перевод №2: русский Профессиональный (многоголосый, закадровый) Киномания
Перевод №3: украинский Профессиональный (многоголосый, закадровый) ICTV
Перевод №4: русский Профессиональный (двухголосый, закадровый) Tycoon
Перевод №5: русский Авторский (одноголосый, закадровый) В. Королёв
Перевод №6: русский Авторский (одноголосый, закадровый) А. Гаврилов
Оригинальная дорожка: Есть
Cубтитры: русские (R5, Киномания), английские (полные)
Режиссер: Лен Уайзман / Len Wiseman
В ролях: Кейт Бекинсейл (Selene), Скотт Спидман (Michael), Тони Карран (Marcus), Дерек Джекоби (Corvinus), Билл Найи (Viktor), Стивен Макинтош (Tanis), Шэйн Бролли (Kraven), Брайан Стил (William), Зита Горог (Amelia), Скотт МакЭлрой (Soren) и другие .
Описание: В зловещем ночном мире, скрытом от взора простых смертных, не утихает беспощадная борьба между двумя кланами властителей мрака — вампирами и оборотнями. Настала пора узнать об истоках вековой вражды, ставшей для вампира-воительницы Селин и Майкла, полуоборотня-получеловека, проклятьем и смыслом существования.
Сражаясь с могущественными врагами из обоих кланов, древними магистрами смерти, они познают кровавую интригу и запретную любовь, чтобы в сумраке ночи раскрыть тайну своего происхождения и своего наследия. Их ждет великая битва, которая покончит с вечным противостоянием — последняя схватка ради окончания всех войн, в которой бессмертные должны понести кару и расплатиться за свои злодеяния…
Релиз группы
Качество: BDRip / рип с BDRemux 1080p
Формат: MP4
Видео кодек: H.264
Аудио кодек: AAC
Видео: 960x400 AR:2.40 1740 kbps 23.976 fps
Аудио №1: [Russian] 2ch 48 kHz 128 kbps - [Dub] Профессиональный (полное дублирование)
Аудио №2: [Russian] 2ch 48 kHz 128 kbps - [MVO] Профессиональный (многоголосый, закадровый) Киномания
Аудио №3: [Ukrainian] 2ch 48 kHz 128 kbps - [MVO] Профессиональный (многоголосый, закадровый) ICTV
Аудио №4: [Russian] 2ch 48 kHz 128 kbps - [DVO] Профессиональный (двухголосый, закадровый) Tycoon
Аудио №5: [Russian] 2ch 48 kHz 128 kbps - [VO] Авторский (одноголосый, закадровый) В. Королёв
Аудио №6: [Russian] 2ch 48 kHz 128 kbps - [VO] Авторский (одноголосый, закадровый) А. Гаврилов
Аудио №7: [English] 2ch 48 kHz 128 kbps - Оригинал (английский)
<div class="sp-wrap">
<div class="sp-head folded">Logx264</div>
<div class="sp-body">avs [info]: 960x400p 1:1 @ 2997/125 fps (cfr)
x264 [info]: using SAR=1/1
x264 [info]: using cpu capabilities: MMX2 SSE2Fast SSSE3 SSE4.2 AVX FMA3 AVX2 LZCNT BMI2
x264 [info]: profile High, level 4.1

x264 [info]: frame I:1633 Avg QP:16.99 size: 49770
x264 [info]: frame P:37991 Avg QP:21.08 size: 16600
x264 [info]: frame B:113374 Avg QP:22.58 size: 5927
x264 [info]: consecutive B-frames: 4.0% 5.0% 12.4% 22.4% 18.7% 27.9% 6.2% 3.6%
x264 [info]: mb I I16..4: 9.7% 69.9% 20.4%
x264 [info]: mb P I16..4: 0.7% 9.9% 1.7% P16..4: 30.6% 32.1% 10.3% 0.0% 0.0% skip:14.7%
x264 [info]: mb B I16..4: 0.1% 1.3% 0.2% B16..8: 34.2% 17.9% 3.2% direct: 4.9% skip:38.2% L0:45.2% L1:44.6% BI:10.2%
x264 [info]: 8x8 transform intra:78.5% inter:59.0%
x264 [info]: direct mvs spatial:96.9% temporal:3.1%
x264 [info]: coded y,uvDC,uvAC intra: 80.8% 72.3% 48.0% inter: 25.6% 16.0% 5.3%
x264 [info]: i16 v,h,dc,p: 45% 13% 13% 29%
x264 [info]: i8 v,h,dc,ddl,ddr,vr,hd,vl,hu: 7% 5% 10% 10% 15% 14% 14% 12% 13%
x264 [info]: i4 v,h,dc,ddl,ddr,vr,hd,vl,hu: 9% 6% 11% 9% 14% 14% 13% 11% 13%
x264 [info]: i8c dc,h,v,p: 37% 27% 18% 17%
x264 [info]: Weighted P-Frames: Y:19.9% UV:12.9%
x264 [info]: ref P L0: 47.2% 11.7% 16.7% 7.5% 5.2% 3.8% 3.3% 2.0% 1.9% 0.5% 0.1%
x264 [info]: ref B L0: 73.2% 11.2% 6.2% 3.7% 2.4% 1.8% 1.2% 0.4%
x264 [info]: ref B L1: 94.5% 5.5%
x264 [info]: kb/s:1734.88

encoded 152998 frames, 15.17 fps, 1734.88 kb/s
GeneralComplete name : D:\Torrents\Underworld Pentalogy.(Theatrical cut).2003-2016.BDRip.x264.960x\Underworld Evolution.(Theatrical cut).2005.BDRip.x264.960x.rip by Frost O.S.mp4Format : MPEG-4Format profile : Base MediaCodec ID : isom (isom/avc1/iso2)File size : 1.98 GiBDuration : 1 h 46 minOverall bit rate mode : VariableOverall bit rate : 2 660 kb/sMovie name : Underworld Evolution (Theatrical cut) 2005 BDRip x264 960x rip by Frost O SDirector : Лен Уайзман / Len WisemanActor : Кейт Бекинсейл (Selene) / Скотт Спидман (Michael) / Тони Карран (Marcus) / Дерек Джекоби (Corvinus) / Билл Найи (Viktor) / Стивен Макинтош (Tanis) / Шэйн Бролли (Kraven) / Брайан Стил (William) / Зита Горог (Amelia) / Скотт МакЭлрой (Soren)Genre : ActionContentType : Short FilmEncoded date : UTC 2017-04-08 11:00:30Tagged date : UTC 2017-04-08 11:05:32Writing application : MkvToMp4 version: 0.224 (x64)Cover : YesComment : rip by Frost O.SLongDescription : В зловещем ночном мире, скрытом от взора простых смертных, не утихает беспощадная борьба между двумя кланами властителей мрака — вампирами и оборотнями. Настала пора узнать об истоках вековой вражды, ставшей для вампира-воительницы Селин и Майкла, полуоборотня-получеловека, проклятьем и смыслом существования. Сражаясь с могущественными врагами из обоих кланов, древними магистрами смерти, они познают кровавую интригу и запретную любовь, чтобы в сумраке ночи раскрыть тайну своего происхождения и своего наследия. Их ждет великая битва, которая покончит с вечным противостоянием — последняя схватка ради окончания всех войн, в которой бессмертные должны понести кару и расплатиться за свои злодеяния…

VideoID : 1Format : AVCFormat/Info : Advanced Video CodecFormat profile : [email protected] settings, CABAC : YesFormat settings, ReFrames : 9 framesCodec ID : avc1Codec ID/Info : Advanced Video CodingDuration : 1 h 46 minBit rate : 1 740 kb/sMaximum bit rate : 6 963 kb/sWidth : 960 pixelsHeight : 400 pixelsDisplay aspect ratio : 2.40:1Frame rate mode : ConstantFrame rate : 23.976 (24000/1001) FPSOriginal frame rate : 23.976 (23976/1000) FPSColor space : YUVChroma subsampling : 4:2:0Bit depth : 8 bitsScan type : ProgressiveBits/(Pixel*Frame) : 0.189Stream size : 1.29 GiB (65%)Writing library : x264 core 148 r2744 b97ae06Encoding settings : cabac=1 / ref=9 / deblock=1:-1:-1 / analyse=0x3:0x113 / me=umh / subme=11 / psy=1 / psy_rd=1.05:0.00 / mixed_ref=1 / me_range=32 / chroma_me=1 / trellis=2 / 8x8dct=1 / cqm=0 / deadzone=21,11 / fast_pskip=0 / chroma_qp_offset=-2 / threads=6 / lookahead_threads=1 / sliced_threads=0 / nr=0 / decimate=0 / interlaced=0 / bluray_compat=0 / constrained_intra=0 / bframes=7 / b_pyramid=2 / b_adapt=2 / b_bias=0 / direct=3 / weightb=1 / open_gop=0 / weightp=2 / keyint=250 / keyint_min=23 / scenecut=40 / intra_refresh=0 / rc=2pass / mbtree=0 / bitrate=1740 / ratetol=1.0 / qcomp=0.65 / qpmin=0 / qpmax=69 / qpstep=4 / cplxblur=20.0 / qblur=0.5 / ip_ratio=1.40 / pb_ratio=1.30 / aq=3:0.80Language : EnglishEncoded date : UTC 2017-04-08 11:00:30Tagged date : UTC 2017-04-08 11:02:15Color range : LimitedColor primaries : BT.709Transfer characteristics : BT.709Matrix coefficients : BT.709

Audio #1ID : 2Format : AACFormat/Info : Advanced Audio CodecFormat profile : LCCodec ID : 40Duration : 1 h 46 minBit rate mode : VariableBit rate : 128 kb/sMaximum bit rate : 135 kb/sChannel(s) : 2 channelsChannel positions : Front: L RSampling rate : 48.0 kHzFrame rate : 46.875 FPS (1024 spf)Compression mode : LossyStream size : 97.4 MiB (5%)Title : Dub / DubLanguage : RussianDefault : YesAlternate group : 1Encoded date : UTC 2017-04-08 11:01:10Tagged date : UTC 2017-04-08 11:02:15

Audio #2ID : 3Format : AACFormat/Info : Advanced Audio CodecFormat profile : LCCodec ID : 40Duration : 1 h 46 minBit rate mode : VariableBit rate : 128 kb/sMaximum bit rate : 135 kb/sChannel(s) : 2 channelsChannel positions : Front: L RSampling rate : 48.0 kHzFrame rate : 46.875 FPS (1024 spf)Compression mode : LossyStream size : 97.4 MiB (5%)Title : MVO_ Kinomaniya / MVO_ KinomaniyaLanguage : RussianDefault : NoAlternate group : 1Encoded date : UTC 2017-04-08 11:01:30Tagged date : UTC 2017-04-08 11:02:15

Audio #3ID : 4Format : AACFormat/Info : Advanced Audio CodecFormat profile : LCCodec ID : 40Duration : 1 h 46 minBit rate mode : VariableBit rate : 128 kb/sMaximum bit rate : 135 kb/sChannel(s) : 2 channelsChannel positions : Front: L RSampling rate : 48.0 kHzFrame rate : 46.875 FPS (1024 spf)Compression mode : LossyStream size : 97.4 MiB (5%)Title : MVO_ ICTV / MVO_ ICTVLanguage : UkrainianDefault : NoAlternate group : 1Encoded date : UTC 2017-04-08 11:01:41Tagged date : UTC 2017-04-08 11:02:15

Audio #4ID : 5Format : AACFormat/Info : Advanced Audio CodecFormat profile : LCCodec ID : 40Duration : 1 h 46 minBit rate mode : VariableBit rate : 128 kb/sMaximum bit rate : 135 kb/sChannel(s) : 2 channelsChannel positions : Front: L RSampling rate : 48.0 kHzFrame rate : 46.875 FPS (1024 spf)Compression mode : LossyStream size : 97.4 MiB (5%)Title : DVO_ Tycoon / DVO_ TycoonLanguage : RussianDefault : NoAlternate group : 1Encoded date : UTC 2017-04-08 11:01:49Tagged date : UTC 2017-04-08 11:02:15

Audio #5ID : 6Format : AACFormat/Info : Advanced Audio CodecFormat profile : LCCodec ID : 40Duration : 1 h 46 minBit rate mode : VariableBit rate : 128 kb/sMaximum bit rate : 135 kb/sChannel(s) : 2 channelsChannel positions : Front: L RSampling rate : 48.0 kHzFrame rate : 46.875 FPS (1024 spf)Compression mode : LossyStream size : 97.4 MiB (5%)Title : VO_ Korolev / VO_ KorolevLanguage : RussianDefault : NoAlternate group : 1Encoded date : UTC 2017-04-08 11:01:55Tagged date : UTC 2017-04-08 11:02:15

Audio #6ID : 7Format : AACFormat/Info : Advanced Audio CodecFormat profile : LCCodec ID : 40Duration : 1 h 46 minBit rate mode : VariableBit rate : 128 kb/sMaximum bit rate : 135 kb/sChannel(s) : 2 channelsChannel positions : Front: L RSampling rate : 48.0 kHzFrame rate : 46.875 FPS (1024 spf)Compression mode : LossyStream size : 97.4 MiB (5%)Title : VO_ Gavrilov / VO_ GavrilovLanguage : RussianDefault : NoAlternate group : 1Encoded date : UTC 2017-04-08 11:02:01Tagged date : UTC 2017-04-08 11:02:15

Audio #7ID : 8Format : AACFormat/Info : Advanced Audio CodecFormat profile : LCCodec ID : 40Duration : 1 h 46 minBit rate mode : VariableBit rate : 128 kb/sMaximum bit rate : 135 kb/sChannel(s) : 2 channelsChannel positions : Front: L RSampling rate : 48.0 kHzFrame rate : 46.875 FPS (1024 spf)Compression mode : LossyStream size : 97.4 MiB (5%)Title : Original / OriginalLanguage : EnglishDefault : NoAlternate group : 1Encoded date : UTC 2017-04-08 11:02:08Tagged date : UTC 2017-04-08 11:02:15

Text #1ID : 9Format : Timed TextMuxing mode : sbtlCodec ID : tx3gDuration : 1 h 40 minBit rate mode : VariableBit rate : 47 b/sStream size : 34.4 KiB (0%)Title : R5 / R5Language : RussianDefault : YesForced : NoAlternate group : 2Encoded date : UTC 2017-04-08 11:02:15Tagged date : UTC 2017-04-08 11:02:15

Text #2ID : 10Format : Timed TextMuxing mode : sbtlCodec ID : tx3gDuration : 1 h 40 minBit rate mode : VariableBit rate : 42 b/sStream size : 30.5 KiB (0%)Title : Konomaniya / KonomaniyaLanguage : RussianDefault : NoForced : NoAlternate group : 2Encoded date : UTC 2017-04-08 11:02:15Tagged date : UTC 2017-04-08 11:02:15

Text #3ID : 11Format : Timed TextMuxing mode : sbtlCodec ID : tx3gDuration : 1 h 38 minBit rate mode : VariableBit rate : 22 b/sStream size : 16.0 KiB (0%)Title : Full / FullLanguage : EnglishDefault : NoForced : NoAlternate group : 2Encoded date : UTC 2017-04-08 11:02:15Tagged date : UTC 2017-04-08 11:02:15
</div>
</div>
Другой мир: Восстание ликанов / Underworld: Rise of the Lycans (Theatrical cut)
«У каждой войны есть начало»

Год выпуска: 2008
Страна: США, Новая Зеландия / Lakeshore Entertainment, Screen Gems Inc.
Жанр: фантастика, фэнтези, боевик, триллер, приключения
Продолжительность: 01:32:28
Перевод №1: русский Профессиональный (полное дублирование)
Перевод №2: украинский Профессиональный (полное дублирование)
Перевод №3: русский Авторский (одноголосый, закадровый) В. Королёв
Оригинальная дорожка: Есть
Cубтитры: русские (полные), английские (полные)
Режиссер: Патрик Татопулос / Patrick Tatopoulos
В ролях: Майкл Шин (Lucian), Билл Найи (Viktor), Рона Митра (Sonja), Стивен Макинтош (Tannis), Кевин Гревье (Raze), Дэвид Эстон (Coloman), Джеральдин Брофи (Nobleman's Wife), Лейтон Кардно (Fearful Lycan), Алекс Кэрролл (Young Lucian), Элизабет Хоторн (Orsova) и другие .
Описание: История, прослеживающая происхождение вековой кровной мести, между аристократическими вампирами, известными как Торговцы смертью и их рабами. Молодой ликан по имени Люциан — мощный лидер, который сплачивает оборотней, чтобы выступить против Виктора, жестокого короля вампиров, который поработил их. К Люциану присоединяется Соня, и помогает ему в его борьбе против смертоносной армии торговцев смертью и борьбе за свободу ликанов.
Релиз группы
Качество: BDRip / рип с Blu-ray disc 1080p
Формат: MP4
Видео кодек: H.264
Аудио кодек: AAC
Видео: 960x400 AR:2.40 1740 kbps 23.976 fps
Аудио №1: [Russian] 2ch 48 kHz 128 kbps - [Dub] Профессиональный (полное дублирование)
Аудио №2: [Ukrainian] 2ch 48 kHz 128 kbps - [Dub] Профессиональный (полное дублирование)
Аудио №3: [Russian] 2ch 48 kHz 128 kbps - [VO] Авторский (одноголосый, закадровый) В. Королёв
Аудио №4: [English] 2ch 48 kHz 128 kbps - Оригинал (английский)
<div class="sp-wrap">
<div class="sp-head folded">Logx264</div>
<div class="sp-body">avs [info]: 960x400p 1:1 @ 2997/125 fps (cfr)
x264 [info]: using SAR=1/1
x264 [info]: using cpu capabilities: MMX2 SSE2Fast SSSE3 SSE4.2 AVX FMA3 AVX2 LZCNT BMI2
x264 [info]: profile High, level 4.1

x264 [info]: frame I:1350 Avg QP:17.40 size: 63373
x264 [info]: frame P:31446 Avg QP:20.54 size: 17279
x264 [info]: frame B:100237 Avg QP:22.23 size: 5740
x264 [info]: consecutive B-frames: 3.9% 3.7% 9.9% 19.8% 14.9% 37.0% 6.8% 4.0%
x264 [info]: mb I I16..4: 15.1% 63.3% 21.5%
x264 [info]: mb P I16..4: 0.6% 6.3% 1.2% P16..4: 32.6% 37.2% 11.2% 0.0% 0.0% skip:11.0%
x264 [info]: mb B I16..4: 0.0% 0.6% 0.1% B16..8: 36.9% 14.9% 2.3% direct: 4.7% skip:40.5% L0:44.8% L1:46.7% BI: 8.5%
x264 [info]: 8x8 transform intra:73.9% inter:55.9%
x264 [info]: direct mvs spatial:97.6% temporal:2.4%
x264 [info]: coded y,uvDC,uvAC intra: 89.7% 88.9% 75.2% inter: 21.4% 20.7% 8.5%
x264 [info]: i16 v,h,dc,p: 18% 12% 20% 50%
x264 [info]: i8 v,h,dc,ddl,ddr,vr,hd,vl,hu: 8% 6% 7% 11% 15% 14% 13% 13% 12%
x264 [info]: i4 v,h,dc,ddl,ddr,vr,hd,vl,hu: 10% 6% 6% 10% 15% 14% 13% 12% 13%
x264 [info]: i8c dc,h,v,p: 45% 19% 17% 19%
x264 [info]: Weighted P-Frames: Y:19.5% UV:12.6%
x264 [info]: ref P L0: 45.5% 9.0% 17.4% 7.0% 6.7% 4.3% 3.9% 2.0% 1.9% 1.6% 0.5% 0.1%
x264 [info]: ref B L0: 71.7% 11.7% 6.0% 3.1% 3.4% 2.0% 1.4% 0.6% 0.2%
x264 [info]: ref B L1: 93.9% 6.1%
x264 [info]: kb/s:1736.31

encoded 133033 frames, 14.10 fps, 1736.31 kb/s
GeneralComplete name : D:\Torrents\Underworld Pentalogy.(Theatrical cut).2003-2016.BDRip.x264.960x\Underworld Rise of the Lycans.(Theatrical cut).2008.BDRip.x264.960x.rip by Frost O.S.mp4Format : MPEG-4Format profile : Base MediaCodec ID : isom (isom/avc1/iso2)File size : 1.46 GiBDuration : 1 h 32 minOverall bit rate mode : VariableOverall bit rate : 2 267 kb/sMovie name : Underworld Rise of the Lycans (Theatrical cut) 2008 BDRip x264 960x rip by Frost O SDirector : Патрик Татопулос / Patrick TatopoulosActor : Майкл Шин (Lucian) / Билл Найи (Viktor) / Рона Митра (Sonja) / Стивен Макинтош (Tannis) / Кевин Гревье (Raze) / Дэвид Эстон (Coloman) / Джеральдин Брофи (Nobleman's Wife) / Лейтон Кардно (Fearful Lycan) / Алекс Кэрролл (Young Lucian) / Элизабет Хоторн (OrsovaGenre : ActionContentType : Short FilmEncoded date : UTC 2017-04-08 11:21:09Tagged date : UTC 2017-04-08 11:23:37Writing application : MkvToMp4 version: 0.224 (x64)Cover : YesComment : rip by Frost O.SLongDescription : История, прослеживающая происхождение вековой кровной мести, между аристократическими вампирами, известными как Торговцы смертью и их рабами. Молодой ликан по имени Люциан — мощный лидер, который сплачивает оборотней, чтобы выступить против Виктора, жестокого короля вампиров, который поработил их. К Люциану присоединяется Соня, и помогает ему в его борьбе против смертоносной армии торговцев смертью и борьбе за свободу ликанов.

VideoID : 1Format : AVCFormat/Info : Advanced Video CodecFormat profile : [email protected] settings, CABAC : YesFormat settings, ReFrames : 10 framesCodec ID : avc1Codec ID/Info : Advanced Video CodingDuration : 1 h 32 minBit rate : 1 740 kb/sMaximum bit rate : 6 774 kb/sWidth : 960 pixelsHeight : 400 pixelsDisplay aspect ratio : 2.40:1Frame rate mode : ConstantFrame rate : 23.976 (24000/1001) FPSOriginal frame rate : 23.976 (23976/1000) FPSColor space : YUVChroma subsampling : 4:2:0Bit depth : 8 bitsScan type : ProgressiveBits/(Pixel*Frame) : 0.189Stream size : 1.12 GiB (77%)Writing library : x264 core 148 r2744 b97ae06Encoding settings : cabac=1 / ref=10 / deblock=1:-2:-1 / analyse=0x3:0x113 / me=umh / subme=11 / psy=1 / psy_rd=1.15:0.20 / mixed_ref=1 / me_range=32 / chroma_me=1 / trellis=2 / 8x8dct=1 / cqm=0 / deadzone=21,11 / fast_pskip=0 / chroma_qp_offset=-3 / threads=6 / lookahead_threads=1 / sliced_threads=0 / nr=0 / decimate=0 / interlaced=0 / bluray_compat=0 / constrained_intra=0 / bframes=7 / b_pyramid=2 / b_adapt=2 / b_bias=0 / direct=3 / weightb=1 / open_gop=0 / weightp=2 / keyint=250 / keyint_min=23 / scenecut=40 / intra_refresh=0 / rc=2pass / mbtree=0 / bitrate=1740 / ratetol=1.0 / qcomp=0.65 / qpmin=0 / qpmax=69 / qpstep=4 / cplxblur=20.0 / qblur=0.5 / ip_ratio=1.40 / pb_ratio=1.30 / aq=3:0.40Language : EnglishEncoded date : UTC 2017-04-08 11:21:09Tagged date : UTC 2017-04-08 11:22:07Color range : LimitedColor primaries : BT.709Transfer characteristics : BT.709Matrix coefficients : BT.709

Audio #1ID : 2Format : AACFormat/Info : Advanced Audio CodecFormat profile : LCCodec ID : 40Duration : 1 h 32 minBit rate mode : VariableBit rate : 128 kb/sMaximum bit rate : 135 kb/sChannel(s) : 2 channelsChannel positions : Front: L RSampling rate : 48.0 kHzFrame rate : 46.875 FPS (1024 spf)Compression mode : LossyStream size : 84.7 MiB (6%)Title : Dub / DubLanguage : RussianDefault : YesAlternate group : 1Encoded date : UTC 2017-04-08 11:21:28Tagged date : UTC 2017-04-08 11:22:07

Audio #2ID : 3Format : AACFormat/Info : Advanced Audio CodecFormat profile : LCCodec ID : 40Duration : 1 h 32 minBit rate mode : VariableBit rate : 128 kb/sMaximum bit rate : 135 kb/sChannel(s) : 2 channelsChannel positions : Front: L RSampling rate : 48.0 kHzFrame rate : 46.875 FPS (1024 spf)Compression mode : LossyStream size : 84.7 MiB (6%)Title : Dub / DubLanguage : UkrainianDefault : NoAlternate group : 1Encoded date : UTC 2017-04-08 11:21:39Tagged date : UTC 2017-04-08 11:22:07

Audio #3ID : 4Format : AACFormat/Info : Advanced Audio CodecFormat profile : LCCodec ID : 40Duration : 1 h 32 minBit rate mode : VariableBit rate : 128 kb/sMaximum bit rate : 135 kb/sChannel(s) : 2 channelsChannel positions : Front: L RSampling rate : 48.0 kHzFrame rate : 46.875 FPS (1024 spf)Compression mode : LossyStream size : 84.7 MiB (6%)Title : VO_ Korolev / VO_ KorolevLanguage : RussianDefault : NoAlternate group : 1Encoded date : UTC 2017-04-08 11:21:49Tagged date : UTC 2017-04-08 11:22:07

Audio #4ID : 5Format : AACFormat/Info : Advanced Audio CodecFormat profile : LCCodec ID : 40Duration : 1 h 32 minBit rate mode : VariableBit rate : 128 kb/sMaximum bit rate : 135 kb/sChannel(s) : 2 channelsChannel positions : Front: L RSampling rate : 48.0 kHzFrame rate : 46.875 FPS (1024 spf)Compression mode : LossyStream size : 84.7 MiB (6%)Title : Original / OriginalLanguage : EnglishDefault : NoAlternate group : 1Encoded date : UTC 2017-04-08 11:21:58Tagged date : UTC 2017-04-08 11:22:07

Text #1ID : 6Format : Timed TextMuxing mode : sbtlCodec ID : tx3gDuration : 1 h 24 minBit rate mode : VariableBit rate : 55 b/sStream size : 34.1 KiB (0%)Title : Full / FullLanguage : RussianDefault : YesForced : NoAlternate group : 2Encoded date : UTC 2017-04-08 11:22:07Tagged date : UTC 2017-04-08 11:22:07

Text #2ID : 7Format : Timed TextMuxing mode : sbtlCodec ID : tx3gDuration : 1 h 28 minBit rate mode : VariableBit rate : 35 b/sStream size : 22.9 KiB (0%)Title : Full / FullLanguage : EnglishDefault : NoForced : NoAlternate group : 2Encoded date : UTC 2017-04-08 11:22:07Tagged date : UTC 2017-04-08 11:22:07
</div>
</div>


Трекер:  [ 11-Апр-2017 10:30 ]

  

Скачать .torrent

Размер .torrent файла 20 KB


Размер: 7.63 GB
Хэш (hash) релиза: ddfd4671dd5dd8f2b7a32674ca441cc020df5ba9

Еще никто не оставлял запись к записи скачать торрент [VIDEO] Другой мир: Пенталогия Underworld: Pentalogy . Будь первым!

!Обратная связь