Clinical Psychology | Blutsbande | VAN SON 51 In Ha Noi Mua Thu Tinh Yeu 2015.Bluray.HD.720P.x264.DD.2.0 Coti.m...

Скачать через торрент [VIDEO] Изгой-один: Звёздные войны. Истории Rogue One: A Star Wars Story Wars бесплатно русская версия torrent активатор

Статистика раздачи
Размер:  2 GB   |    Зарегистрирован:  1 год 3 месяца   |    .torrent скачан:  33 раза   |   
Раздают:  1  
   
загрузка...
 
Автор Сообщение

Galfimbul

avatar Galfimbul


Изгой-один: Звёздные войны. Истории / Rogue One: A Star Wars Story
«Мятеж с надеждой в сердце»

Год выпуска: 2016
Страна: США, Великобритания
Жанр: фантастика, боевик, приключения
Продолжительность: 02:13:57
Перевод №1: Русский Профессиональный (полное дублирование) Blu-ray EUR
Перевод №2: Украинский Профессиональный (полное дублирование) Disney / Buena Vista
Оригинальная дорожка: Есть
Cубтитры: русские (Forced iTunes, iTunes), английские (Forced iTunes, iTunes)
Режиссер: Гарет Эдвардс / Gareth Edwards
В ролях: Фелисити Джонс, Диего Луна, Алан Тьюдик, Донни Йен, Цзян Вэнь, Бен Мендельсон, Форест Уитакер, Риз Ахмед, Мадс Миккельсен, Джимми Смитс и другие .
Описание: Сопротивление собирает отряд для выполнения особой миссии — надо выкрасть чертежи самого совершенного и смертоносного оружия Империи. Возглавляет бойцов неуправляемая и бесстрашная Джин Эрсо, у которой в этом самоубийственном задании есть и личные мотивы. Не всем суждено вернуться домой, но герои готовы к этому, ведь на кону судьба Галактики.
Релиз группы
Качество: BDRip / рип с Blu-Ray Disc 1080p EUR
Формат: MP4
Видео кодек: H.264
Аудио кодек: AAC
Видео: 960х402 AR:2.40 1740 kbps 23.976 fps
Аудио №1: [Russian] 2ch 48 kHz 128 kbps - Профессиональный (полное дублирование) Blu-ray EUR
Аудио №2: [Ukrainian] 2ch 48 kHz 128 kbps - Профессиональный (полное дублирование) Disney / Buena Vista
Аудио №3: [English] 2ch 48 kHz 128 kbps - Оригинал
avs [info]: 960x402p 1:1 @ 2997/125 fps (cfr)
x264 [info]: using SAR=1/1
x264 [info]: using cpu capabilities: MMX2 SSE2Fast SSSE3 SSE4.2 AVX FMA3 AVX2 LZCNT BMI2
x264 [info]: profile High, level 4.1

x264 [info]: frame I:1850 Avg QP:13.88 size: 55168
x264 [info]: frame P:44276 Avg QP:17.50 size: 18124
x264 [info]: frame B:146576 Avg QP:19.55 size: 5756
x264 [info]: consecutive B-frames: 3.4% 3.5% 11.6% 17.2% 16.3% 31.3% 8.5% 1.6% 3.4% 3.2%
x264 [info]: mb I I16..4: 3.6% 78.2% 18.1%
x264 [info]: mb P I16..4: 0.7% 9.5% 2.1% P16..4: 30.4% 40.3% 12.3% 0.0% 0.0% skip: 4.7%
x264 [info]: mb B I16..4: 0.1% 1.0% 0.3% B16..8: 39.8% 23.1% 3.1% direct: 4.1% skip:28.5% L0:45.5% L1:45.4% BI: 9.1%
x264 [info]: 8x8 transform intra:76.3% inter:58.8%
x264 [info]: direct mvs spatial:97.4% temporal:2.6%
x264 [info]: coded y,uvDC,uvAC intra: 88.1% 73.7% 43.0% inter: 23.7% 14.8% 4.5%
x264 [info]: i16 v,h,dc,p: 16% 10% 4% 70%
x264 [info]: i8 v,h,dc,ddl,ddr,vr,hd,vl,hu: 15% 7% 6% 10% 13% 13% 13% 12% 12%
x264 [info]: i4 v,h,dc,ddl,ddr,vr,hd,vl,hu: 30% 6% 4% 8% 12% 11% 11% 9% 10%
x264 [info]: i8c dc,h,v,p: 32% 33% 21% 14%
x264 [info]: Weighted P-Frames: Y:16.2% UV:10.2%
x264 [info]: ref P L0: 47.2% 9.3% 17.6% 7.2% 5.7% 3.9% 3.6% 2.3% 2.6% 0.5% 0.1%
x264 [info]: ref B L0: 73.2% 12.2% 6.2% 3.0% 2.3% 1.7% 1.0% 0.5%
x264 [info]: ref B L1: 94.2% 5.8%
x264 [info]: kb/s:1740.05

encoded 192702 frames, 14.01 fps, 1740.05 kb/s
GeneralComplete name : D:\Torrents\Rogue One A Star Wars Story.2016.BDRip.x264.960x.rip by Frost O.S.mp4Format : MPEG-4Format profile : Base MediaCodec ID : isom (isom/avc1/iso2)File size : 2.00 GiBDuration : 2 h 13 minOverall bit rate mode : VariableOverall bit rate : 2 139 kb/sMovie name : Rogue One A Star Wars Story 2016 BDRip x264 960x rip by Frost O SDirector : Гарет Эдвардс / Gareth EdwardsActor : Фелисити Джонс / Диего Луна / Алан Тьюдик / Донни Йен / Цзян Вэнь / Бен Мендельсон / Форест Уитакер / Риз Ахмед / Мадс Миккельсен / Джимми СмитсGenre : ActionContentType : Short FilmEncoded date : UTC 2017-04-10 15:03:13Tagged date : UTC 2017-04-10 15:06:09Writing application : MkvToMp4 version: 0.224 (x64)Cover : YesComment : rip by Frost O.SLongDescription : Сопротивление собирает отряд для выполнения особой миссии — надо выкрасть чертежи самого совершенного и смертоносного оружия Империи. Возглавляет бойцов неуправляемая и бесстрашная Джин Эрсо, у которой в этом самоубийственном задании есть и личные мотивы. Не всем суждено вернуться домой, но герои готовы к этому, ведь на кону судьба Галактики.

VideoID : 1Format : AVCFormat/Info : Advanced Video CodecFormat profile : [email protected] settings, CABAC : YesFormat settings, ReFrames : 9 framesCodec ID : avc1Codec ID/Info : Advanced Video CodingDuration : 2 h 13 minBit rate : 1 740 kb/sMaximum bit rate : 9 511 kb/sWidth : 960 pixelsHeight : 402 pixelsDisplay aspect ratio : 2.40:1Frame rate mode : ConstantFrame rate : 23.976 (24000/1001) FPSOriginal frame rate : 23.976 (23976/1000) FPSColor space : YUVChroma subsampling : 4:2:0Bit depth : 8 bitsScan type : ProgressiveBits/(Pixel*Frame) : 0.188Stream size : 1.63 GiB (81%)Writing library : x264 core 148 r2744 b97ae06Encoding settings : cabac=1 / ref=9 / deblock=1:-2:-2 / analyse=0x3:0x113 / me=umh / subme=11 / psy=1 / psy_rd=1.00:0.00 / mixed_ref=1 / me_range=32 / chroma_me=1 / trellis=2 / 8x8dct=1 / cqm=0 / deadzone=21,11 / fast_pskip=0 / chroma_qp_offset=-2 / threads=6 / lookahead_threads=1 / sliced_threads=0 / nr=0 / decimate=0 / interlaced=0 / bluray_compat=0 / constrained_intra=0 / bframes=9 / b_pyramid=2 / b_adapt=2 / b_bias=0 / direct=3 / weightb=1 / open_gop=0 / weightp=2 / keyint=250 / keyint_min=23 / scenecut=40 / intra_refresh=0 / rc=2pass / mbtree=0 / bitrate=1740 / ratetol=1.0 / qcomp=0.80 / qpmin=0 / qpmax=69 / qpstep=4 / cplxblur=20.0 / qblur=0.5 / ip_ratio=1.40 / pb_ratio=1.30 / aq=3:0.70Language : EnglishEncoded date : UTC 2017-04-10 15:03:13Tagged date : UTC 2017-04-10 15:04:26Color range : LimitedColor primaries : BT.709Transfer characteristics : BT.709Matrix coefficients : BT.709

Audio #1ID : 2Format : AACFormat/Info : Advanced Audio CodecFormat profile : LCCodec ID : 40Duration : 2 h 13 minBit rate mode : VariableBit rate : 128 kb/sMaximum bit rate : 135 kb/sChannel(s) : 2 channelsChannel positions : Front: L RSampling rate : 48.0 kHzFrame rate : 46.875 FPS (1024 spf)Compression mode : LossyStream size : 123 MiB (6%)Title : Dub_ Blu_ray EUR / Dub_ Blu_ray EURLanguage : RussianDefault : YesAlternate group : 1Encoded date : UTC 2017-04-10 15:04:01Tagged date : UTC 2017-04-10 15:04:26

Audio #2ID : 3Format : AACFormat/Info : Advanced Audio CodecFormat profile : LCCodec ID : 40Duration : 2 h 13 minBit rate mode : VariableBit rate : 128 kb/sMaximum bit rate : 135 kb/sChannel(s) : 2 channelsChannel positions : Front: L RSampling rate : 48.0 kHzFrame rate : 46.875 FPS (1024 spf)Compression mode : LossyStream size : 123 MiB (6%)Title : Dub_ _Disney_ Buena Vista_ / Dub_ _Disney_ Buena Vista_Language : UkrainianDefault : NoAlternate group : 1Encoded date : UTC 2017-04-10 15:04:09Tagged date : UTC 2017-04-10 15:04:26

Audio #3ID : 4Format : AACFormat/Info : Advanced Audio CodecFormat profile : LCCodec ID : 40Duration : 2 h 13 minBit rate mode : VariableBit rate : 128 kb/sMaximum bit rate : 135 kb/sChannel(s) : 2 channelsChannel positions : Front: L RSampling rate : 48.0 kHzFrame rate : 46.875 FPS (1024 spf)Compression mode : LossyStream size : 123 MiB (6%)Title : Original / OriginalLanguage : EnglishDefault : NoAlternate group : 1Encoded date : UTC 2017-04-10 15:04:17Tagged date : UTC 2017-04-10 15:04:26

Text #1ID : 5Format : Timed TextMuxing mode : sbtlCodec ID : tx3gDuration : 37 min 5 sBit rate mode : VariableBit rate : 1 b/sStream size : 353 Bytes (0%)Title : Forced_ iTunes / Forced_ iTunesLanguage : RussianDefault : YesForced : NoAlternate group : 2Encoded date : UTC 2017-04-10 15:04:25Tagged date : UTC 2017-04-10 15:04:26

Text #2ID : 6Format : Timed TextMuxing mode : sbtlCodec ID : tx3gDuration : 2 h 5 minBit rate mode : VariableBit rate : 87 b/sStream size : 80.0 KiB (0%)Title : iTunes / iTunesLanguage : RussianDefault : NoForced : NoAlternate group : 2Encoded date : UTC 2017-04-10 15:04:26Tagged date : UTC 2017-04-10 15:04:26

Text #3ID : 7Format : Timed TextMuxing mode : sbtlCodec ID : tx3gDuration : 1 h 23 minBit rate mode : VariableBit rate : 1 b/sStream size : 533 Bytes (0%)Title : Forced_ iTunes / Forced_ iTunesLanguage : EnglishDefault : NoForced : NoAlternate group : 2Encoded date : UTC 2017-04-10 15:04:26Tagged date : UTC 2017-04-10 15:04:26

Text #4ID : 8Format : Timed TextMuxing mode : sbtlCodec ID : tx3gDuration : 2 h 5 minBit rate mode : VariableBit rate : 57 b/sStream size : 52.5 KiB (0%)Title : iTunes / iTunesLanguage : EnglishDefault : NoForced : NoAlternate group : 2Encoded date : UTC 2017-04-10 15:04:26Tagged date : UTC 2017-04-10 15:04:26


Трекер:  [ 10-Апр-2017 17:00 ]

  

Скачать .torrent

Размер .torrent файла 10 KB


Размер: 2 GB
Хэш (hash) релиза: 100af852d9190eac4ef7090cf4249ce5466a0341

Торренты, похожие на [VIDEO] Изгой-один: Звёздные войны. Истории Rogue One: A Star Wars Story Wars скачать торрент

Форум Название Автор Размер S L Добавлен
Видео (Фильмы/Клипы) ·· [VIDEO] Изгой-один: Звёздные войны. Истории / Rogue One: A Star Wars Story Wars (Гарет Эдвардс / Gareth Edwards) [2016, фантастика, боевик, приключения, HDRip] [MP4, 480x] Dub Galfimbul 638028539608 MB 0 0 1491837904

18:25

10-Апр-17

Видео (Фильмы/Клипы) ·%· [VIDEO] Изгой-один: Звёздные войны. Истории / Rogue One: A Star Wars Story (Гарет Эдвардс / Gareth Edwards) [2016, фантастика, фэнтези, боевик, приключения, BDRip] [3GP, 320x] [Локализированный видеоряд] Galfimbul 482962581461 MB 0 0 1529397535

11:38

19-Июн-18

Видео (Фильмы/Клипы) ·%· [VIDEO] Изгой-один: Звёздные войны. Истории / Rogue One: A Star Wars Story (Гарет Эдвардс / Gareth Edwards) [2016, фантастика, фэнтези, боевик, приключения, BDRip] [MP4, 1280x] [Локализированный видеоряд] Galfimbul 37919289103.53 GB 0 0 1529397476

11:37

19-Июн-18

Видео (Фильмы/Клипы) ·%· [VIDEO] Изгой-один: Звёздные войны. Истории / Rogue One: A Star Wars Story (Гарет Эдвардс / Gareth Edwards) [2016, фантастика, фэнтези, боевик, приключения, BDRip] [MP4, 960x] [Локализированный видеоряд] Galfimbul 21911701172.04 GB 0 0 1529397468

11:37

19-Июн-18

Видео (Фильмы/Клипы) ·%· [VIDEO] Изгой-один: Звёздные войны. Истории / Rogue One: A Star Wars Story (Гарет Эдвардс / Gareth Edwards) [2016, фантастика, фэнтези, боевик, приключения, BDRip] [MP4, 480x] [Локализированный видеоряд] Galfimbul 629483405600 MB 0 0 1529397443

11:37

19-Июн-18

Еще никто не оставлял запись к записи скачать торрент [VIDEO] Изгой-один: Звёздные войны. Истории Rogue One: A Star Wars Story Wars . Будь первым!

!Обратная связь