Uma Dobra no Tempo Assistir Uma Dobra no Tempo 720p Dublado/Legendado Online Os irmãos Meg (Storm Reid) e Charles (Deric McCabe) decidem reencontrar o pai, um cientista que trabalha para o governo e está desaparecido desde que se envolveu em um misterioso projeto. Eles contarão com a ajuda do colega Calvin (Levi Miller) e de três excêntricas mulheres em uma ousada jornada por diferentes lugares ... | Australia | Kamisama Dolls

Скачать через торрент [VIDEO] Изгой-один: Звёздные войны. Истории Rogue One: A Star Wars Story Wars бесплатно русская версия torrent активатор

Статистика раздачи
Размер:  608 MB   |    Зарегистрирован:  1 год 3 месяца   |    .torrent скачан:  20 раз   |   
Раздают:  1  
   
загрузка...
 
Автор Сообщение

Galfimbul

avatar Galfimbul


Изгой-один: Звёздные войны. Истории / Rogue One: A Star Wars Story
«Мятеж с надеждой в сердце»

Год выпуска: 2016
Страна: США, Великобритания
Жанр: фантастика, боевик, приключения
Продолжительность: 02:13:57
Перевод: Русский Профессиональный (полное дублирование) Blu-ray EUR
Cубтитры: нет
Режиссер: Гарет Эдвардс / Gareth Edwards
В ролях: Фелисити Джонс, Диего Луна, Алан Тьюдик, Донни Йен, Цзян Вэнь, Бен Мендельсон, Форест Уитакер, Риз Ахмед, Мадс Миккельсен, Джимми Смитс и другие .
Описание: Сопротивление собирает отряд для выполнения особой миссии — надо выкрасть чертежи самого совершенного и смертоносного оружия Империи. Возглавляет бойцов неуправляемая и бесстрашная Джин Эрсо, у которой в этом самоубийственном задании есть и личные мотивы. Не всем суждено вернуться домой, но герои готовы к этому, ведь на кону судьба Галактики.
Релиз группы
Качество: HDRip / рип с BDRip 720p
Формат: MP4
Видео кодек: XviD
Аудио кодек: AAC
Видео: 480х200 AR:2.40 499 kbps 23.976 fps
Аудио: [Russian] 2ch 48 kHz 128 kbps - Профессиональный (полное дублирование) Blu-ray EUR
GeneralComplete name : D:\Torrents\Rogue One A Star Wars Story.2016.HDRip.XviD.480x.rip by Frost O.S.mp4Format : MPEG-4Format profile : Base MediaCodec ID : isom (isom/iso2)File size : 608 MiBDuration : 2 h 13 minOverall bit rate mode : VariableOverall bit rate : 635 kb/sMovie name : Rogue One A Star Wars Story 2016 HDRip XviD 480x rip by Frost O SDirector : Гарет Эдвардс / Gareth EdwardsActor : Фелисити Джонс / Диего Луна / Алан Тьюдик / Донни Йен / Цзян Вэнь / Бен Мендельсон / Форест Уитакер / Риз Ахмед / Мадс Миккельсен / Джимми СмитсGenre : ActionContentType : Short FilmEncoded date : UTC 2017-04-10 15:13:31Tagged date : UTC 2017-04-10 15:13:58Writing application : MkvToMp4 version: 0.224 (x64)Cover : YesComment : rip by Frost O.SLongDescription : Сопротивление собирает отряд для выполнения особой миссии — надо выкрасть чертежи самого совершенного и смертоносного оружия Империи. Возглавляет бойцов неуправляемая и бесстрашная Джин Эрсо, у которой в этом самоубийственном задании есть и личные мотивы. Не всем суждено вернуться домой, но герои готовы к этому, ведь на кону судьба Галактики.

VideoID : 1Format : MPEG-4 VisualFormat profile : Advanced [email protected] settings, BVOP : YesFormat settings, QPel : YesFormat settings, GMC : No warppointsFormat settings, Matrix : CustomCodec ID : 20Duration : 2 h 13 minBit rate mode : VariableBit rate : 499 kb/sMaximum bit rate : 3 506 kb/sWidth : 480 pixelsHeight : 200 pixelsDisplay aspect ratio : 2.40:1Frame rate mode : ConstantFrame rate : 23.976 (24000/1001) FPSOriginal frame rate : 23.976 (23976/1000) FPSColor space : YUVChroma subsampling : 4:2:0Bit depth : 8 bitsScan type : ProgressiveCompression mode : LossyBits/(Pixel*Frame) : 0.217Stream size : 478 MiB (79%)Title : avi_GPAC0.5.2_DEV_rev248_g39d5978_masterWriting library : XviD 1.2.1 (UTC 2008-12-04)Language : EnglishTagged date : UTC 2017-04-10 15:13:39

AudioID : 2Format : AACFormat/Info : Advanced Audio CodecFormat profile : LCCodec ID : 40Duration : 2 h 13 minBit rate mode : VariableBit rate : 128 kb/sMaximum bit rate : 135 kb/sChannel(s) : 2 channelsChannel positions : Front: L RSampling rate : 48.0 kHzFrame rate : 46.875 FPS (1024 spf)Compression mode : LossyStream size : 123 MiB (20%)Title : Dub_ Blu_ray EUR / Dub_ Blu_ray EURLanguage : RussianDefault : YesAlternate group : 1Encoded date : UTC 2017-04-10 15:13:37Tagged date : UTC 2017-04-10 15:13:39


Трекер:  [ 10-Апр-2017 17:00 ]

  

Скачать .torrent

Размер .torrent файла 12 KB


Размер: 608 MB
Хэш (hash) релиза: 7dbbbe736865799f50f2199d57be6fd083aa0f55

Торренты, похожие на [VIDEO] Изгой-один: Звёздные войны. Истории Rogue One: A Star Wars Story Wars скачать торрент

Форум Название Автор Размер S L Добавлен
Видео (Фильмы/Клипы) ·· [VIDEO] Изгой-один: Звёздные войны. Истории / Rogue One: A Star Wars Story Wars (Гарет Эдвардс / Gareth Edwards) [2016, фантастика, боевик, приключения, BDRip] [MP4, 960x] Dub (Rus, Ukr), Original, Sub (rus, eng) Galfimbul 21491464262 GB 0 0 1491837910

18:25

10-Апр-17

Видео (Фильмы/Клипы) ·%· [VIDEO] Изгой-один: Звёздные войны. Истории / Rogue One: A Star Wars Story (Гарет Эдвардс / Gareth Edwards) [2016, фантастика, фэнтези, боевик, приключения, BDRip] [3GP, 320x] [Локализированный видеоряд] Galfimbul 482962581461 MB 0 0 1529397535

11:38

19-Июн-18

Видео (Фильмы/Клипы) ·%· [VIDEO] Изгой-один: Звёздные войны. Истории / Rogue One: A Star Wars Story (Гарет Эдвардс / Gareth Edwards) [2016, фантастика, фэнтези, боевик, приключения, BDRip] [MP4, 1280x] [Локализированный видеоряд] Galfimbul 37919289103.53 GB 0 0 1529397476

11:37

19-Июн-18

Видео (Фильмы/Клипы) ·%· [VIDEO] Изгой-один: Звёздные войны. Истории / Rogue One: A Star Wars Story (Гарет Эдвардс / Gareth Edwards) [2016, фантастика, фэнтези, боевик, приключения, BDRip] [MP4, 960x] [Локализированный видеоряд] Galfimbul 21911701172.04 GB 0 0 1529397468

11:37

19-Июн-18

Видео (Фильмы/Клипы) ·%· [VIDEO] Изгой-один: Звёздные войны. Истории / Rogue One: A Star Wars Story (Гарет Эдвардс / Gareth Edwards) [2016, фантастика, фэнтези, боевик, приключения, BDRip] [MP4, 480x] [Локализированный видеоряд] Galfimbul 629483405600 MB 0 0 1529397443

11:37

19-Июн-18

Еще никто не оставлял запись к записи скачать торрент [VIDEO] Изгой-один: Звёздные войны. Истории Rogue One: A Star Wars Story Wars . Будь первым!

!Обратная связь