THAR | Ranjit Bawa Mp3 | Burak Yeter | Watch Movie

Скачать через торрент музыку Plastic Memories Пластиковые воспоминания - 2015 г., FLAC бесплатно без регистрации torrent

Статистика раздачи
Размер:  15.14 GB   |    Зарегистрирован:  1 год 3 месяца   |    .torrent скачан:  33 раза   |   
Раздают:  1  
   
загрузка...
 
Автор Сообщение

Galfimbul

avatar Galfimbul


Пластиковые воспоминанияОбщие характеристики:
Производство:
Год выпуска: 2015
Формат: +
Частота: 44100Гц
Продолжительность: 102 треков - 17:36:36
Альбомы:
<div class="sp-wrap">
<div class="sp-head folded">2015 - Character Song CD [ANZX-11332]</div>
<div class="sp-body">
Character Song CD
Список треков:
01. Suki Nano de. [4:29]
02. Suki Nano de. [Instrumental] [4:29]
03. Suki Nano de. [Guitar Ver.] [2:26]
Проверка:
<div class="post-box">
<div class="sp-wrap">
<div class="sp-head folded">Открыть</div>
<div class="sp-body">
<div class="sp-wrap">
<div class="sp-head folded">ЕАС Лог</div>
<div class="sp-body">

Exact Audio Copy V1.3 from 2. September 2016

EAC extraction logfile from 28. February 2017, 20:54

- / Plastic Memories - Character Song CD

Used drive : PLEXTOR CD-R PREMIUM2 Adapter: 1 ID: 2

Read mode : SecureUtilize accurate stream : YesDefeat audio cache : YesMake use of C2 pointers : No

Read offset correction : 30Overread into Lead-In and Lead-Out : YesFill up missing offset samples with silence : YesDelete leading and trailing silent blocks : NoNull samples used in CRC calculations : YesUsed interface : Native Win32 interface for Win NT & 2000Gap handling : Appended to previous track

Used output format : User Defined EncoderSelected bitrate : 1024 kBit/sQuality : HighAdd ID3 tag : NoCommand line compressor : C:\Program Files (x86)\Exact Audio Copy RIP\Flac\flac.exeAdditional command line options : -V -8 -T "Genre=%genre%" -T "Artist=%artist%" -T "Title=%title%" -T "Album=%albumtitle%" -T "Date=%year%" -T "Tracknumber=%tracknr%" -T "Comment=%comment%" %source%

TOC of the extracted CD

Track | Start | Length | Start sector | End sector --------------------------------------------------------- 1 | 0:00.00 | 4:29.01 | 0 | 20175 2 | 4:29.01 | 4:29.01 | 20176 | 40351 3 | 8:58.02 | 2:26.33 | 40352 | 51334

Track 1

Filename D:\Work\RIPs\01 - Suki Nano de..wav

Pre-gap length 0:00:02.00

Peak level 99.3 % Extraction speed 9.0 X Track quality 100.0 % Test CRC 3C107D29 Copy CRC 3C107D29 Track not present in AccurateRip database Copy OK

Track 2

Filename D:\Work\RIPs\02 - Suki Nano de. [Instrumental].wav

Pre-gap length 0:00:03.12

Peak level 99.5 % Extraction speed 9.9 X Track quality 100.0 % Test CRC 8D9C1DF8 Copy CRC 8D9C1DF8 Track not present in AccurateRip database Copy OK

Track 3

Filename D:\Work\RIPs\03 - Suki Nano de. [Guitar Ver.].wav

Pre-gap length 0:00:03.11

Peak level 96.9 % Extraction speed 8.3 X Track quality 99.9 % Test CRC EFFC2551 Copy CRC EFFC2551 Track not present in AccurateRip database Copy OK

None of the tracks are present in the AccurateRip database

No errors occurred

End of status report

---- CUETools DB Plugin V2.1.6

[CTDB TOCID: 88uv1zQ96yMIEUe65QSeh_V2jsM-] foundSubmit result: 88uv1zQ96yMIEUe65QSeh_V2jsM- has been confirmedTrack | CTDB Status 1 | (3/3) Accurately ripped 2 | (3/3) Accurately ripped 3 | (3/3) Accurately ripped

==== Log checksum 45B75677005F89E1721844FF2A2E9563391948EBE3D9F9B3AD8943DD9E1943AF ====
</div>
</div>
</div>
</div>
</div>
[spoiler="2015 - OST 1 [ANZX-11322]"]
OST 1
Список треков:
01. Memories [2:40]
02. Tsukasa [1:57]
03. Office Tohoho... [2:05]
04. Terminal Service [1:37]
05. Dotabata Days [2:10]
06. isla [1:59]
07. Tea Break Mission [1:42]
08. bye [1:50]
09. Accident [1:39]
10. Hi, there [2:07]
11. Honest [1:33]
12. Hell No [1:47]
13. uneasy [1:41]
14. What do you say? [1:51]
15. again & again [2:54]
Проверка:
<div class="post-box">
<div class="sp-wrap">
<div class="sp-head folded">Открыть</div>
<div class="sp-body">
<div class="sp-wrap">
<div class="sp-head folded">ЕАС Лог</div>
<div class="sp-body">

Exact Audio Copy V1.3 from 2. September 2016

EAC extraction logfile from 28. February 2017, 22:58

- / Plastic Memories - OST 1

Used drive : PLEXTOR CD-R PREMIUM2 Adapter: 1 ID: 2

Read mode : SecureUtilize accurate stream : YesDefeat audio cache : YesMake use of C2 pointers : No

Read offset correction : 30Overread into Lead-In and Lead-Out : YesFill up missing offset samples with silence : YesDelete leading and trailing silent blocks : NoNull samples used in CRC calculations : YesUsed interface : Native Win32 interface for Win NT & 2000Gap handling : Appended to previous track

Used output format : User Defined EncoderSelected bitrate : 1024 kBit/sQuality : HighAdd ID3 tag : NoCommand line compressor : C:\Program Files (x86)\Exact Audio Copy RIP\Flac\flac.exeAdditional command line options : -V -8 -T "Genre=%genre%" -T "Artist=%artist%" -T "Title=%title%" -T "Album=%albumtitle%" -T "Date=%year%" -T "Tracknumber=%tracknr%" -T "Comment=%comment%" %source%

TOC of the extracted CD

Track | Start | Length | Start sector | End sector --------------------------------------------------------- 1 | 0:00.00 | 2:39.47 | 0 | 11971 2 | 2:39.47 | 1:56.71 | 11972 | 20742 3 | 4:36.43 | 2:04.54 | 20743 | 30096 4 | 6:41.22 | 1:36.38 | 30097 | 37334 5 | 8:17.60 | 2:09.38 | 37335 | 47047 6 | 10:27.23 | 1:59.16 | 47048 | 55988 7 | 12:26.39 | 1:42.27 | 55989 | 63665 8 | 14:08.66 | 1:50.22 | 63666 | 71937 9 | 15:59.13 | 1:38.71 | 71938 | 79358 10 | 17:38.09 | 2:06.71 | 79359 | 88879 11 | 19:45.05 | 1:32.41 | 88880 | 95820 12 | 21:17.46 | 1:46.70 | 95821 | 103840 13 | 23:04.41 | 1:41.04 | 103841 | 111419 14 | 24:45.45 | 1:51.17 | 111420 | 119761 15 | 26:36.62 | 2:53.65 | 119762 | 132801

Track 1

Filename D:\Work\RIPs\01 - Memories.wav

Pre-gap length 0:00:02.00

Peak level 97.8 % Extraction speed 8.6 X Track quality 100.0 % Test CRC F79E69E9 Copy CRC F79E69E9 Track not present in AccurateRip database Copy OK

Track 2

Filename D:\Work\RIPs\02 - Tsukasa.wav

Pre-gap length 0:00:02.11

Peak level 98.4 % Extraction speed 8.8 X Track quality 100.0 % Test CRC E9C992FF Copy CRC E9C992FF Track not present in AccurateRip database Copy OK

Track 3

Filename D:\Work\RIPs\03 - Office Tohoho....wav

Pre-gap length 0:00:02.11

Peak level 87.1 % Extraction speed 9.2 X Track quality 100.0 % Test CRC FDD73FE6 Copy CRC FDD73FE6 Track not present in AccurateRip database Copy OK

Track 4

Filename D:\Work\RIPs\04 - Terminal Service.wav

Pre-gap length 0:00:01.66

Peak level 98.2 % Extraction speed 9.4 X Track quality 100.0 % Test CRC 8A76C206 Copy CRC 8A76C206 Track not present in AccurateRip database Copy OK

Track 5

Filename D:\Work\RIPs\05 - Dotabata Days.wav

Pre-gap length 0:00:02.49

Peak level 98.9 % Extraction speed 9.7 X Track quality 100.0 % Test CRC E1CFCA4E Copy CRC E1CFCA4E Track not present in AccurateRip database Copy OK

Track 6

Filename D:\Work\RIPs\06 - isla.wav

Pre-gap length 0:00:02.48

Peak level 76.9 % Extraction speed 8.0 X Track quality 99.9 % Test CRC 38B49616 Copy CRC 38B49616 Track not present in AccurateRip database Copy OK

Track 7

Filename D:\Work\RIPs\07 - Tea Break Mission.wav

Pre-gap length 0:00:01.49

Peak level 97.8 % Extraction speed 10.4 X Track quality 100.0 % Test CRC 4168DF49 Copy CRC 4168DF49 Track not present in AccurateRip database Copy OK

Track 8

Filename D:\Work\RIPs\08 - bye.wav

Pre-gap length 0:00:02.49

Peak level 85.5 % Extraction speed 10.6 X Track quality 100.0 % Test CRC AABB2E21 Copy CRC AABB2E21 Track not present in AccurateRip database Copy OK

Track 9

Filename D:\Work\RIPs\09 - Accident.wav

Pre-gap length 0:00:02.11

Peak level 97.9 % Extraction speed 7.8 X Track quality 99.8 % Test CRC F0972B9E Copy CRC F0972B9E Track not present in AccurateRip database Copy OK

Track 10

Filename D:\Work\RIPs\10 - Hi, there.wav

Pre-gap length 0:00:02.12

Peak level 98.1 % Extraction speed 11.2 X Track quality 100.0 % Test CRC 0C875517 Copy CRC 0C875517 Track not present in AccurateRip database Copy OK

Track 11

Filename D:\Work\RIPs\11 - Honest.wav

Pre-gap length 0:00:02.12

Peak level 97.8 % Extraction speed 11.0 X Track quality 100.0 % Test CRC 5BBBD2B0 Copy CRC 5BBBD2B0 Track not present in AccurateRip database Copy OK

Track 12

Filename D:\Work\RIPs\12 - Hell No.wav

Pre-gap length 0:00:02.11

Peak level 97.6 % Extraction speed 11.5 X Track quality 100.0 % Test CRC DEB06AA5 Copy CRC DEB06AA5 Track not present in AccurateRip database Copy OK

Track 13

Filename D:\Work\RIPs\13 - uneasy.wav

Pre-gap length 0:00:01.09

Peak level 55.8 % Extraction speed 11.6 X Track quality 100.0 % Test CRC 2295EDCA Copy CRC 2295EDCA Track not present in AccurateRip database Copy OK

Track 14

Filename D:\Work\RIPs\14 - What do you say.wav

Pre-gap length 0:00:03.49

Peak level 61.8 % Extraction speed 9.1 X Track quality 99.9 % Test CRC F45EDF4C Copy CRC F45EDF4C Track not present in AccurateRip database Copy OK

Track 15

Filename D:\Work\RIPs\15 - again & again.wav

Pre-gap length 0:00:03.50

Peak level 92.8 % Extraction speed 12.8 X Track quality 100.0 % Test CRC F0216366 Copy CRC F0216366 Track not present in AccurateRip database Copy OK

None of the tracks are present in the AccurateRip database

No errors occurred

End of status report

---- CUETools DB Plugin V2.1.6

[CTDB TOCID: W7L47Xxqfy5NMZ6ZOcZC6j8WQ4Y-] foundSubmit result: W7L47Xxqfy5NMZ6ZOcZC6j8WQ4Y- has been confirmedTrack | CTDB Status 1 | (15/15) Accurately ripped 2 | (15/15) Accurately ripped 3 | (15/15) Accurately ripped 4 | (15/15) Accurately ripped 5 | (15/15) Accurately ripped 6 | (15/15) Accurately ripped 7 | (15/15) Accurately ripped 8 | (15/15) Accurately ripped 9 | (15/15) Accurately ripped 10 | (15/15) Accurately ripped 11 | (15/15) Accurately ripped 12 | (15/15) Accurately ripped 13 | (15/15) Accurately ripped 14 | (15/15) Accurately ripped 15 | (15/15) Accurately ripped

==== Log checksum 7D908F6053FB280D1E17157BD63BFB6028EE29FF6D7E498CAD295CC83C018CFD ====
[/spoiler]
</div>
</div>
</div>
</div>
</div>
[spoiler="2015 - OST 2 [ANZX-11336]"]
OST 2
Список треков:
01. The First Promise [1:51]
02. Usual Behavior [2:13]
03. The another side of the truth [1:43]
04. The fact of the depression [1:39]
05. Work Work Work [2:18]
06. Stay with you [2:03]
07. Fancy Mode [1:45]
08. How can I do [2:13]
09. messy [1:33]
10. The Conference [2:15]
11. jack u [2:05]
12. Changing mind [1:39]
13. A visitor from the darkness [1:48]
14. Problem come to me [1:55]
15. Time Limit [1:54]
16. again & again [Instrumental ver.] [2:54]
Проверка:
<div class="post-box">
<div class="sp-wrap">
<div class="sp-head folded">Открыть</div>
<div class="sp-body">
<div class="sp-wrap">
<div class="sp-head folded">ЕАС Лог</div>
<div class="sp-body">

Exact Audio Copy V1.3 from 2. September 2016

EAC extraction logfile from 3. March 2017, 22:54

Masaru Yokoyama / Plastic Memories - OST 2

Used drive : PLEXTOR CD-R PREMIUM2 Adapter: 1 ID: 2

Read mode : SecureUtilize accurate stream : YesDefeat audio cache : YesMake use of C2 pointers : No

Read offset correction : 30Overread into Lead-In and Lead-Out : YesFill up missing offset samples with silence : YesDelete leading and trailing silent blocks : NoNull samples used in CRC calculations : YesUsed interface : Native Win32 interface for Win NT & 2000Gap handling : Appended to previous track

Used output format : User Defined EncoderSelected bitrate : 1024 kBit/sQuality : HighAdd ID3 tag : NoCommand line compressor : C:\Program Files (x86)\Exact Audio Copy RIP\Flac\flac.exeAdditional command line options : -V -8 -T "Genre=%genre%" -T "Artist=%artist%" -T "Title=%title%" -T "Album=%albumtitle%" -T "Date=%year%" -T "Tracknumber=%tracknr%" -T "Comment=%comment%" %source%

TOC of the extracted CD

Track | Start | Length | Start sector | End sector --------------------------------------------------------- 1 | 0:00.00 | 1:51.15 | 0 | 8339 2 | 1:51.15 | 2:13.10 | 8340 | 18324 3 | 4:04.25 | 1:42.49 | 18325 | 26023 4 | 5:46.74 | 1:39.33 | 26024 | 33481 5 | 7:26.32 | 2:17.74 | 33482 | 43830 6 | 9:44.31 | 2:02.38 | 43831 | 53018 7 | 11:46.69 | 1:44.56 | 53019 | 60874 8 | 13:31.50 | 2:12.63 | 60875 | 70837 9 | 15:44.38 | 1:32.70 | 70838 | 77807 10 | 17:17.33 | 2:14.46 | 77808 | 87903 11 | 19:32.04 | 2:05.13 | 87904 | 97291 12 | 21:37.17 | 1:38.66 | 97292 | 104707 13 | 23:16.08 | 1:47.50 | 104708 | 112782 14 | 25:03.58 | 1:54.62 | 112783 | 121394 15 | 26:58.45 | 1:54.26 | 121395 | 129970 16 | 28:52.71 | 2:53.65 | 129971 | 143010

Track 1

Filename D:\Work\RIPs\01 - The First Promise.wav

Pre-gap length 0:00:02.00

Peak level 98.0 % Extraction speed 6.7 X Track quality 99.9 % Test CRC 31DAF0D4 Copy CRC 31DAF0D4 Accurately ripped (confidence 1) [28F954A0] (AR v2) Copy OK

Track 2

Filename D:\Work\RIPs\02 - Usual Behavior.wav

Pre-gap length 0:00:02.49

Peak level 97.8 % Extraction speed 7.1 X Track quality 99.9 % Test CRC 09FE0765 Copy CRC 09FE0765 Accurately ripped (confidence 1) [23883F84] (AR v2) Copy OK

Track 3

Filename D:\Work\RIPs\03 - The another side of the truth.wav

Pre-gap length 0:00:02.48

Peak level 97.9 % Extraction speed 9.1 X Track quality 100.0 % Test CRC 6DAB407C Copy CRC 6DAB407C Accurately ripped (confidence 1) [6B34F1D5] (AR v2) Copy OK

Track 4

Filename D:\Work\RIPs\04 - The fact of the depression.wav

Pre-gap length 0:00:02.09

Peak level 97.8 % Extraction speed 9.2 X Track quality 100.0 % Test CRC 05F82D07 Copy CRC 05F82D07 Accurately ripped (confidence 1) [BE8FD47B] (AR v2) Copy OK

Track 5

Filename D:\Work\RIPs\05 - Work Work Work.wav

Pre-gap length 0:00:02.12

Peak level 99.1 % Extraction speed 9.8 X Track quality 100.0 % Test CRC 339F8FF6 Copy CRC 339F8FF6 Accurately ripped (confidence 1) [0C7D25C7] (AR v2) Copy OK

Track 6

Filename D:\Work\RIPs\06 - Stay with you.wav

Pre-gap length 0:00:02.49

Peak level 97.8 % Extraction speed 8.1 X Track quality 99.9 % Test CRC FBD87C7E Copy CRC FBD87C7E Accurately ripped (confidence 1) [075DE9C4] (AR v2) Copy OK

Track 7

Filename D:\Work\RIPs\07 - Fancy Mode.wav

Pre-gap length 0:00:02.11

Peak level 97.9 % Extraction speed 10.1 X Track quality 100.0 % Test CRC 5E899DAA Copy CRC 5E899DAA Accurately ripped (confidence 1) [8E4D09DA] (AR v2) Copy OK

Track 8

Filename D:\Work\RIPs\08 - How can I do.wav

Pre-gap length 0:00:02.49

Peak level 98.2 % Extraction speed 10.7 X Track quality 100.0 % Test CRC 5A1FEA4B Copy CRC 5A1FEA4B Accurately ripped (confidence 1) [D8F43E8A] (AR v2) Copy OK

Track 9

Filename D:\Work\RIPs\09 - messy.wav

Pre-gap length 0:00:02.12

Peak level 97.9 % Extraction speed 7.9 X Track quality 99.8 % Test CRC A5E66387 Copy CRC A5E66387 Accurately ripped (confidence 1) [00DB5B26] (AR v2) Copy OK

Track 10

Filename D:\Work\RIPs\10 - The Conference.wav

Pre-gap length 0:00:02.49

Peak level 97.8 % Extraction speed 11.3 X Track quality 100.0 % Test CRC 1BF36331 Copy CRC 1BF36331 Accurately ripped (confidence 1) [0DBE6551] (AR v2) Copy OK

Track 11

Filename D:\Work\RIPs\11 - jack u.wav

Pre-gap length 0:00:01.11

Peak level 98.0 % Extraction speed 8.7 X Track quality 99.9 % Test CRC B7F3AB8B Copy CRC B7F3AB8B Accurately ripped (confidence 1) [BD9AE3B9] (AR v2) Copy OK

Track 12

Filename D:\Work\RIPs\12 - Changing mind.wav

Pre-gap length 0:00:02.68

Peak level 98.3 % Extraction speed 11.4 X Track quality 100.0 % Test CRC 12AB8696 Copy CRC 12AB8696 Accurately ripped (confidence 1) [293A1958] (AR v2) Copy OK

Track 13

Filename D:\Work\RIPs\13 - A visitor from the darkness.wav

Pre-gap length 0:00:03.49

Peak level 97.7 % Extraction speed 11.7 X Track quality 100.0 % Test CRC 98D68ABB Copy CRC 98D68ABB Accurately ripped (confidence 1) [C1821205] (AR v2) Copy OK

Track 14

Filename D:\Work\RIPs\14 - Problem come to me.wav

Pre-gap length 0:00:03.10

Peak level 97.9 % Extraction speed 8.9 X Track quality 99.9 % Test CRC 1CB3D8EA Copy CRC 1CB3D8EA Accurately ripped (confidence 1) [332C2DEC] (AR v2) Copy OK

Track 15

Filename D:\Work\RIPs\15 - Time Limit.wav

Pre-gap length 0:00:02.49

Peak level 97.9 % Extraction speed 12.2 X Track quality 100.0 % Test CRC 0E9503B7 Copy CRC 0E9503B7 Accurately ripped (confidence 1) [429C225A] (AR v2) Copy OK

Track 16

Filename D:\Work\RIPs\16 - again & again [Instrumental ver.].wav

Pre-gap length 0:00:04.49

Peak level 97.7 % Extraction speed 13.1 X Track quality 100.0 % Test CRC 05A97619 Copy CRC 05A97619 Accurately ripped (confidence 1) [86350F84] (AR v2) Copy OK

All tracks accurately ripped

No errors occurred

End of status report

---- CUETools DB Plugin V2.1.6

[CTDB TOCID: o0Cbmr9brEZdoIn0wYT8RqFFfR8-] foundSubmit result: o0Cbmr9brEZdoIn0wYT8RqFFfR8- has been confirmedTrack | CTDB Status 1 | (4/4) Accurately ripped 2 | (4/4) Accurately ripped 3 | (4/4) Accurately ripped 4 | (4/4) Accurately ripped 5 | (4/4) Accurately ripped 6 | (4/4) Accurately ripped 7 | (4/4) Accurately ripped 8 | (4/4) Accurately ripped 9 | (4/4) Accurately ripped 10 | (4/4) Accurately ripped 11 | (4/4) Accurately ripped 12 | (4/4) Accurately ripped 13 | (4/4) Accurately ripped 14 | (4/4) Accurately ripped 15 | (4/4) Accurately ripped 16 | (4/4) Accurately ripped

==== Log checksum 957AE0972E3D58CADF1C163753739F20DAF652858E8320EBBB504878BC667839 ====
[/spoiler]
</div>
</div>
</div>
</div>
</div>
[spoiler="2015 - OST 3 [ANZX-11330]"]
OST 3
Список треков:
01. Against my destiny [1:59]
02. passing [2:13]
03. still in my mind [1:48]
04. looking back [1:23]
05. No Other Way [1:43]
06. searching [1:47]
07. Threatening [1:45]
08. Good Direction [1:40]
09. Girl's Talk [2:03]
10. delight [2:10]
11. busy man [2:07]
12. precious time [1:47]
13. our wish [2:02]
14. Asayake no Starmine [Piano version.] [1:31]
15. only this time... [2:35]
16. Memories [Positive version.] [2:15]
Проверка:
<div class="post-box">
<div class="sp-wrap">
<div class="sp-head folded">Открыть</div>
<div class="sp-body">
<div class="sp-wrap">
<div class="sp-head folded">ЕАС Лог</div>
<div class="sp-body">

Exact Audio Copy V1.3 from 2. September 2016

EAC extraction logfile from 4. March 2017, 14:30

- / Plastic Memories - OST 3

Used drive : PLEXTOR CD-R PREMIUM2 Adapter: 1 ID: 2

Read mode : SecureUtilize accurate stream : YesDefeat audio cache : YesMake use of C2 pointers : No

Read offset correction : 30Overread into Lead-In and Lead-Out : YesFill up missing offset samples with silence : YesDelete leading and trailing silent blocks : NoNull samples used in CRC calculations : YesUsed interface : Native Win32 interface for Win NT & 2000Gap handling : Appended to previous track

Used output format : User Defined EncoderSelected bitrate : 1024 kBit/sQuality : HighAdd ID3 tag : NoCommand line compressor : C:\Program Files (x86)\Exact Audio Copy RIP\Flac\flac.exeAdditional command line options : -V -8 -T "Genre=%genre%" -T "Artist=%artist%" -T "Title=%title%" -T "Album=%albumtitle%" -T "Date=%year%" -T "Tracknumber=%tracknr%" -T "Comment=%comment%" %source%

TOC of the extracted CD

Track | Start | Length | Start sector | End sector --------------------------------------------------------- 1 | 0:00.00 | 1:59.31 | 0 | 8955 2 | 1:59.31 | 2:12.52 | 8956 | 18907 3 | 4:12.08 | 1:47.48 | 18908 | 26980 4 | 5:59.56 | 1:23.13 | 26981 | 33218 5 | 7:22.69 | 1:43.17 | 33219 | 40960 6 | 9:06.11 | 1:47.12 | 40961 | 48997 7 | 10:53.23 | 1:45.36 | 48998 | 56908 8 | 12:38.59 | 1:39.50 | 56909 | 64383 9 | 14:18.34 | 2:02.63 | 64384 | 73596 10 | 16:21.22 | 2:09.65 | 73597 | 83336 11 | 18:31.12 | 2:06.68 | 83337 | 92854 12 | 20:38.05 | 1:46.49 | 92855 | 100853 13 | 22:24.54 | 2:01.46 | 100854 | 109974 14 | 24:26.25 | 1:30.58 | 109975 | 116782 15 | 25:57.08 | 2:35.13 | 116783 | 128420 16 | 28:32.21 | 2:15.22 | 128421 | 138567

Track 1

Filename D:\Work\RIPs\01 - Against my destiny.wav

Pre-gap length 0:00:02.00

Peak level 97.9 % Extraction speed 8.3 X Track quality 100.0 % Test CRC D0EDA095 Copy CRC D0EDA095 Track not present in AccurateRip database Copy OK

Track 2

Filename D:\Work\RIPs\02 - passing.wav

Pre-gap length 0:00:02.11

Peak level 98.0 % Extraction speed 8.8 X Track quality 100.0 % Test CRC AF2C81FB Copy CRC AF2C81FB Track not present in AccurateRip database Copy OK

Track 3

Filename D:\Work\RIPs\03 - still in my mind.wav

Pre-gap length 0:00:02.49

Peak level 97.8 % Extraction speed 9.1 X Track quality 100.0 % Test CRC 44861747 Copy CRC 44861747 Track not present in AccurateRip database Copy OK

Track 4

Filename D:\Work\RIPs\04 - looking back.wav

Pre-gap length 0:00:02.49

Peak level 97.7 % Extraction speed 9.1 X Track quality 100.0 % Test CRC 3135F67D Copy CRC 3135F67D Track not present in AccurateRip database Copy OK

Track 5

Filename D:\Work\RIPs\05 - No Other Way.wav

Pre-gap length 0:00:01.49

Peak level 97.8 % Extraction speed 7.5 X Track quality 99.8 % Test CRC 74FBD246 Copy CRC 74FBD246 Track not present in AccurateRip database Copy OK

Track 6

Filename D:\Work\RIPs\06 - searching.wav

Pre-gap length 0:00:02.12

Peak level 97.9 % Extraction speed 9.8 X Track quality 100.0 % Test CRC 39A1C0E1 Copy CRC 39A1C0E1 Track not present in AccurateRip database Copy OK

Track 7

Filename D:\Work\RIPs\07 - Threatening.wav

Pre-gap length 0:00:02.11

Peak level 97.9 % Extraction speed 10.1 X Track quality 100.0 % Test CRC 0B0E57A2 Copy CRC 0B0E57A2 Track not present in AccurateRip database Copy OK

Track 8

Filename D:\Work\RIPs\08 - Good Direction.wav

Pre-gap length 0:00:02.12

Peak level 97.7 % Extraction speed 10.3 X Track quality 100.0 % Test CRC C39A0B1D Copy CRC C39A0B1D Track not present in AccurateRip database Copy OK

Track 9

Filename D:\Work\RIPs\09 - Girl's Talk.wav

Pre-gap length 0:00:02.49

Peak level 97.9 % Extraction speed 8.5 X Track quality 99.9 % Test CRC C8A78F8E Copy CRC C8A78F8E Track not present in AccurateRip database Copy OK

Track 10

Filename D:\Work\RIPs\10 - delight.wav

Pre-gap length 0:00:02.11

Peak level 83.9 % Extraction speed 11.0 X Track quality 100.0 % Test CRC 9514C729 Copy CRC 9514C729 Track not present in AccurateRip database Copy OK

Track 11

Filename D:\Work\RIPs\11 - busy man.wav

Pre-gap length 0:00:02.49

Peak level 97.9 % Extraction speed 11.3 X Track quality 100.0 % Test CRC E13F430B Copy CRC E13F430B Track not present in AccurateRip database Copy OK

Track 12

Filename D:\Work\RIPs\12 - precious time.wav

Pre-gap length 0:00:02.49

Peak level 97.9 % Extraction speed 11.3 X Track quality 100.0 % Test CRC 91027FEC Copy CRC 91027FEC Track not present in AccurateRip database Copy OK

Track 13

Filename D:\Work\RIPs\13 - our wish.wav

Pre-gap length 0:00:02.11

Peak level 84.8 % Extraction speed 11.9 X Track quality 100.0 % Test CRC B9100FE8 Copy CRC B9100FE8 Track not present in AccurateRip database Copy OK

Track 14

Filename D:\Work\RIPs\14 - Asayake no Starmine [Piano version.].wav

Pre-gap length 0:00:02.49

Peak level 97.7 % Extraction speed 11.5 X Track quality 100.0 % Test CRC 941F1AE0 Copy CRC 941F1AE0 Track not present in AccurateRip database Copy OK

Track 15

Filename D:\Work\RIPs\15 - only this time....wav

Pre-gap length 0:00:02.11

Peak level 97.7 % Extraction speed 12.6 X Track quality 100.0 % Test CRC 9534B83F Copy CRC 9534B83F Track not present in AccurateRip database Copy OK

Track 16

Filename D:\Work\RIPs\16 - Memories [Positive version.].wav

Pre-gap length 0:00:02.49

Peak level 98.0 % Extraction speed 12.7 X Track quality 100.0 % Test CRC C81D3420 Copy CRC C81D3420 Track not present in AccurateRip database Copy OK

None of the tracks are present in the AccurateRip database

No errors occurred

End of status report

---- CUETools DB Plugin V2.1.6

[CTDB TOCID: xePvykQVWBgGhgxn5ppz.b0ZeOA-] foundSubmit result: xePvykQVWBgGhgxn5ppz.b0ZeOA- has been confirmedTrack | CTDB Status 1 | (2/2) Accurately ripped 2 | (2/2) Accurately ripped 3 | (2/2) Accurately ripped 4 | (2/2) Accurately ripped 5 | (2/2) Accurately ripped 6 | (2/2) Accurately ripped 7 | (2/2) Accurately ripped 8 | (2/2) Accurately ripped 9 | (2/2) Accurately ripped 10 | (2/2) Accurately ripped 11 | (2/2) Accurately ripped 12 | (2/2) Accurately ripped 13 | (2/2) Accurately ripped 14 | (2/2) Accurately ripped 15 | (2/2) Accurately ripped 16 | (2/2) Accurately ripped

==== Log checksum 53131CE8E7703059B33628C70C39E5982D8C0D4ED042AECE15F470035115DE2A ====
[/spoiler]
</div>
</div>
</div>
</div>
</div>
</div>
</div>
Синглы:
<div class="sp-wrap">
<div class="sp-head folded">2015 - OP [SVWC-70074]</div>
<div class="sp-body">
OP
Список треков:
01. Ring of Fortune [4:20]
02. Oto ni Naru [3:54]
03. Ring of Fortune -off vocal- [4:20]
04. Oto ni Naru -off vocal- [3:54]
05. Monologue Drama 'To You.' [3:00]
Проверка:
<div class="post-box">
<div class="sp-wrap">
<div class="sp-head folded">Открыть</div>
<div class="sp-body">
<div class="sp-wrap">
<div class="sp-head folded">ЕАС Лог</div>
<div class="sp-body">

Exact Audio Copy V1.3 from 2. September 2016

EAC extraction logfile from 5. March 2017, 20:30

- / Plastic Memories - OP

Used drive : PLEXTOR CD-R PREMIUM2 Adapter: 1 ID: 1

Read mode : SecureUtilize accurate stream : YesDefeat audio cache : YesMake use of C2 pointers : No

Read offset correction : 30Overread into Lead-In and Lead-Out : YesFill up missing offset samples with silence : YesDelete leading and trailing silent blocks : NoNull samples used in CRC calculations : YesUsed interface : Native Win32 interface for Win NT & 2000Gap handling : Appended to previous track

Used output format : User Defined EncoderSelected bitrate : 1024 kBit/sQuality : HighAdd ID3 tag : NoCommand line compressor : C:\Program Files (x86)\Exact Audio Copy RIP\Flac\flac.exeAdditional command line options : -V -8 -T "Genre=%genre%" -T "Artist=%artist%" -T "Title=%title%" -T "Album=%albumtitle%" -T "Date=%year%" -T "Tracknumber=%tracknr%" -T "Comment=%comment%" %source%

TOC of the extracted CD

Track | Start | Length | Start sector | End sector --------------------------------------------------------- 1 | 0:00.00 | 4:20.23 | 0 | 19522 2 | 4:20.23 | 3:53.67 | 19523 | 37064 3 | 8:14.15 | 4:19.58 | 37065 | 56547 4 | 12:33.73 | 3:53.68 | 56548 | 74090 5 | 16:27.66 | 3:00.17 | 74091 | 87607

Track 1

Filename D:\Work\RIPs\01 - Ring of Fortune.wav

Pre-gap length 0:00:02.00

Peak level 98.8 % Extraction speed 8.8 X Track quality 100.0 % Test CRC 2B3E236F Copy CRC 2B3E236F Accurately ripped (confidence 24) [02A1B5B2] (AR v2) Copy OK

Track 2

Filename D:\Work\RIPs\02 - Oto ni Naru.wav

Pre-gap length 0:00:01.30

Peak level 98.8 % Extraction speed 9.6 X Track quality 100.0 % Test CRC 577B4448 Copy CRC 577B4448 Accurately ripped (confidence 22) [1D90E577] (AR v2) Copy OK

Track 3

Filename D:\Work\RIPs\03 - Ring of Fortune -off vocal-.wav

Pre-gap length 0:00:03.08

Peak level 98.8 % Extraction speed 10.3 X Track quality 100.0 % Test CRC 43AB63B0 Copy CRC 43AB63B0 Accurately ripped (confidence 20) [DBF5BF89] (AR v2) Copy OK

Track 4

Filename D:\Work\RIPs\04 - Oto ni Naru -off vocal-.wav

Pre-gap length 0:00:01.30

Peak level 98.8 % Extraction speed 11.0 X Track quality 100.0 % Test CRC C05AD36D Copy CRC C05AD36D Accurately ripped (confidence 20) [B3955BF8] (AR v2) Copy OK

Track 5

Filename D:\Work\RIPs\05 - Monologue Drama ''To You.''.wav

Pre-gap length 0:00:03.08

Peak level 56.6 % Extraction speed 8.9 X Track quality 99.9 % Test CRC 8F1C347A Copy CRC 8F1C347A Accurately ripped (confidence 21) [1703B208] (AR v2) Copy OK

All tracks accurately ripped

No errors occurred

End of status report

---- CUETools DB Plugin V2.1.6

[CTDB TOCID: dxGpcX6PgHVt0StzCoPCeGyISBg-] foundSubmit result: dxGpcX6PgHVt0StzCoPCeGyISBg- has been confirmedTrack | CTDB Status 1 | (122/122) Accurately ripped 2 | (122/122) Accurately ripped 3 | (122/122) Accurately ripped 4 | (122/122) Accurately ripped 5 | (122/122) Accurately ripped

==== Log checksum 07F471D6F213FABB079677ECC05522799E2662B3ADDE266063DBE0570A51CC85 ====
</div>
</div>
</div>
</div>
</div>
[spoiler="2015 - ED [SVWC-70077]"]
ED
Список треков:
01. Asayake no Starmine [4:36]
02. Sunny Place [5:05]
03. Kurogane [3:45]
04. Asayake no Starmine -off vocal- [4:35]
05. Sunny Place -off vocal- [5:04]
06. Kurogane -off vocal- [3:44]
От версии SVWC-70075 только буклет, треки идентичные.
Проверка:
<div class="post-box">
<div class="sp-wrap">
<div class="sp-head folded">Открыть</div>
<div class="sp-body">
<div class="sp-wrap">
<div class="sp-head folded">ЕАС Лог</div>
<div class="sp-body">

Exact Audio Copy V1.3 from 2. September 2016

EAC extraction logfile from 5. March 2017, 20:57

- / Plastic Memories - ED

Used drive : PLEXTOR CD-R PREMIUM2 Adapter: 1 ID: 1

Read mode : SecureUtilize accurate stream : YesDefeat audio cache : YesMake use of C2 pointers : No

Read offset correction : 30Overread into Lead-In and Lead-Out : YesFill up missing offset samples with silence : YesDelete leading and trailing silent blocks : NoNull samples used in CRC calculations : YesUsed interface : Native Win32 interface for Win NT & 2000Gap handling : Appended to previous track

Used output format : User Defined EncoderSelected bitrate : 1024 kBit/sQuality : HighAdd ID3 tag : NoCommand line compressor : C:\Program Files (x86)\Exact Audio Copy RIP\Flac\flac.exeAdditional command line options : -V -8 -T "Genre=%genre%" -T "Artist=%artist%" -T "Title=%title%" -T "Album=%albumtitle%" -T "Date=%year%" -T "Tracknumber=%tracknr%" -T "Comment=%comment%" %source%

TOC of the extracted CD

Track | Start | Length | Start sector | End sector --------------------------------------------------------- 1 | 0:00.00 | 4:35.43 | 0 | 20667 2 | 4:35.43 | 5:04.55 | 20668 | 43522 3 | 9:40.23 | 3:45.36 | 43523 | 60433 4 | 13:25.59 | 4:34.67 | 60434 | 81050 5 | 18:00.51 | 5:04.18 | 81051 | 103868 6 | 23:04.69 | 3:43.61 | 103869 | 120654

Track 1

Filename D:\Work\RIPs\01 - Asayake no Starmine.wav

Pre-gap length 0:00:02.00

Peak level 94.9 % Extraction speed 8.1 X Track quality 99.9 % Test CRC 492C2D14 Copy CRC 492C2D14 Accurately ripped (confidence 14) [9EDC2073] (AR v2) Copy OK

Track 2

Filename D:\Work\RIPs\02 - Sunny Place.wav

Pre-gap length 0:00:02.40

Peak level 98.8 % Extraction speed 9.9 X Track quality 100.0 % Test CRC 1539EAB2 Copy CRC 1539EAB2 Accurately ripped (confidence 13) [C873F82F] (AR v2) Copy OK

Track 3

Filename D:\Work\RIPs\03 - Kurogane.wav

Pre-gap length 0:00:02.40

Peak level 95.1 % Extraction speed 10.5 X Track quality 100.0 % Test CRC 56B34E60 Copy CRC 56B34E60 Accurately ripped (confidence 13) [1481FC17] (AR v2) Copy OK

Track 4

Filename D:\Work\RIPs\04 - Asayake no Starmine -off vocal-.wav

Pre-gap length 0:00:02.40

Peak level 94.8 % Extraction speed 9.9 X Track quality 99.9 % Test CRC 05D28A3C Copy CRC 05D28A3C Accurately ripped (confidence 11) [F94BB812] (AR v2) Copy OK

Track 5

Filename D:\Work\RIPs\05 - Sunny Place -off vocal-.wav

Pre-gap length 0:00:02.40

Peak level 98.8 % Extraction speed 12.0 X Track quality 100.0 % Test CRC 8DBF02A7 Copy CRC 8DBF02A7 Accurately ripped (confidence 11) [EF520317] (AR v2) Copy OK

Track 6

Filename D:\Work\RIPs\06 - Kurogane -off vocal-.wav

Pre-gap length 0:00:02.40

Peak level 95.0 % Extraction speed 12.3 X Track quality 100.0 % Test CRC 7B2882D9 Copy CRC 7B2882D9 Accurately ripped (confidence 11) [59CFF13D] (AR v2) Copy OK

All tracks accurately ripped

No errors occurred

End of status report

---- CUETools DB Plugin V2.1.6

[CTDB TOCID: vls6uO8v_6HVxHPCP9PEjD48l_4-] foundSubmit result: vls6uO8v_6HVxHPCP9PEjD48l_4- has been confirmedTrack | CTDB Status 1 | (75/76) Accurately ripped 2 | (75/76) Accurately ripped 3 | (75/76) Accurately ripped 4 | (75/76) Accurately ripped 5 | (75/76) Accurately ripped 6 | (75/76) Accurately ripped

==== Log checksum 61DA0F0DB77D65CF1A1A9B401AB701FA22435E48012874B1210A74A4313389E9 ====
[/spoiler]
</div>
</div>
</div>
</div>
</div>
[spoiler="2015 - ED ver. 2 [SVWC-70078]"]
ED ver. 2
Список треков:
01. Asayake no Starmine [4:36]
02. Sunny Place [5:05]
03. Kurogane [3:45]
04. Asayake no Starmine -off vocal- [4:35]
05. Sunny Place -off vocal- [5:04]
06. Kurogane -off vocal- [3:46]
07. TV Anime 'Plastic Memories' Mini Drama 'Arashi no Yoru ni' [8:52]
08. Asayake no Starmine - anime ver. - [3:19]
Проверка:
<div class="post-box">
<div class="sp-wrap">
<div class="sp-head folded">Открыть</div>
<div class="sp-body">
<div class="sp-wrap">
<div class="sp-head folded">ЕАС Лог</div>
<div class="sp-body">

Exact Audio Copy V1.3 from 2. September 2016

EAC extraction logfile from 5. March 2017, 21:24

- / Plastic Memories - ED ver. 2

Used drive : PLEXTOR CD-R PREMIUM2 Adapter: 1 ID: 1

Read mode : SecureUtilize accurate stream : YesDefeat audio cache : YesMake use of C2 pointers : No

Read offset correction : 30Overread into Lead-In and Lead-Out : YesFill up missing offset samples with silence : YesDelete leading and trailing silent blocks : NoNull samples used in CRC calculations : YesUsed interface : Native Win32 interface for Win NT & 2000Gap handling : Appended to previous track

Used output format : User Defined EncoderSelected bitrate : 1024 kBit/sQuality : HighAdd ID3 tag : NoCommand line compressor : C:\Program Files (x86)\Exact Audio Copy RIP\Flac\flac.exeAdditional command line options : -V -8 -T "Genre=%genre%" -T "Artist=%artist%" -T "Title=%title%" -T "Album=%albumtitle%" -T "Date=%year%" -T "Tracknumber=%tracknr%" -T "Comment=%comment%" %source%

TOC of the extracted CD

Track | Start | Length | Start sector | End sector --------------------------------------------------------- 1 | 0:00.00 | 4:35.43 | 0 | 20667 2 | 4:35.43 | 5:04.55 | 20668 | 43522 3 | 9:40.23 | 3:45.36 | 43523 | 60433 4 | 13:25.59 | 4:34.67 | 60434 | 81050 5 | 18:00.51 | 5:04.18 | 81051 | 103868 6 | 23:04.69 | 3:46.36 | 103869 | 120854 7 | 26:51.30 | 8:51.52 | 120855 | 160731 8 | 35:43.07 | 3:18.70 | 160732 | 175651

Track 1

Filename D:\Work\RIPs\01 - Asayake no Starmine.wav

Pre-gap length 0:00:02.00

Peak level 94.9 % Extraction speed 8.1 X Track quality 99.9 % Test CRC 492C2D14 Copy CRC 492C2D14 Accurately ripped (confidence 4) [9EDC2073] (AR v2) Copy OK

Track 2

Filename D:\Work\RIPs\02 - Sunny Place.wav

Pre-gap length 0:00:02.40

Peak level 98.8 % Extraction speed 9.9 X Track quality 100.0 % Test CRC 1539EAB2 Copy CRC 1539EAB2 Accurately ripped (confidence 4) [C873F82F] (AR v2) Copy OK

Track 3

Filename D:\Work\RIPs\03 - Kurogane.wav

Pre-gap length 0:00:02.40

Peak level 95.1 % Extraction speed 10.5 X Track quality 100.0 % Test CRC 56B34E60 Copy CRC 56B34E60 Accurately ripped (confidence 4) [1481FC17] (AR v2) Copy OK

Track 4

Filename D:\Work\RIPs\04 - Asayake no Starmine -off vocal-.wav

Pre-gap length 0:00:02.40

Peak level 94.8 % Extraction speed 9.9 X Track quality 99.9 % Test CRC 05D28A3C Copy CRC 05D28A3C Accurately ripped (confidence 4) [F94BB812] (AR v2) Copy OK

Track 5

Filename D:\Work\RIPs\05 - Sunny Place -off vocal-.wav

Pre-gap length 0:00:02.40

Peak level 98.8 % Extraction speed 12.0 X Track quality 100.0 % Test CRC 8DBF02A7 Copy CRC 8DBF02A7 Accurately ripped (confidence 4) [EF520317] (AR v2) Copy OK

Track 6

Filename D:\Work\RIPs\06 - Kurogane -off vocal-.wav

Pre-gap length 0:00:02.40

Peak level 95.0 % Extraction speed 12.3 X Track quality 100.0 % Test CRC 5CD8BC4D Copy CRC 5CD8BC4D Accurately ripped (confidence 4) [59CFF13D] (AR v2) Copy OK

Track 7

Filename D:\Work\RIPs\07 - TV Anime ''Plastic Memories'' Mini Drama ''Arashi no Yoru ni''.wav

Pre-gap length 0:00:03.40

Peak level 94.8 % Extraction speed 13.8 X Track quality 100.0 % Test CRC B77B6DC1 Copy CRC B77B6DC1 Accurately ripped (confidence 4) [D3EF21E1] (AR v2) Copy OK

Track 8

Filename D:\Work\RIPs\08 - Asayake no Starmine - anime ver. -.wav

Pre-gap length 0:00:02.39

Peak level 94.8 % Extraction speed 13.7 X Track quality 100.0 % Test CRC 512BA155 Copy CRC 512BA155 Accurately ripped (confidence 4) [E7E17A6B] (AR v2) Copy OK

All tracks accurately ripped

No errors occurred

End of status report

---- CUETools DB Plugin V2.1.6

[CTDB TOCID: OgkktWDrm75CbpjhHVLPbnXiAEE-] foundSubmit result: OgkktWDrm75CbpjhHVLPbnXiAEE- has been confirmedTrack | CTDB Status 1 | (33/33) Accurately ripped 2 | (33/33) Accurately ripped 3 | (33/33) Accurately ripped 4 | (33/33) Accurately ripped 5 | (33/33) Accurately ripped 6 | (33/33) Accurately ripped 7 | (33/33) Accurately ripped 8 | (33/33) Accurately ripped

==== Log checksum 6C10C1A43023E02086AB3F11986B8058F544F1704D5884813BF66BA36FBD3A88 ====
[/spoiler]
</div>
</div>
</div>
DVD c NCOP+NCED
<div class="post-box">
GeneralComplete name : I:\VIDEO_TS\VTS_01_1.VOBFormat : MPEG-PSFile size : 201 MiBDuration : 6 s 961 msOverall bit rate mode : VariableOverall bit rate : 242 Mb/s

VideoID : 224 (0xE0)Format : MPEG VideoFormat version : Version 2Format profile : [email protected] settings, BVOP : YesFormat settings, Matrix : CustomFormat settings, GOP : VariableFormat settings, picture st : FrameDuration : 6 s 961 msBit rate mode : VariableBit rate : 235 Mb/sMaximum bit rate : 9 800 kb/sWidth : 720 pixelsHeight : 480 pixelsDisplay aspect ratio : 16:9Frame rate : 29.970 (30000/1001) FPSStandard : NTSCColor space : YUVChroma subsampling : 4:2:0Bit depth : 8 bitsScan type : InterlacedScan order : Top Field FirstCompression mode : LossyBits/(Pixel*Frame) : 22.734Time code of first frame : 00:59:59:00Time code source : Group of pictures headerStream size : 196 MiB (98%)

AudioID : 189 (0xBD)-160 (0xA0)Format : PCMFormat settings, Endianness : BigFormat settings, Sign : SignedMuxing mode : DVD-VideoDuration : 6 s 920 msBit rate mode : ConstantBit rate : 1 536 kb/sChannel(s) : 2 channelsSampling rate : 48.0 kHzBit depth : 16 bitsStream size : 1.27 MiB (1%)

MenuDuration : 6 s 920 ms

</div>
</div>
</div>
</div>
</div>
Drama CD:
<div class="sp-wrap">
<div class="sp-head folded">2015 - Drama CD 1 [ANZX-11324]</div>
<div class="sp-body">
Drama CD 1
Список треков:
01. Koise yo Otome #01 [5:41]
02. Koise yo Otome #02 [6:17]
03. Koise yo Otome #03 [10:37]
04. Koise yo Otome #04 [2:12]
Проверка:
<div class="post-box">
<div class="sp-wrap">
<div class="sp-head folded">Открыть</div>
<div class="sp-body">
<div class="sp-wrap">
<div class="sp-head folded">ЕАС Лог</div>
<div class="sp-body">

Exact Audio Copy V1.3 from 2. September 2016

EAC extraction logfile from 4. March 2017, 16:17

Various Artists / Plastic Memories - Drama CD 1

Used drive : PLEXTOR CD-R PREMIUM2 Adapter: 1 ID: 2

Read mode : SecureUtilize accurate stream : YesDefeat audio cache : YesMake use of C2 pointers : No

Read offset correction : 30Overread into Lead-In and Lead-Out : YesFill up missing offset samples with silence : YesDelete leading and trailing silent blocks : NoNull samples used in CRC calculations : YesUsed interface : Native Win32 interface for Win NT & 2000Gap handling : Appended to previous track

Used output format : User Defined EncoderSelected bitrate : 1024 kBit/sQuality : HighAdd ID3 tag : NoCommand line compressor : C:\Program Files (x86)\Exact Audio Copy RIP\Flac\flac.exeAdditional command line options : -V -8 -T "Genre=%genre%" -T "Artist=%artist%" -T "Title=%title%" -T "Album=%albumtitle%" -T "Date=%year%" -T "Tracknumber=%tracknr%" -T "Comment=%comment%" %source%

TOC of the extracted CD

Track | Start | Length | Start sector | End sector --------------------------------------------------------- 1 | 0:00.00 | 5:41.14 | 0 | 25588 2 | 5:41.14 | 6:16.56 | 25589 | 53844 3 | 11:57.70 | 10:37.20 | 53845 | 101639 4 | 22:35.15 | 2:11.70 | 101640 | 111534

Track 1

Filename D:\Work\RIPs\01 - Koise yo Otome #01.wav

Pre-gap length 0:00:02.00

Peak level 77.6 % Extraction speed 9.2 X Track quality 100.0 % Test CRC 3633B1A7 Copy CRC 3633B1A7 Accurately ripped (confidence 1) [5264D9D4] (AR v2) Copy OK

Track 2

Filename D:\Work\RIPs\02 - Koise yo Otome #02.wav

Peak level 84.9 % Extraction speed 10.4 X Track quality 100.0 % Test CRC B7152E3D Copy CRC B7152E3D Accurately ripped (confidence 1) [82468BBA] (AR v2) Copy OK

Track 3

Filename D:\Work\RIPs\03 - Koise yo Otome #03.wav

Peak level 98.8 % Extraction speed 12.0 X Track quality 100.0 % Test CRC 5B079B41 Copy CRC 5B079B41 Accurately ripped (confidence 1) [0CC21D28] (AR v2) Copy OK

Track 4

Filename D:\Work\RIPs\04 - Koise yo Otome #04.wav

Peak level 96.4 % Extraction speed 11.8 X Track quality 100.0 % Test CRC 8AA2A508 Copy CRC 8AA2A508 Accurately ripped (confidence 1) [1120B45F] (AR v2) Copy OK

All tracks accurately ripped

No errors occurred

End of status report

---- CUETools DB Plugin V2.1.6

[CTDB TOCID: bYIex0DunOZI3z7hpyqG3eWdKNA-] foundSubmit result: bYIex0DunOZI3z7hpyqG3eWdKNA- has been confirmedTrack | CTDB Status 1 | (5/5) Accurately ripped 2 | (5/5) Accurately ripped 3 | (5/5) Accurately ripped 4 | (5/5) Accurately ripped

==== Log checksum 7702F1D0E1966B61FA91843D4D202B06DF6EB4E4E498733BA65DC348D881FA6D ====
</div>
</div>
</div>
</div>
</div>
[spoiler="2015 - Drama CD 2 [ANZX-11328]"]
Drama CD 2
Список треков:
01. Giftia Onayami Soudan Net Radio 'Mirumiru Michiru' #01 [6:54]
02. Giftia Onayami Soudan Net Radio 'Mirumiru Michiru' #02 [5:45]
03. Giftia Onayami Soudan Net Radio 'Mirumiru Michiru' #03 [7:00]
04. Giftia Onayami Soudan Net Radio 'Mirumiru Michiru' #04 [4:51]
Проверка:
<div class="post-box">
<div class="sp-wrap">
<div class="sp-head folded">Открыть</div>
<div class="sp-body">
<div class="sp-wrap">
<div class="sp-head folded">ЕАС Лог</div>
<div class="sp-body">

Exact Audio Copy V1.3 from 2. September 2016

EAC extraction logfile from 4. March 2017, 16:42

Various Artists / Plastic Memories - Drama CD 2

Used drive : PLEXTOR CD-R PREMIUM2 Adapter: 1 ID: 2

Read mode : SecureUtilize accurate stream : YesDefeat audio cache : YesMake use of C2 pointers : No

Read offset correction : 30Overread into Lead-In and Lead-Out : YesFill up missing offset samples with silence : YesDelete leading and trailing silent blocks : NoNull samples used in CRC calculations : YesUsed interface : Native Win32 interface for Win NT & 2000Gap handling : Appended to previous track

Used output format : User Defined EncoderSelected bitrate : 1024 kBit/sQuality : HighAdd ID3 tag : NoCommand line compressor : C:\Program Files (x86)\Exact Audio Copy RIP\Flac\flac.exeAdditional command line options : -V -8 -T "Genre=%genre%" -T "Artist=%artist%" -T "Title=%title%" -T "Album=%albumtitle%" -T "Date=%year%" -T "Tracknumber=%tracknr%" -T "Comment=%comment%" %source%

TOC of the extracted CD

Track | Start | Length | Start sector | End sector --------------------------------------------------------- 1 | 0:00.00 | 6:53.64 | 0 | 31038 2 | 6:53.64 | 5:44.54 | 31039 | 56892 3 | 12:38.43 | 7:00.30 | 56893 | 88422 4 | 19:38.73 | 4:50.67 | 88423 | 110239

Track 1

Filename D:\Work\RIPs\01 - Giftia Onayami Soudan Net Radio ''Mirumiru Michiru'' #01.wav

Pre-gap length 0:00:02.00

Peak level 97.4 % Extraction speed 9.4 X Track quality 100.0 % Test CRC ACB6582D Copy CRC ACB6582D Track not present in AccurateRip database Copy OK

Track 2

Filename D:\Work\RIPs\02 - Giftia Onayami Soudan Net Radio ''Mirumiru Michiru'' #02.wav

Peak level 97.9 % Extraction speed 10.5 X Track quality 100.0 % Test CRC 7339A2FE Copy CRC 7339A2FE Track not present in AccurateRip database Copy OK

Track 3

Filename D:\Work\RIPs\03 - Giftia Onayami Soudan Net Radio ''Mirumiru Michiru'' #03.wav

Peak level 99.5 % Extraction speed 11.7 X Track quality 100.0 % Test CRC 1BF83B68 Copy CRC 1BF83B68 Track not present in AccurateRip database Copy OK

Track 4

Filename D:\Work\RIPs\04 - Giftia Onayami Soudan Net Radio ''Mirumiru Michiru'' #04.wav

Peak level 94.3 % Extraction speed 12.4 X Track quality 100.0 % Test CRC 9634E64D Copy CRC 9634E64D Track not present in AccurateRip database Copy OK

None of the tracks are present in the AccurateRip database

No errors occurred

End of status report

---- CUETools DB Plugin V2.1.6

[CTDB TOCID: rnpk4RVRQ5Ah1Y.5I6UXUa42xOI-] foundSubmit result: rnpk4RVRQ5Ah1Y.5I6UXUa42xOI- has been confirmedTrack | CTDB Status 1 | (4/4) Accurately ripped 2 | (4/4) Accurately ripped 3 | (4/4) Accurately ripped 4 | (4/4) Accurately ripped

==== Log checksum 68A8323FD2429483BE219B5E70E9F7C618F5760A369B8833F5B4AA8C04873E0B ====
[/spoiler]
</div>
</div>
</div>
</div>
</div>
[spoiler="2015 - Drama CD 3 [ANZX-11334]"]
Drama CD 3
Список треков:
01. Kimi to Sugosu, Saigo no Tabi #01 [3:32]
02. Kimi to Sugosu, Saigo no Tabi #02 [10:36]
03. Kimi to Sugosu, Saigo no Tabi #03 [9:05]
04. Kimi to Sugosu, Saigo no Tabi #04 [5:15]
Проверка:
<div class="post-box">
<div class="sp-wrap">
<div class="sp-head folded">Открыть</div>
<div class="sp-body">
<div class="sp-wrap">
<div class="sp-head folded">ЕАС Лог</div>
<div class="sp-body">

Exact Audio Copy V1.3 from 2. September 2016

EAC extraction logfile from 4. March 2017, 17:56

Various Artists / Plastic Memories - Drama CD 3

Used drive : PLEXTOR CD-R PREMIUM2 Adapter: 1 ID: 2

Read mode : SecureUtilize accurate stream : YesDefeat audio cache : YesMake use of C2 pointers : No

Read offset correction : 30Overread into Lead-In and Lead-Out : YesFill up missing offset samples with silence : YesDelete leading and trailing silent blocks : NoNull samples used in CRC calculations : YesUsed interface : Native Win32 interface for Win NT & 2000Gap handling : Appended to previous track

Used output format : User Defined EncoderSelected bitrate : 1024 kBit/sQuality : HighAdd ID3 tag : NoCommand line compressor : C:\Program Files (x86)\Exact Audio Copy RIP\Flac\flac.exeAdditional command line options : -V -8 -T "Genre=%genre%" -T "Artist=%artist%" -T "Title=%title%" -T "Album=%albumtitle%" -T "Date=%year%" -T "Tracknumber=%tracknr%" -T "Comment=%comment%" %source%

TOC of the extracted CD

Track | Start | Length | Start sector | End sector --------------------------------------------------------- 1 | 0:00.00 | 3:32.34 | 0 | 15933 2 | 3:32.34 | 10:36.17 | 15934 | 63650 3 | 14:08.51 | 9:05.13 | 63651 | 104538 4 | 23:13.64 | 5:14.67 | 104539 | 128155

Track 1

Filename D:\Work\RIPs\01 - Kimi to Sugosu, Saigo no Tabi #01.wav

Pre-gap length 0:00:02.00

Peak level 99.9 % Extraction speed 7.8 X Track quality 99.9 % Test CRC 2B6A42E8 Copy CRC 2B6A42E8 Track not present in AccurateRip database Copy OK

Track 2

Filename D:\Work\RIPs\02 - Kimi to Sugosu, Saigo no Tabi #02.wav

Peak level 99.8 % Extraction speed 10.5 X Track quality 100.0 % Test CRC 4BA8D683 Copy CRC 4BA8D683 Track not present in AccurateRip database Copy OK

Track 3

Filename D:\Work\RIPs\03 - Kimi to Sugosu, Saigo no Tabi #03.wav

Peak level 99.6 % Extraction speed 12.1 X Track quality 100.0 % Test CRC 83A22011 Copy CRC 83A22011 Track not present in AccurateRip database Copy OK

Track 4

Filename D:\Work\RIPs\04 - Kimi to Sugosu, Saigo no Tabi #04.wav

Peak level 99.9 % Extraction speed 13.0 X Track quality 100.0 % Test CRC 7184A546 Copy CRC 7184A546 Track not present in AccurateRip database Copy OK

None of the tracks are present in the AccurateRip database

No errors occurred

End of status report

---- CUETools DB Plugin V2.1.6

[CTDB TOCID: 1SEos5lMCGg39IY1nhvmovcSDcg-] foundSubmit result: 1SEos5lMCGg39IY1nhvmovcSDcg- has been confirmedTrack | CTDB Status 1 | (2/2) Accurately ripped 2 | (2/2) Accurately ripped 3 | (2/2) Accurately ripped 4 | (2/2) Accurately ripped

==== Log checksum 82A0AE8C6014B54873A29E9FA38F1DC09A202F53C34026F629B6AE068092F29E ====
[/spoiler]
</div>
</div>
</div>
</div>
</div>
</div>
</div>
Radio CD:
<div class="sp-wrap">
<div class="sp-head folded">2015 - Radio CD 1 [HBKM-0060]</div>
<div class="sp-body">
<div class="post-box">
<div class="sp-wrap">
<div class="sp-head folded">CD 1</div>
<div class="sp-body">CD 1
Список треков:
01. 'Michiru to Zakku no Puramemorajio' Roku ri Oroshi Tokubetsu kai [43:26]
Проверка:
<div class="post-box">
<div class="sp-wrap">
<div class="sp-head folded">Открыть</div>
<div class="sp-body">
<div class="sp-wrap">
<div class="sp-head folded">ЕАС Лог</div>
<div class="sp-body">

Exact Audio Copy V1.3 from 2. September 2016

EAC extraction logfile from 4. March 2017, 19:10

Various Artists / Plastic Memories - Radio CD 1

Used drive : PLEXTOR CD-R PREMIUM2 Adapter: 1 ID: 2

Read mode : SecureUtilize accurate stream : YesDefeat audio cache : YesMake use of C2 pointers : No

Read offset correction : 30Overread into Lead-In and Lead-Out : YesFill up missing offset samples with silence : YesDelete leading and trailing silent blocks : NoNull samples used in CRC calculations : YesUsed interface : Native Win32 interface for Win NT & 2000Gap handling : Appended to previous track

Used output format : User Defined EncoderSelected bitrate : 1024 kBit/sQuality : HighAdd ID3 tag : NoCommand line compressor : C:\Program Files (x86)\Exact Audio Copy RIP\Flac\flac.exeAdditional command line options : -V -8 -T "Genre=%genre%" -T "Artist=%artist%" -T "Title=%title%" -T "Album=%albumtitle%" -T "Date=%year%" -T "Tracknumber=%tracknr%" -T "Comment=%comment%" %source%

TOC of the extracted CD

Track | Start | Length | Start sector | End sector --------------------------------------------------------- 1 | 0:00.00 | 43:25.60 | 0 | 195434

Track 1

Filename D:\Work\RIPs\01 - ''Michiru to Zakku no Puramemorajio'' Roku ri Oroshi Tokubetsu kai.wav

Pre-gap length 0:00:02.00

Peak level 76.3 % Extraction speed 12.4 X Track quality 100.0 % Test CRC 88EC50D4 Copy CRC 88EC50D4 Track not present in AccurateRip database Copy OK

None of the tracks are present in the AccurateRip database

No errors occurred

End of status report

---- CUETools DB Plugin V2.1.6

[CTDB TOCID: asYD.T6BXXdjgq2uq5IYCZmezBw-] foundSubmit result: asYD.T6BXXdjgq2uq5IYCZmezBw- has been confirmedTrack | CTDB Status 1 | (4/4) Accurately ripped

==== Log checksum A207A4242CB9667149C8519A04DEA35CCCF07F0A013472319DF9A486C5A20B87 ====
</div>
</div>
</div>
</div>
</div>
CD 2 mp3
Список треков:
01. "Michiru to Zakku no Puramemorajio" Dai 01 kai [41:16]
02. "Michiru to Zakku no Puramemorajio" Dai 02 kai [40:53]
03. "Michiru to Zakku no Puramemorajio" Dai 03 kai [31:05]
04. "Michiru to Zakku no Puramemorajio" Dai 04 kai [34:14]
05. "Michiru to Zakku no Puramemorajio" Dai 05 kai [35:19]
Проверка:
<div class="post-box">
<div class="sp-wrap">
<div class="sp-head folded">Открыть</div>
<div class="sp-body">
<div class="sp-wrap">
<div class="sp-head folded">mpck Лог</div>
<div class="sp-body">

SUMMARY: Check\01 - Michiru to Zakku no Puramemorajio Dai 01 kai.mp3 version MPEG v1.0 layer 3 bitrate 192000 bps samplerate 44100 Hz frames 94797 time 41:16.329 unidentified 0 b (0%) errors none result Ok

SUMMARY: Check\02 - Michiru to Zakku no Puramemorajio Dai 02 kai.mp3 version MPEG v1.0 layer 3 bitrate 192000 bps samplerate 44100 Hz frames 93886 time 40:52.532 unidentified 0 b (0%) errors none result Ok

SUMMARY: Check\03 - Michiru to Zakku no Puramemorajio Dai 03 kai.mp3 version MPEG v1.0 layer 3 bitrate 192000 bps samplerate 44100 Hz frames 71378 time 31:04.568 unidentified 0 b (0%) errors none result Ok

SUMMARY: Check\04 - Michiru to Zakku no Puramemorajio Dai 04 kai.mp3 version MPEG v1.0 layer 3 bitrate 192000 bps samplerate 44100 Hz frames 78649 time 34:14.504 unidentified 0 b (0%) errors none result Ok

SUMMARY: Check\05 - Michiru to Zakku no Puramemorajio Dai 05 kai.mp3 version MPEG v1.0 layer 3 bitrate 192000 bps samplerate 44100 Hz frames 81115 time 35:18.922 unidentified 0 b (0%) errors none result Ok

TOTAL: number of files 5 Ok 5 Bad 0 time 3:02:44 bitrate minimum 192000 average 192000 maximum 192000
</div>
</div>
</div>
</div>
</div>
</div>
</div>
</div>
[spoiler="2015 - Radio CD 2 [HBKM-0061]"]
<div class="post-box">
<div class="sp-wrap">
<div class="sp-head folded">CD 1</div>
<div class="sp-body">CD 1
Список треков:
01. ''Michiru to Zakku no Puramemorajio'' Roku ri Oroshi Tokubetsu kai [44:35]
Проверка:
<div class="post-box">
<div class="sp-wrap">
<div class="sp-head folded">Открыть</div>
<div class="sp-body">
<div class="sp-wrap">
<div class="sp-head folded">ЕАС Лог</div>
<div class="sp-body">

Exact Audio Copy V1.3 from 2. September 2016

EAC extraction logfile from 4. March 2017, 19:56

Various Artists / Plastic Memories - Radio CD 2

Used drive : PLEXTOR CD-R PREMIUM2 Adapter: 1 ID: 2

Read mode : SecureUtilize accurate stream : YesDefeat audio cache : YesMake use of C2 pointers : No

Read offset correction : 30Overread into Lead-In and Lead-Out : YesFill up missing offset samples with silence : YesDelete leading and trailing silent blocks : NoNull samples used in CRC calculations : YesUsed interface : Native Win32 interface for Win NT & 2000Gap handling : Appended to previous track

Used output format : User Defined EncoderSelected bitrate : 1024 kBit/sQuality : HighAdd ID3 tag : NoCommand line compressor : C:\Program Files (x86)\Exact Audio Copy RIP\Flac\flac.exeAdditional command line options : -V -8 -T "Genre=%genre%" -T "Artist=%artist%" -T "Title=%title%" -T "Album=%albumtitle%" -T "Date=%year%" -T "Tracknumber=%tracknr%" -T "Comment=%comment%" %source%

TOC of the extracted CD

Track | Start | Length | Start sector | End sector --------------------------------------------------------- 1 | 0:00.00 | 44:35.24 | 0 | 200648

Track 1

Filename D:\Work\RIPs\01 - ''Michiru to Zakku no Puramemorajio'' Roku ri Oroshi Tokubetsu kai.wav

Pre-gap length 0:00:02.00

Peak level 89.1 % Extraction speed 12.5 X Track quality 100.0 % Test CRC 560B7A61 Copy CRC 560B7A61 Track not present in AccurateRip database Copy OK

None of the tracks are present in the AccurateRip database

No errors occurred

End of status report

---- CUETools DB Plugin V2.1.6

[CTDB TOCID: frc0iPs5r6n2CODmcwXNoLxbtW4-] foundSubmit result: frc0iPs5r6n2CODmcwXNoLxbtW4- has been confirmedTrack | CTDB Status 1 | (1/1) Accurately ripped

==== Log checksum 44DC345B97E04A2FDDBDE24892D7CDF3B4F64331FE1F8F8931A317919D325CF8 ====
[/spoiler]
</div>
</div>
</div>
</div>
</div>
CD 2 mp3
Список треков:
01. "Michiru to Zakku no Puramemorajio" Dai 06 kai [33:13]
02. "Michiru to Zakku no Puramemorajio" Dai 07 kai [34:33]
03. "Michiru to Zakku no Puramemorajio" Dai 08 kai [40:12]
04. "Michiru to Zakku no Puramemorajio" Dai 09 kai [30:08]
05. "Michiru to Zakku no Puramemorajio" Dai 10 kai [27:34]
06. "Michiru to Zakku no Puramemorajio" Dai 11 kai [38:07]
07. "Michiru to Zakku no Puramemorajio" Dai 12 kai [41:39]
Проверка:
<div class="post-box">
<div class="sp-wrap">
<div class="sp-head folded">Открыть</div>
<div class="sp-body">
<div class="sp-wrap">
<div class="sp-head folded">mpck Лог</div>
<div class="sp-body">

SUMMARY: Check\01 - Michiru to Zakku no Puramemorajio Dai 06 kai.mp3 version MPEG v1.0 layer 3 bitrate 192000 bps samplerate 44100 Hz frames 76281 time 33:12.646 unidentified 0 b (0%) errors none result Ok

SUMMARY: Check\02 - Michiru to Zakku no Puramemorajio Dai 07 kai.mp3 version MPEG v1.0 layer 3 bitrate 192000 bps samplerate 44100 Hz frames 79362 time 34:33.129 unidentified 0 b (0%) errors none result Ok

SUMMARY: Check\03 - Michiru to Zakku no Puramemorajio Dai 08 kai.mp3 version MPEG v1.0 layer 3 bitrate 192000 bps samplerate 44100 Hz frames 92348 time 40:12.355 unidentified 0 b (0%) errors none result Ok

SUMMARY: Check\04 - Michiru to Zakku no Puramemorajio Dai 09 kai.mp3 version MPEG v1.0 layer 3 bitrate 192000 bps samplerate 44100 Hz frames 69222 time 30:08.248 unidentified 0 b (0%) errors none result Ok

SUMMARY: Check\05 - Michiru to Zakku no Puramemorajio Dai 10 kai.mp3 version MPEG v1.0 layer 3 bitrate 192000 bps samplerate 44100 Hz frames 63299 time 27:33.524 unidentified 0 b (0%) errors none result Ok

SUMMARY: Check\06 - Michiru to Zakku no Puramemorajio Dai 11 kai.mp3 version MPEG v1.0 layer 3 bitrate 192000 bps samplerate 44100 Hz frames 87563 time 38:07.360 unidentified 0 b (0%) errors none result Ok

SUMMARY: Check\07 - Michiru to Zakku no Puramemorajio Dai 12 kai.mp3 version MPEG v1.0 layer 3 bitrate 192000 bps samplerate 44100 Hz frames 95675 time 41:39.265 unidentified 0 b (0%) errors none result Ok

TOTAL: number of files 7 Ok 7 Bad 0 time 4:05:24 bitrate minimum 192000 average 192000 maximum 192000
</div>
</div>
</div>
</div>
</div>
</div>
</div>
</div>
[spoiler="2015 - Radio CD 3 [HBKM-0062]"]
Radio CD 3 mp3
Список треков:
01. "Michiru to Zakku no Puramemorajio" Dai 13 kai [40:23]
02. "Michiru to Zakku no Puramemorajio" Dai 14 kai [39:40]
03. "Michiru to Zakku no Puramemorajio" Dai 15 kai [38:50]
04. "Mizukaki Tsukasa no Puramemorajio" Dai 1 kai [37:01]
05. "Michiru to Zakku no Puramemorajio" Dai 17 kai [38:43]
06. "Michiru to Zakku no Puramemorajio" Dai 18 kai [31:46]
07. "Michiru to Zakku no Puramemorajio" Dai 19 kai [47:24]
Проверка:
<div class="post-box">
<div class="sp-wrap">
<div class="sp-head folded">Открыть</div>
<div class="sp-body">
<div class="sp-wrap">
<div class="sp-head folded">mpck Лог</div>
<div class="sp-body">

SUMMARY: Check\01 - Michiru to Zakku no Puramemorajio Dai 13 kai.mp3 version MPEG v1.0 layer 3 bitrate 192000 bps samplerate 44100 Hz frames 92773 time 40:23.457 unidentified 0 b (0%) errors none result Ok

SUMMARY: Check\02 - Michiru to Zakku no Puramemorajio Dai 14 kai.mp3 version MPEG v1.0 layer 3 bitrate 192000 bps samplerate 44100 Hz frames 91100 time 39:39.755 unidentified 0 b (0%) errors none result Ok

SUMMARY: Check\03 - Michiru to Zakku no Puramemorajio Dai 15 kai.mp3 version MPEG v1.0 layer 3 bitrate 192000 bps samplerate 44100 Hz frames 89198 time 38:50.070 unidentified 0 b (0%) errors none result Ok

SUMMARY: Check\04 - Mizukaki Tsukasa no Puramemorajio Dai 1 kai.mp3 version MPEG v1.0 layer 3 bitrate 192000 bps samplerate 44100 Hz frames 85006 time 37:00.564 unidentified 0 b (0%) errors none result Ok

SUMMARY: Check\05 - Michiru to Zakku no Puramemorajio Dai 17 kai.mp3 version MPEG v1.0 layer 3 bitrate 192000 bps samplerate 44100 Hz frames 88945 time 38:43.461 unidentified 0 b (0%) errors none result Ok

SUMMARY: Check\06 - Michiru to Zakku no Puramemorajio Dai 18 kai.mp3 version MPEG v1.0 layer 3 bitrate 192000 bps samplerate 44100 Hz frames 72973 time 31:46.233 unidentified 0 b (0%) errors none result Ok

SUMMARY: Check\07 - Michiru to Zakku no Puramemorajio Dai 19 kai.mp3 version MPEG v1.0 layer 3 bitrate 192000 bps samplerate 44100 Hz frames 108877 time 47:24.133 unidentified 0 b (0%) errors none result Ok

TOTAL: number of files 7 Ok 7 Bad 0 time 4:33:45 bitrate minimum 192000 average 192000 maximum 192000
[/spoiler]
</div>
</div>
</div>
DVD c конференции посещенной аниме
<div class="post-box">
GeneralComplete name : I:\VIDEO_TS\VIDEO_TS.IFOFormat : DVD VideoFormat profile : MenuFile size : 12.0 KiBOverall bit rate mode : Variable

VideoID : 224 (0xE0)Format : MPEG VideoFormat version : Version 2Bit rate mode : VariableWidth : 720 pixelsHeight : 480 pixelsDisplay aspect ratio : 16:9Frame rate : 29.970 (29970/1000) FPSStandard : NTSCCompression mode : Lossy

AudioFormat : AC-3Format/Info : Audio Coding 3Channel(s) : 2 channelsSampling rate : 48.0 kHzCompression mode : Lossy

TextFormat : RLEFormat/Info : Run-length encodingBit depth : 2 bits

</div>
</div>
</div>
</div>
</div>


Трекер:  [ 08-Апр-2017 01:00 ]

  

Скачать .torrent

Размер .torrent файла 105 KB


Размер: 15.14 GB
Хэш (hash) релиза: caa32df3c53faf410f50f6dbda8ec09c0541a9de

Торренты, похожие на Plastic Memories Пластиковые воспоминания - 2015 г., FLAC скачать торрент

Форум Название Автор Размер S L Добавлен
Саундтреки к аниме (lossless) ·· (OST) Пластиковые воспоминания / Plastic Memories - 2015 г., FLAC (tracks), lossless [2CD] Galfimbul 638839599609 MB 0 0 1434475628

20:27

16-Июн-15

Еще никто не оставлял запись к записи скачать торрент Plastic Memories Пластиковые воспоминания - 2015 г., FLAC . Будь первым!

!Обратная связь