Peter Michael Goetz | Live Info Show 2 Episode 813 | Elektel Delusion

Скачать через торрент [VIDEO] Мой кровавый Валентин My Bloody Valentine бесплатно русская версия torrent активатор

Статистика раздачи
Размер:  1.93 GB   |    Зарегистрирован:  1 год 3 месяца   |    .torrent скачан:  24 раза   |   
Раздают:  1  
   
загрузка...
 
Автор Сообщение

Galfimbul

avatar Galfimbul


Мой кровавый Валентин / My Bloody Valentine
«Он разобьет тебе сердце»
Год выпуска: 8 января 2009
Оригинальное название: My Bloody Valentine
Страна: США
Жанр: ужасы, триллер
Возраст: 18+

Режиссер: Патрик Люссье / Patrick Lussier

В ролях: Дженсен Эклс, Джейми Кинг, Керр Смит, Бетси Рюи, Эди Гатеги, Том Эткинс, Кевин Тай, Меган Бун, Карен Баум, Джой де ла Паз, Марк Маколэй, Тодд Фармер, Джефф Хочендонер, Бинго О'Мэлли, Лайэм Роудс, Майкл Макки (II), Эндрю Ларсон (II), Джэррод ДиДжорджи, Селена Луна, Чери Макклейн, Ричард Джон Уолтерс, Дэвид Уэйлен, Денис Даль Вера

Описание: Том возвращается в родной городок, спустя 10 лет после ужасных событий, произошедших в День святого Валентина. С приездом молодого человека жители города начинают умирать от рук неизвестного маньяка, и подозрения сразу же падают на Тома. Вместе с девушкой Сарой, в которую он когда-то был влюблен, Том обязан найти неуловимого убийцу…

Продолжительность: 01:41:01
Перевод: Дублированный [Blu-Ray Disc]
Оригинальная дорожка: есть

Автор рипа:

Качество видео: BDRip Исходник: Blu-Ray (1080p) Формат: mp4
Видео кодек: MPEG-4 AVC Аудио кодек: AAC
Видео: 1280x690 (1.85:1) at 23.976 fps, AVC at 2 470 kbps avg, 0.117 bit/pixel
Аудио №1 Rus: 48.0 KHz, AAC, 2 ch, 128.0 Kbps
Аудио №2 Eng: 48.0 KHz, AAC, 2 ch, 128.0 Kbps
Субтитры: русские (полные), английские (полные)
Навигация по главам: есть
Размер: 1.93 GiB
avs [info]: 1280x690p 1:1 @ 24000/1001 fps (cfr)
x264 [info]: using SAR=1/1
x264 [info]: using cpu capabilities: MMX2 SSE2Fast SSSE3 Cache64
x264 [info]: profile High, level 4.1
x264 [info]: frame I:1394 Avg QP:13.72 size: 90545
x264 [info]: frame P:31377 Avg QP:17.18 size: 28308
x264 [info]: frame B:112549 Avg QP:19.04 size: 7617
x264 [info]: consecutive B-frames: 1.8% 2.8% 7.0% 21.5% 19.8% 38.5% 8.5%
x264 [info]: mb I I16..4: 5.1% 76.3% 18.6%
x264 [info]: mb P I16..4: 1.9% 9.4% 1.4% P16..4: 46.4% 22.9% 13.3% 0.0% 0.0% skip: 4.8%
x264 [info]: mb B I16..4: 0.2% 0.7% 0.1% B16..8: 42.3% 6.7% 1.1% direct: 4.5% skip:44.5% L0:42.7% L1:50.2% BI: 7.1%
x264 [info]: 8x8 transform intra:74.8% inter:65.8%
x264 [info]: coded y,uvDC,uvAC intra: 68.3% 67.4% 34.7% inter: 17.3% 17.0% 1.4%
x264 [info]: i16 v,h,dc,p: 30% 16% 7% 47%
x264 [info]: i8 v,h,dc,ddl,ddr,vr,hd,vl,hu: 23% 14% 20% 5% 8% 8% 7% 7% 7%
x264 [info]: i4 v,h,dc,ddl,ddr,vr,hd,vl,hu: 35% 15% 15% 5% 8% 7% 6% 5% 4%
x264 [info]: i8c dc,h,v,p: 55% 18% 21% 6%
x264 [info]: Weighted P-Frames: Y:4.1% UV:1.2%
x264 [info]: ref P L0: 50.8% 9.7% 16.1% 6.8% 5.0% 4.1% 3.2% 2.0% 1.9% 0.3% 0.0%
x264 [info]: ref B L0: 78.9% 9.8% 4.8% 2.3% 1.6% 1.4% 0.8% 0.3%
x264 [info]: ref B L1: 93.1% 6.9%
x264 [info]: kb/s:2470.54
encoded 145320 frames, 2.18 fps, 2470.54 kb/s
GeneralComplete name : ...Moj_krovavyj_valentin_3d_2009_KinoGadget.mp4Format : MPEG-4Format profile : Base MediaCodec ID : isom (isom)File size : 1.93 GiBDuration : 1 h 41 minOverall bit rate mode : VariableOverall bit rate : 2 738 kb/sMovie name : Мой кровавый Валентин 3D | KinoGadgetPerformer : Патрик ЛюссьеDirector : Патрик ЛюссьеActor : Дженсен Эклс / Джейми Кинг / Керр Смит / Бетси Рюи / Эди Гатеги / Том Эткинс / Кевин Тай / Меган Бун / Карен Баум / Джой де ла Паз / Марк Маколэй / Тодд Фармер / Джефф Хочендонер / Бинго О'Мэлли / Лайэм РоудсScreenplay by : Тодд Фармер / Зейн Смит / Джон БейярдProducer : Джек Л. Мюррэй / Джон Даннинг / Андре ЛинкGenre : Horror, ThrillerContentType : Short FilmRecorded date : 2009Encoded date : UTC 2017-04-04 15:23:22Tagged date : UTC 2017-04-04 15:30:15Cover : YesContentRating : mpaa|R|400|LongDescription : Том возвращается в родной городок, спустя 10 лет после ужасных событий, произошедших в День святого Валентина. С приездом молодого человека жители города начинают умирать от рук неизвестного маньяка, и подозрения сразу же падают на Тома. Вместе с девушкой Сарой, в которую он когда-то был влюблен, Том обязан найти неуловимого убийцу…HDVideo : Yes

VideoID : 1Format : AVCFormat/Info : Advanced Video CodecFormat profile : [email protected] settings, CABAC : YesFormat settings, ReFrames : 9 framesCodec ID : avc1Codec ID/Info : Advanced Video CodingDuration : 1 h 41 minBit rate : 2 470 kb/sMaximum bit rate : 11.0 Mb/sWidth : 1 280 pixelsHeight : 690 pixelsDisplay aspect ratio : 1.85:1Frame rate mode : ConstantFrame rate : 23.976 (24000/1001) FPSColor space : YUVChroma subsampling : 4:2:0Bit depth : 8 bitsScan type : ProgressiveBits/(Pixel*Frame) : 0.117Stream size : 1.74 GiB (90%)Writing library : x264 core 148 r2638 7599210Encoding settings : cabac=1 / ref=9 / deblock=1:-2:-1 / analyse=0x3:0x113 / me=umh / subme=7 / psy=1 / psy_rd=1.00:0.00 / mixed_ref=1 / me_range=32 / chroma_me=1 / trellis=2 / 8x8dct=1 / cqm=0 / deadzone=21,11 / fast_pskip=0 / chroma_qp_offset=-2 / threads=3 / lookahead_threads=1 / sliced_threads=0 / nr=0 / decimate=1 / interlaced=0 / bluray_compat=0 / constrained_intra=0 / bframes=6 / b_pyramid=2 / b_adapt=2 / b_bias=0 / direct=1 / weightb=1 / open_gop=0 / weightp=2 / keyint=250 / keyint_min=25 / scenecut=40 / intra_refresh=0 / rc_lookahead=60 / rc=crf / mbtree=1 / crf=18.0 / qcomp=0.60 / qpmin=0 / qpmax=69 / qpstep=4 / vbv_maxrate=62500 / vbv_bufsize=78125 / crf_max=0.0 / nal_hrd=none / filler=0 / ip_ratio=1.40 / aq=1:1.00Encoded date : UTC 2017-04-04 13:41:36Tagged date : UTC 2017-04-04 15:24:30

Audio #1ID : 2Format : AACFormat/Info : Advanced Audio CodecFormat profile : LCCodec ID : 40Duration : 1 h 41 minBit rate mode : VariableBit rate : 128 kb/sMaximum bit rate : 135 kb/sChannel(s) : 2 channelsChannel positions : Front: L RSampling rate : 48.0 kHzFrame rate : 46.875 FPS (1024 spf)Compression mode : LossyStream size : 92.5 MiB (5%)Title : Dub [License]Language : RussianEncoded date : UTC 2017-04-04 14:00:40Tagged date : UTC 2017-04-04 15:24:30

Audio #2ID : 3Format : AACFormat/Info : Advanced Audio CodecFormat profile : LCCodec ID : 40Duration : 1 h 41 minBit rate mode : VariableBit rate : 128 kb/sMaximum bit rate : 135 kb/sChannel(s) : 2 channelsChannel positions : Front: L RSampling rate : 48.0 kHzFrame rate : 46.875 FPS (1024 spf)Compression mode : LossyStream size : 92.5 MiB (5%)Title : OriginalLanguage : EnglishEncoded date : UTC 2017-04-04 13:48:57Tagged date : UTC 2017-04-04 15:24:30

Text #1ID : 4Format : Timed TextCodec ID : tx3gDuration : 1 h 34 minBit rate mode : VariableBit rate : 69 b/sStream size : 48.2 KiB (0%)Title : FullLanguage : RussianForced : NoEncoded date : UTC 2017-04-04 15:24:30Tagged date : UTC 2017-04-04 15:24:30

Text #2ID : 5Format : Timed TextCodec ID : tx3gDuration : 1 h 34 minBit rate mode : VariableBit rate : 45 b/sStream size : 31.5 KiB (0%)Title : FullLanguage : EnglishForced : NoEncoded date : UTC 2017-04-04 15:24:30Tagged date : UTC 2017-04-04 15:24:30

Menu


Трекер:  [ 04-Апр-2017 18:00 ]

  

Скачать .torrent

Размер .torrent файла 19 KB


Размер: 1.93 GB
Хэш (hash) релиза: aafa231f48b35c6ec6fcdcdf23c6331404d4bb6e

Еще никто не оставлял запись к записи скачать торрент [VIDEO] Мой кровавый Валентин My Bloody Valentine . Будь первым!

!Обратная связь