Seks, kasa i kłopoty / Dirt... | Matt Houston | Kate Mara

Скачать через торрент [MULT] Петя и волк Peter and the Wolf бесплатно русская версия torrent активатор

Статистика раздачи
Размер:  130 MB   |    Зарегистрирован:  1 год 3 месяца   |    .torrent скачан:  27 раз   |   
Раздают:  1  
   
загрузка...
 
Автор Сообщение

Galfimbul

avatar Galfimbul


Петя и волк / Peter and the Wolf

Год выпуска: 1946
Страна: США
Жанр: мультфильм, фэнтези, семейный, короткометражка
Продолжительность: 00:14:58
Перевод: Профессиональный (двухголосый, закадровый) Мьюзик-трейд
Cубтитры: нет
Режиссер: Клайд Джероними / Clyde Geronimi
Роли озвучивали: Стерлинг Холлоуэй / Sterling Holloway (рассказчик, озвучка)
Описание: Короткая музыкальная история из фильма Make Mine Music Walt Disney Studio 1946 г. «Петя и Волк» — симфоническая сказка для детей Сергея Прокофьева, написанная в 1936 году.
Релиз группы
Качество: DVDRip / рип с DVD9 (Издание "Мьюзик-трейд")
Формат: MP4
Видео кодек: H.264
Аудио кодек: AAC
Видео: 468x360 AR:1.3 1080 kbps 25 fps
Аудио : 2ch 48 kHz 128 kbps
avs [info]: 468x360p 1:1 @ 25/1 fps (cfr)
x264 [info]: using SAR=1/1
x264 [info]: using cpu capabilities: MMX2 SSE2Fast SSSE3 SSE4.2 AVX FMA3 AVX2 LZCNT BMI2
x264 [info]: profile High, level 4.1

x264 [info]: frame I:111 Avg QP:21.50 size: 20848
x264 [info]: frame P:5244 Avg QP:24.56 size: 9582
x264 [info]: frame B:17103 Avg QP:27.57 size: 4020
x264 [info]: consecutive B-frames: 0.9% 2.1% 10.0% 39.8% 28.2% 12.2% 3.7% 2.5% 0.6%
x264 [info]: mb I I16..4: 5.4% 67.2% 27.4%
x264 [info]: mb P I16..4: 2.3% 16.9% 6.1% P16..4: 36.2% 29.4% 7.0% 1.0% 0.1% skip: 1.0%
x264 [info]: mb B I16..4: 0.3% 2.6% 1.4% B16..8: 32.6% 16.5% 3.4% direct: 7.8% skip:35.3% L0:46.9% L1:43.3% BI: 9.8%
x264 [info]: 8x8 transform intra:64.7% inter:54.1%
x264 [info]: direct mvs spatial:94.5% temporal:5.5%
x264 [info]: coded y,uvDC,uvAC intra: 83.1% 76.0% 40.0% inter: 25.1% 31.3% 5.0%
x264 [info]: i16 v,h,dc,p: 10% 31% 7% 52%
x264 [info]: i8 v,h,dc,ddl,ddr,vr,hd,vl,hu: 6% 9% 6% 11% 15% 10% 16% 11% 16%
x264 [info]: i4 v,h,dc,ddl,ddr,vr,hd,vl,hu: 8% 13% 7% 10% 14% 10% 13% 10% 16%
x264 [info]: i8c dc,h,v,p: 30% 32% 19% 20%
x264 [info]: Weighted P-Frames: Y:38.7% UV:27.4%
x264 [info]: ref P L0: 43.9% 10.3% 15.8% 7.1% 5.3% 4.2% 3.8% 2.3% 2.3% 2.1% 2.1% 0.8% 0.0%
x264 [info]: ref B L0: 74.4% 10.8% 5.0% 2.5% 1.9% 1.6% 1.4% 1.0% 0.8% 0.5%
x264 [info]: ref B L1: 96.2% 3.8%
x264 [info]: kb/s:1080.31

encoded 22458 frames, 22.49 fps, 1080.32 kb/s
GeneralComplete name : D:\Torrents\Peter and the Wolf.1946.DVDRip.x264.640x.rip by Frost O.S.mp4Format : MPEG-4Format profile : Base MediaCodec ID : isom (isom/avc1)File size : 130 MiBDuration : 14 min 58 sOverall bit rate mode : VariableOverall bit rate : 1 217 kb/sMovie name : Peter and the Wolf 1946 DVDRip x264 640x rip by Frost O SGenre : AnimationContentType : Short FilmEncoded date : UTC 2017-04-04 13:14:48Tagged date : UTC 2017-04-04 13:14:53Writing application : MkvToMp4 version: 0.224 (x64)Cover : YesComment : rip by Frost O.S

VideoID : 1Format : AVCFormat/Info : Advanced Video CodecFormat profile : [email protected] settings, CABAC : YesFormat settings, ReFrames : 11 framesCodec ID : avc1Codec ID/Info : Advanced Video CodingDuration : 14 min 58 sBit rate : 1 080 kb/sMaximum bit rate : 2 955 kb/sWidth : 468 pixelsHeight : 360 pixelsDisplay aspect ratio : 4:3Frame rate mode : ConstantFrame rate : 25.000 FPSColor space : YUVChroma subsampling : 4:2:0Bit depth : 8 bitsScan type : ProgressiveBits/(Pixel*Frame) : 0.256Stream size : 116 MiB (89%)Writing library : x264 core 148 r2744 b97ae06Encoding settings : cabac=1 / ref=11 / deblock=1:1:1 / analyse=0x3:0x133 / me=umh / subme=11 / psy=1 / psy_rd=0.60:0.00 / mixed_ref=1 / me_range=48 / chroma_me=1 / trellis=2 / 8x8dct=1 / cqm=0 / deadzone=21,11 / fast_pskip=0 / chroma_qp_offset=-2 / threads=6 / lookahead_threads=1 / sliced_threads=0 / nr=0 / decimate=0 / interlaced=0 / bluray_compat=0 / constrained_intra=0 / bframes=8 / b_pyramid=2 / b_adapt=2 / b_bias=0 / direct=3 / weightb=1 / open_gop=0 / weightp=2 / keyint=250 / keyint_min=25 / scenecut=40 / intra_refresh=0 / rc=2pass / mbtree=0 / bitrate=1080 / ratetol=1.0 / qcomp=0.60 / qpmin=0 / qpmax=69 / qpstep=4 / cplxblur=20.0 / qblur=0.5 / ip_ratio=1.40 / pb_ratio=1.30 / aq=1:1.00Language : EnglishEncoded date : UTC 2017-04-04 13:14:48Tagged date : UTC 2017-04-04 13:14:49Color range : LimitedColor primaries : BT.601 PALTransfer characteristics : BT.470 System B, BT.470 System GMatrix coefficients : BT.601

AudioID : 2Format : AACFormat/Info : Advanced Audio CodecFormat profile : LCCodec ID : 40Duration : 14 min 58 sBit rate mode : VariableBit rate : 128 kb/sMaximum bit rate : 131 kb/sChannel(s) : 2 channelsChannel positions : Front: L RSampling rate : 48.0 kHzFrame rate : 46.875 FPS (1024 spf)Compression mode : LossyStream size : 13.7 MiB (11%)Language : RussianDefault : YesAlternate group : 1Encoded date : UTC 2017-04-04 13:14:49Tagged date : UTC 2017-04-04 13:14:49


Трекер:  [ 04-Апр-2017 15:30 ]

  

Скачать .torrent

Размер .torrent файла 10 KB


Размер: 130 MB
Хэш (hash) релиза: 3c0e58c778b83dea3f60f7426b59717b6bab2bd9

Еще никто не оставлял запись к записи скачать торрент [MULT] Петя и волк Peter and the Wolf . Будь первым!

!Обратная связь