#27 - Vol.2 chapter 27 03-27-2017
Бразилия / Brazil (1985) BDRip 1080p | P, P2, A | Directors Cut

Скачать через торрент [VIDEO] Призрачная красота Collateral Beauty бесплатно русская версия torrent активатор

Статистика раздачи
Размер:  2.07 GB   |    Зарегистрирован:  1 год   |    .torrent скачан:  60 раз   |   
Раздают:  1  
   
загрузка...
 
Автор Сообщение

Galfimbul

avatar Galfimbul


Призрачная красота / Collateral Beauty
«Все мы связаны»
Премьера: 12 декабря 2016
Оригинальное название: Collateral Beauty
Страна: США
Жанр: драма, мелодрама
Возраст: 16+

Режиссер: Дэвид Фрэнкел / David Frankel

В ролях: Уилл Смит, Эдвард Нортон, Кейт Уинслет, Майкл Пенья, Хелен Миррен, Наоми Харрис, Кира Найтли, Джейкоб Латимор, Энн Дауд, Лиза Колон-Зайас

Описание: Главный герой работает в рекламном агентстве Нью-Йорка. Не так давно в его личной жизни произошла трагедия, ввергнувшая его в тяжелейшую депрессию. Коллеги пытаются помочь и разрабатывают нетрадиционный план по возвращению друга обратно на твёрдую почву, однако план срабатывает неожиданным образом.

Продолжительность: 01:36:39
Перевод: Дублированный [Лицензия]
Оригинальная дорожка: есть

Автор рипа:

Качество видео: BDRip Исходник: Blu-Ray Remux (1080p) Формат: mp4
Видео кодек: MPEG-4 AVC Аудио кодек: AAC
Видео: 1280x534 (2.40:1) at 23.976 fps, AVC at 2 797 kbps avg, 0.171 bit/pixel
Аудио №1 Rus: 48.0 KHz, AAC, 2 ch, 128.0 Kbps
Аудио №2 Eng: 48.0 KHz, AAC, 2 ch, 128.0 Kbps
Субтитры: русские (форсированные, полные), английские (полные)
Навигация по главам: есть
Размер: 2.07 GiB
avs [info]: 1280x534p 1:1 @ 24000/1001 fps (cfr)
x264 [info]: using SAR=1/1
x264 [info]: using cpu capabilities: MMX2 SSE2Fast SSSE3 Cache64
x264 [info]: profile High, level 4.1
x264 [info]: frame I:999 Avg QP:13.59 size:129601
x264 [info]: frame P:31017 Avg QP:16.48 size: 33520
x264 [info]: frame B:107027 Avg QP:18.88 size: 8022
x264 [info]: consecutive B-frames: 1.0% 0.7% 6.3% 23.9% 68.1%
x264 [info]: mb I I16..4: 3.6% 71.5% 24.8%
x264 [info]: mb P I16..4: 0.4% 4.4% 0.8% P16..4: 42.9% 28.5% 17.9% 0.0% 0.0% skip: 5.0%
x264 [info]: mb B I16..4: 0.0% 0.4% 0.1% B16..8: 45.1% 8.4% 1.9% direct: 3.8% skip:40.3% L0:44.9% L1:47.4% BI: 7.7%
x264 [info]: 8x8 transform intra:76.5% inter:55.5%
x264 [info]: coded y,uvDC,uvAC intra: 88.3% 89.5% 72.0% inter: 20.3% 20.2% 3.9%
x264 [info]: i16 v,h,dc,p: 28% 14% 12% 46%
x264 [info]: i8 v,h,dc,ddl,ddr,vr,hd,vl,hu: 23% 12% 22% 5% 7% 8% 7% 8% 7%
x264 [info]: i4 v,h,dc,ddl,ddr,vr,hd,vl,hu: 27% 13% 13% 6% 9% 9% 8% 8% 7%
x264 [info]: i8c dc,h,v,p: 48% 18% 24% 11%
x264 [info]: Weighted P-Frames: Y:2.1% UV:0.4%
x264 [info]: ref P L0: 43.2% 8.8% 19.9% 7.0% 6.6% 4.5% 4.7% 2.5% 2.5% 0.2% 0.0%
x264 [info]: ref B L0: 68.3% 13.9% 7.0% 4.0% 2.6% 2.3% 1.4% 0.5%
x264 [info]: ref B L1: 90.1% 9.9%
x264 [info]: kb/s:2797.28
encoded 139043 frames, 2.51 fps, 2797.28 kb/s
GeneralComplete name : ...Prizrachnaya_krasota_2016_KinoGadget.mp4Format : MPEG-4Format profile : Base MediaCodec ID : isom (isom)File size : 2.07 GiBDuration : 1 h 36 minOverall bit rate mode : VariableOverall bit rate : 3 065 kb/sMovie name : Призрачная красота | 2016_KinoGadgetPerformer : Дэвид ФрэнкелDirector : Дэвид ФрэнкелActor : Уилл Смит / Эдвард Нортон / Кейт Уинслет / Майкл Пенья / Хелен Миррен / Наоми Харрис / Кира Найтли / Джейкоб Латимор / Энн Дауд / Лиза Колон-ЗайасScreenplay by : Аллан ЛобProducer : Энтони Брегман / Бард Доррос / Аллан ЛобGenre : Drama, RomanceContentType : Short FilmRecorded date : 2016Encoded date : UTC 2017-04-02 05:11:05Tagged date : UTC 2017-04-02 05:21:33Cover : YesContentRating : mpaa|PG-13|300|LongDescription : Главный герой работает в рекламном агентстве Нью-Йорка. Не так давно в его личной жизни произошла трагедия, ввергнувшая его в тяжелейшую депрессию. Коллеги пытаются помочь и разрабатывают нетрадиционный план по возвращению друга обратно на твёрдую почву, однако план срабатывает неожиданным образом.HDVideo : Yes

VideoID : 1Format : AVCFormat/Info : Advanced Video CodecFormat profile : [email protected] settings, CABAC : YesFormat settings, ReFrames : 9 framesCodec ID : avc1Codec ID/Info : Advanced Video CodingDuration : 1 h 36 minBit rate : 2 797 kb/sMaximum bit rate : 13.0 Mb/sWidth : 1 280 pixelsHeight : 534 pixelsDisplay aspect ratio : 2.40:1Frame rate mode : ConstantFrame rate : 23.976 (24000/1001) FPSColor space : YUVChroma subsampling : 4:2:0Bit depth : 8 bitsScan type : ProgressiveBits/(Pixel*Frame) : 0.171Stream size : 1.89 GiB (91%)Writing library : x264 core 148 r2638 7599210Encoding settings : cabac=1 / ref=9 / deblock=1:-2:-1 / analyse=0x3:0x113 / me=umh / subme=7 / psy=1 / psy_rd=1.00:0.00 / mixed_ref=1 / me_range=32 / chroma_me=1 / trellis=2 / 8x8dct=1 / cqm=0 / deadzone=21,11 / fast_pskip=0 / chroma_qp_offset=-2 / threads=3 / lookahead_threads=1 / sliced_threads=0 / nr=0 / decimate=1 / interlaced=0 / bluray_compat=0 / constrained_intra=0 / bframes=4 / b_pyramid=2 / b_adapt=2 / b_bias=0 / direct=1 / weightb=1 / open_gop=0 / weightp=2 / keyint=250 / keyint_min=25 / scenecut=40 / intra_refresh=0 / rc_lookahead=60 / rc=crf / mbtree=1 / crf=17.0 / qcomp=0.60 / qpmin=0 / qpmax=69 / qpstep=4 / vbv_maxrate=62500 / vbv_bufsize=78125 / crf_max=0.0 / nal_hrd=none / filler=0 / ip_ratio=1.40 / aq=1:1.00Encoded date : UTC 2017-04-01 23:30:35Tagged date : UTC 2017-04-02 05:12:29

Audio #1ID : 2Format : AACFormat/Info : Advanced Audio CodecFormat profile : LCCodec ID : 40Duration : 1 h 36 minBit rate mode : VariableBit rate : 128 kb/sMaximum bit rate : 135 kb/sChannel(s) : 2 channelsChannel positions : Front: L RSampling rate : 48.0 kHzFrame rate : 46.875 FPS (1024 spf)Compression mode : LossyStream size : 88.5 MiB (4%)Title : Dub [License]Language : RussianEncoded date : UTC 2017-04-01 23:34:27Tagged date : UTC 2017-04-02 05:12:29

Audio #2ID : 3Format : AACFormat/Info : Advanced Audio CodecFormat profile : LCCodec ID : 40Duration : 1 h 36 minBit rate mode : VariableBit rate : 128 kb/sMaximum bit rate : 134 kb/sChannel(s) : 2 channelsChannel positions : Front: L RSampling rate : 48.0 kHzFrame rate : 46.875 FPS (1024 spf)Compression mode : LossyStream size : 88.5 MiB (4%)Title : OriginalLanguage : EnglishEncoded date : UTC 2017-04-01 23:39:57Tagged date : UTC 2017-04-02 05:12:29

Text #1ID : 4Format : Timed TextCodec ID : tx3gDuration : 1 h 25 minBit rate mode : VariableBit rate : 1 b/sStream size : 947 Bytes (0%)Title : ForcedLanguage : RussianForced : NoEncoded date : UTC 2017-04-02 05:12:29Tagged date : UTC 2017-04-02 05:12:29

Text #2ID : 5Format : Timed TextCodec ID : tx3gDuration : 1 h 36 minBit rate mode : VariableBit rate : 102 b/sStream size : 72.2 KiB (0%)Title : FullLanguage : RussianForced : NoEncoded date : UTC 2017-04-02 05:12:29Tagged date : UTC 2017-04-02 05:12:29

Text #3ID : 6Format : Timed TextCodec ID : tx3gDuration : 1 h 31 minBit rate mode : VariableBit rate : 73 b/sStream size : 49.1 KiB (0%)Title : FullLanguage : EnglishForced : NoEncoded date : UTC 2017-04-02 05:12:29Tagged date : UTC 2017-04-02 05:12:29

Menu00:00:00.000 : 00:00:00.00000:10:20.078 : 00:10:20.07800:21:30.414 : 00:21:30.41400:33:57.118 : 00:33:57.11800:42:43.311 : 00:42:43.31100:53:07.184 : 00:53:07.18401:01:04.327 : 01:01:04.32701:08:55.048 : 01:08:55.04801:22:15.931 : 01:22:15.93101:33:09.626 : 01:33:09.626


Трекер:  [ 02-Апр-2017 08:00 ]

  

Скачать .torrent

Размер .torrent файла 11 KB


Размер: 2.07 GB
Хэш (hash) релиза: 0d2a45c87feefe05177c9cc58bd531777c3399c8

Еще никто не оставлял запись к записи скачать торрент [VIDEO] Призрачная красота Collateral Beauty . Будь первым!

!Обратная связь