Deizi_Rock | No Ordinary Man A Life Of George Carman | Object-oriented backpropagation and its application to structural design

Скачать через торрент [VIDEO] Дьявол Devil бесплатно русская версия torrent активатор

Статистика раздачи
Размер:  1.58 GB   |    Зарегистрирован:  1 год 3 месяца   |    .torrent скачан:  20 раз   |   
Раздают:  1  
   
загрузка...
 
Автор Сообщение

Galfimbul

avatar Galfimbul


Дьявол / Devil
«Зло не приходит случайно»
Год выпуска: 2010
Оригинальное название: Devil
Страна: США
Жанр: ужасы, триллер, детектив
Возраст: 16+

Режиссер: Джон Эрик Даудл / John Erick Dowdle

В ролях: Крис Мессина, Логан Маршалл-Грин, Дженни О’Хара, Бояна Новакович, Букем Вудбайн, Джеффри Аренд, Джейкоб Варгас, Мэтт Крэвен, Джошуа Пиис, Каролин Давернас

Описание: Несколько людей, оказавшихся в застрявшем лифте, со временем понимают, что среди них присутствует сам дьявол.

Продолжительность: 01:20:21
Перевод: Дублированный [Blu-ray EUR]
Оригинальная дорожка: есть

Автор рипа:

Качество видео: BDRip Исходник: Blu-Ray Remux (1080p) Формат: mp4
Видео кодек: MPEG-4 AVC Аудио кодек: AAC
Видео: 1280x536 (2.40:1) at 23.976 fps, AVC at 2 544 kbps avg, 0.155 bit/pixel
Аудио №1 Rus: 48.0 KHz, AAC, 2 ch, 128.0 Kbps
Аудио №2 Eng: 48.0 KHz, AAC, 2 ch, 128.0 Kbps
Субтитры: русские (форсированные, полные), английские (полные)
Навигация по главам: есть
Размер: 1.58 GiB
avs [info]: 1280x536p 1:1 @ 24000/1001 fps (cfr)
x264 [info]: using SAR=1/1
x264 [info]: using cpu capabilities: MMX2 SSE2Fast SSSE3 Cache64
x264 [info]: profile High, level 4.1
x264 [info]: frame I:873 Avg QP:12.65 size: 91110
x264 [info]: frame P:21857 Avg QP:15.95 size: 28046
x264 [info]: frame B:92863 Avg QP:18.01 size: 9049
x264 [info]: consecutive B-frames: 1.4% 1.3% 2.8% 14.7% 10.2% 53.7% 4.2% 8.5% 3.3%
x264 [info]: mb I I16..4: 7.1% 76.6% 16.4%
x264 [info]: mb P I16..4: 1.4% 7.8% 1.1% P16..4: 40.3% 25.9% 15.0% 0.0% 0.0% skip: 8.5%
x264 [info]: mb B I16..4: 0.1% 0.5% 0.0% B16..8: 43.2% 8.9% 1.8% direct: 5.5% skip:40.0% L0:45.8% L1:47.2% BI: 7.0%
x264 [info]: 8x8 transform intra:76.7% inter:61.9%
x264 [info]: coded y,uvDC,uvAC intra: 76.1% 81.3% 62.2% inter: 23.2% 21.0% 3.4%
x264 [info]: i16 v,h,dc,p: 63% 12% 8% 17%
x264 [info]: i8 v,h,dc,ddl,ddr,vr,hd,vl,hu: 20% 12% 27% 5% 7% 7% 7% 7% 7%
x264 [info]: i4 v,h,dc,ddl,ddr,vr,hd,vl,hu: 28% 15% 19% 5% 9% 8% 7% 5% 4%
x264 [info]: i8c dc,h,v,p: 56% 17% 20% 7%
x264 [info]: Weighted P-Frames: Y:4.9% UV:2.8%
x264 [info]: ref P L0: 44.1% 7.6% 17.6% 8.0% 6.4% 5.0% 4.2% 2.4% 2.3% 2.1% 0.2% 0.0%
x264 [info]: ref B L0: 69.8% 12.4% 6.6% 3.7% 2.6% 2.2% 1.8% 0.7% 0.4%
x264 [info]: ref B L1: 91.5% 8.5%
x264 [info]: kb/s:2543.59
encoded 115593 frames, 2.37 fps, 2543.59 kb/s
GeneralComplete name : ...Dyavol_2010_KinoGadget.mp4Format : MPEG-4Format profile : Base MediaCodec ID : isom (isom)File size : 1.58 GiBDuration : 1 h 20 minOverall bit rate mode : VariableOverall bit rate : 2 811 kb/sMovie name : Дьявол | KinoGadgetPerformer : Джон Эрик ДаудлDirector : Джон Эрик ДаудлActor : Крис Мессина / Логан Маршалл-Грин / Дженни О’Хара / Бояна Новакович / Букем Вудбайн / Джеффри Аренд / Джейкоб Варгас / Мэтт Крэвен / Джошуа Пиис / Каролин ДавернасScreenplay by : Брайан Нельсон / М. Найт ШьямаланProducer : Сэм Мерсер / М. Найт Шьямалан / Джозеф БоччиаGenre : Horror, Mystery, ThrillerContentType : Short FilmRecorded date : 2010Encoded date : UTC 2017-04-01 04:47:45Tagged date : UTC 2017-04-01 04:59:53Cover : YesContentRating : mpaa|PG-13|300|LongDescription : Несколько людей, оказавшихся в застрявшем лифте, со временем понимают, что среди них присутствует сам дьявол.HDVideo : Yes

VideoID : 1Format : AVCFormat/Info : Advanced Video CodecFormat profile : [email protected] settings, CABAC : YesFormat settings, ReFrames : 10 framesCodec ID : avc1Codec ID/Info : Advanced Video CodingDuration : 1 h 20 minBit rate : 2 544 kb/sMaximum bit rate : 12.3 Mb/sWidth : 1 280 pixelsHeight : 536 pixelsDisplay aspect ratio : 2.40:1Frame rate mode : ConstantFrame rate : 23.976 (24000/1001) FPSColor space : YUVChroma subsampling : 4:2:0Bit depth : 8 bitsScan type : ProgressiveBits/(Pixel*Frame) : 0.155Stream size : 1.43 GiB (90%)Writing library : x264 core 148 r2638 7599210Encoding settings : cabac=1 / ref=10 / deblock=1:-2:-1 / analyse=0x3:0x113 / me=umh / subme=7 / psy=1 / psy_rd=1.00:0.00 / mixed_ref=1 / me_range=32 / chroma_me=1 / trellis=2 / 8x8dct=1 / cqm=0 / deadzone=21,11 / fast_pskip=0 / chroma_qp_offset=-2 / threads=3 / lookahead_threads=1 / sliced_threads=0 / nr=0 / decimate=1 / interlaced=0 / bluray_compat=0 / constrained_intra=0 / bframes=8 / b_pyramid=2 / b_adapt=2 / b_bias=0 / direct=1 / weightb=1 / open_gop=0 / weightp=2 / keyint=250 / keyint_min=25 / scenecut=40 / intra_refresh=0 / rc_lookahead=60 / rc=crf / mbtree=1 / crf=17.0 / qcomp=0.60 / qpmin=0 / qpmax=69 / qpstep=4 / vbv_maxrate=62500 / vbv_bufsize=78125 / crf_max=0.0 / nal_hrd=none / filler=0 / ip_ratio=1.40 / aq=1:1.00Encoded date : UTC 2017-04-01 04:13:40Tagged date : UTC 2017-04-01 04:48:20

Audio #1ID : 2Format : AACFormat/Info : Advanced Audio CodecFormat profile : LCCodec ID : 40Duration : 1 h 20 minBit rate mode : VariableBit rate : 128 kb/sMaximum bit rate : 135 kb/sChannel(s) : 2 channelsChannel positions : Front: L RSampling rate : 48.0 kHzFrame rate : 46.875 FPS (1024 spf)Compression mode : LossyStream size : 73.6 MiB (5%)Title : Dub [Blu-ray EUR]Language : RussianEncoded date : UTC 2017-04-01 04:20:54Tagged date : UTC 2017-04-01 04:48:20

Audio #2ID : 3Format : AACFormat/Info : Advanced Audio CodecFormat profile : LCCodec ID : 40Duration : 1 h 20 minBit rate mode : VariableBit rate : 128 kb/sMaximum bit rate : 135 kb/sChannel(s) : 2 channelsChannel positions : Front: L RSampling rate : 48.0 kHzFrame rate : 46.875 FPS (1024 spf)Compression mode : LossyStream size : 73.6 MiB (5%)Title : OriginalLanguage : EnglishEncoded date : UTC 2017-04-01 04:36:08Tagged date : UTC 2017-04-01 04:48:20

Text #1ID : 4Format : Timed TextCodec ID : tx3gDuration : 1 h 20 minBit rate mode : VariableBit rate : 1 b/sStream size : 490 Bytes (0%)Title : ForcedLanguage : RussianForced : NoEncoded date : UTC 2017-04-01 04:48:20Tagged date : UTC 2017-04-01 04:48:20

Text #2ID : 5Format : Timed TextCodec ID : tx3gDuration : 1 h 15 minBit rate mode : VariableBit rate : 94 b/sStream size : 52.1 KiB (0%)Title : FullLanguage : RussianForced : NoEncoded date : UTC 2017-04-01 04:48:20Tagged date : UTC 2017-04-01 04:48:20

Text #3ID : 6Format : Timed TextCodec ID : tx3gDuration : 1 h 15 minBit rate mode : VariableBit rate : 78 b/sStream size : 43.2 KiB (0%)Title : FullLanguage : EnglishForced : NoEncoded date : UTC 2017-04-01 04:48:20Tagged date : UTC 2017-04-01 04:48:20

Menu00:00:00.000 : 00:00:00.00000:04:10.750 : 00:04:10.75000:07:00.629 : 00:07:00.62900:10:07.524 : 00:10:07.52400:14:37.585 : 00:14:37.58500:18:17.388 : 00:18:17.38800:21:09.226 : 00:21:09.22600:25:28.610 : 00:25:28.61000:30:11.184 : 00:30:11.18400:34:42.706 : 00:34:42.70600:37:10.437 : 00:37:10.43700:41:31.489 : 00:41:31.48900:45:33.856 : 00:45:33.85600:49:19.832 : 00:49:19.83200:53:40.134 : 00:53:40.13400:57:36.912 : 00:57:36.91201:02:01.343 : 01:02:01.34301:06:31.946 : 01:06:31.94601:13:40.875 : 01:13:40.87501:15:47.710 : 01:15:47.710


Трекер:  [ 01-Апр-2017 07:30 ]

  

Скачать .torrent

Размер .torrent файла 16 KB


Размер: 1.58 GB
Хэш (hash) релиза: 9a335ade6da7665cfe689b3220cae43dc1651bcc

Еще никто не оставлял запись к записи скачать торрент [VIDEO] Дьявол Devil . Будь первым!

!Обратная связь