RuPaul's Drag Race 8.7 | Krüppel, Bastarde und Zerbrochenes Cripples, Bastards, and Broken Things | La guérison des 5 blessures

Скачать через торрент [MULT] Ежик и Медвежонок. Сборник бесплатно русская версия torrent активатор

Статистика раздачи
Размер:  306 MB   |    Зарегистрирован:  1 год 3 месяца   |    .torrent скачан:  19 раз   |   
Раздают:  1  
   
загрузка...
 
Автор Сообщение

Galfimbul

avatar Galfimbul


Ежик и Медвежонок. Сборник!
Трям! Здравствуйте!

Год выпуска: 1980
Страна: СССР
Жанр: мультфильм, короткометражка
Продолжительность: 00:08:35
Перевод: не требуется
Cубтитры: нет
Режиссер: Юрий Бутырин
Роли озвучивали: Клара Румянова, Георгий Бурков
Описание: Зрители попадут в сказочную страну «Тилимилитрямдию», которую на их глазах сочинил добрый выдумщик Медвежонок для своих друзей Зайчика и Ёжика. В этой стране все ходят на головах, а здороваются так: Трям — здравствуйте.
Релиз группы
Качество: DVDRip / рип с DVD5 Крупный план
Формат: MP4
Видео кодек: H.264
Аудио кодек: AAC
Видео: 478x360 AR:1.33 1080 kbps 25 fps
Аудио : 1ch 48 kHz 128 kbps
<div class="sp-wrap">
<div class="sp-head folded">Logx264</div>
<div class="sp-body">avs [info]: 478x360p 1:1 @ 25/1 fps (cfr)
x264 [info]: using SAR=1/1
x264 [info]: using cpu capabilities: MMX2 SSE2Fast SSSE3 SSE4.2 AVX FMA3 AVX2 LZCNT BMI2
x264 [info]: profile High, level 4.1

x264 [info]: frame I:83 Avg QP:17.39 size: 21297
x264 [info]: frame P:3158 Avg QP:20.21 size: 9751
x264 [info]: frame B:9644 Avg QP:22.16 size: 3833
x264 [info]: consecutive B-frames: 2.2% 3.6% 10.8% 39.6% 18.8% 16.9% 5.2% 2.3% 0.7%
x264 [info]: mb I I16..4: 2.0% 73.6% 24.4%
x264 [info]: mb P I16..4: 0.6% 17.1% 2.3% P16..4: 35.5% 33.0% 9.6% 1.3% 0.2% skip: 0.4%
x264 [info]: mb B I16..4: 0.2% 2.1% 0.2% B16..8: 35.7% 21.6% 3.3% direct:14.6% skip:22.4% L0:49.8% L1:37.2% BI:13.0%
x264 [info]: 8x8 transform intra:84.2% inter:68.2%
x264 [info]: direct mvs spatial:97.2% temporal:2.8%
x264 [info]: coded y,uvDC,uvAC intra: 91.3% 65.0% 24.0% inter: 42.3% 44.0% 3.4%
x264 [info]: i16 v,h,dc,p: 28% 13% 16% 43%
x264 [info]: i8 v,h,dc,ddl,ddr,vr,hd,vl,hu: 6% 6% 10% 11% 14% 11% 14% 11% 17%
x264 [info]: i4 v,h,dc,ddl,ddr,vr,hd,vl,hu: 10% 7% 6% 10% 14% 12% 13% 12% 17%
x264 [info]: i8c dc,h,v,p: 24% 42% 20% 13%
x264 [info]: Weighted P-Frames: Y:65.3% UV:58.9%
x264 [info]: ref P L0: 39.1% 8.0% 11.2% 8.8% 7.2% 6.4% 4.8% 3.5% 3.2% 3.1% 2.7% 1.9% 0.1%
x264 [info]: ref B L0: 63.4% 11.4% 6.8% 4.8% 3.8% 3.1% 2.5% 1.9% 1.5% 0.8%
x264 [info]: ref B L1: 95.9% 4.1%
x264 [info]: kb/s:1079.17

encoded 12885 frames, 22.11 fps, 1079.18 kb/s
GeneralComplete name : D:\Torrents\Ежик и Медвежонок.1980-1983.DVDRip.x264.640x\Трям! Здравствуйте!.1980.DVDRip.x264.640x.rip by Frost O.S.mp4Format : MPEG-4Format profile : Base MediaCodec ID : isom (isom/avc1)File size : 74.7 MiBDuration : 8 min 35 sOverall bit rate : 1 216 kb/sMovie name : Трям! Здравствуйте! 1980 DVDRip x264 640x rip by Frost O SGenre : AnimationContentType : Short FilmEncoded date : UTC 2017-03-30 17:00:46Tagged date : UTC 2017-03-30 17:00:47Writing application : MkvToMp4 version: 0.224 (x64)Cover : YesComment : rip by Frost O.S

VideoID : 1Format : AVCFormat/Info : Advanced Video CodecFormat profile : [email protected] settings, CABAC : YesFormat settings, ReFrames : 11 framesCodec ID : avc1Codec ID/Info : Advanced Video CodingDuration : 8 min 35 sBit rate : 1 080 kb/sMaximum bit rate : 1 554 kb/sWidth : 478 pixelsHeight : 360 pixelsDisplay aspect ratio : 4:3Frame rate mode : ConstantFrame rate : 25.000 FPSColor space : YUVChroma subsampling : 4:2:0Bit depth : 8 bitsScan type : ProgressiveBits/(Pixel*Frame) : 0.251Stream size : 66.3 MiB (89%)Writing library : x264 core 148 r2744 b97ae06Encoding settings : cabac=1 / ref=11 / deblock=1:-1:-1 / analyse=0x3:0x133 / me=umh / subme=11 / psy=1 / psy_rd=0.60:0.00 / mixed_ref=1 / me_range=48 / chroma_me=1 / trellis=2 / 8x8dct=1 / cqm=0 / deadzone=21,11 / fast_pskip=0 / chroma_qp_offset=-2 / threads=6 / lookahead_threads=1 / sliced_threads=0 / nr=0 / decimate=0 / interlaced=0 / bluray_compat=0 / constrained_intra=0 / bframes=8 / b_pyramid=2 / b_adapt=2 / b_bias=0 / direct=3 / weightb=1 / open_gop=0 / weightp=2 / keyint=250 / keyint_min=25 / scenecut=40 / intra_refresh=0 / rc=2pass / mbtree=0 / bitrate=1080 / ratetol=1.0 / qcomp=0.60 / qpmin=0 / qpmax=69 / qpstep=4 / cplxblur=20.0 / qblur=0.5 / ip_ratio=1.40 / pb_ratio=1.30 / aq=1:1.00Language : EnglishEncoded date : UTC 2017-03-30 17:00:46Tagged date : UTC 2017-03-30 17:00:46Color range : LimitedColor primaries : BT.601 PALTransfer characteristics : BT.470 System B, BT.470 System GMatrix coefficients : BT.601

AudioID : 2Format : AACFormat/Info : Advanced Audio CodecFormat profile : LCCodec ID : 40Duration : 8 min 35 sBit rate mode : ConstantBit rate : 128 kb/sChannel(s) : 1 channelChannel positions : Front: CSampling rate : 48.0 kHzFrame rate : 46.875 FPS (1024 spf)Compression mode : LossyStream size : 7.86 MiB (11%)Language : RussianDefault : YesAlternate group : 1Encoded date : UTC 2017-03-30 17:00:46Tagged date : UTC 2017-03-30 17:00:46
</div>
</div>
Зимняя сказка

Год выпуска: 1981
Страна: СССР
Жанр: мультфильм, короткометражка
Продолжительность: 00:09:20
Перевод: не требуется
Cубтитры: нет
Режиссер: Юрий Бутырин
Роли озвучивали: Клара Румянова, Георгий Бурков, Георгий Вицин
Описание: С приходом зимы медвежонок захотел съесть все кругом, чтобы вся красота зимнего пейзажа была всегда с ним рядом — в его животе. Однако объевшись снежинками, он заболевает и всю зиму бредит, что он снежинка. На выручку приходит его верный друг — ежик..
Релиз группы
Качество: DVDRip / рип с DVD5 Крупный план
Формат: MP4
Видео кодек: H.264
Аудио кодек: AAC
Видео: 476x360 AR:1.32 1080 kbps 25 fps
Аудио : 1ch 48 kHz 128 kbps
<div class="sp-wrap">
<div class="sp-head folded">Logx264</div>
<div class="sp-body">avs [info]: 476x360p 1:1 @ 25/1 fps (cfr)
x264 [info]: using SAR=1/1
x264 [info]: using cpu capabilities: MMX2 SSE2Fast SSSE3 SSE4.2 AVX FMA3 AVX2 LZCNT BMI2
x264 [info]: profile High, level 4.1

x264 [info]: frame I:88 Avg QP:20.43 size: 22592
x264 [info]: frame P:3301 Avg QP:23.20 size: 9292
x264 [info]: frame B:10615 Avg QP:24.82 size: 4046
x264 [info]: consecutive B-frames: 2.1% 2.7% 9.8% 35.6% 21.4% 15.8% 6.2% 3.4% 2.8%
x264 [info]: mb I I16..4: 1.8% 72.5% 25.7%
x264 [info]: mb P I16..4: 0.5% 17.3% 1.9% P16..4: 38.4% 31.5% 9.1% 1.0% 0.1% skip: 0.3%
x264 [info]: mb B I16..4: 0.1% 2.7% 0.2% B16..8: 38.0% 22.4% 3.1% direct:13.2% skip:20.2% L0:52.0% L1:35.0% BI:13.0%
x264 [info]: 8x8 transform intra:87.1% inter:69.9%
x264 [info]: direct mvs spatial:97.0% temporal:3.0%
x264 [info]: coded y,uvDC,uvAC intra: 93.0% 76.5% 26.1% inter: 47.0% 47.0% 2.4%
x264 [info]: i16 v,h,dc,p: 30% 15% 13% 43%
x264 [info]: i8 v,h,dc,ddl,ddr,vr,hd,vl,hu: 8% 7% 7% 10% 14% 11% 14% 11% 17%
x264 [info]: i4 v,h,dc,ddl,ddr,vr,hd,vl,hu: 11% 10% 4% 9% 14% 12% 13% 11% 16%
x264 [info]: i8c dc,h,v,p: 31% 34% 18% 17%
x264 [info]: Weighted P-Frames: Y:68.4% UV:62.4%
x264 [info]: ref P L0: 36.2% 10.5% 11.8% 8.8% 6.6% 6.2% 4.7% 3.8% 3.3% 3.1% 2.7% 2.2% 0.0%
x264 [info]: ref B L0: 59.9% 12.1% 7.1% 5.0% 4.1% 3.6% 3.1% 2.5% 1.6% 0.8%
x264 [info]: ref B L1: 94.5% 5.5%
x264 [info]: kb/s:1079.86

encoded 14004 frames, 21.92 fps, 1079.87 kb/s
GeneralComplete name : D:\Torrents\Ежик и Медвежонок.1980-1983.DVDRip.x264.640x\Зимняя сказка.1981.DVDRip.x264.640x.rip by Frost O.S.mp4Format : MPEG-4Format profile : Base MediaCodec ID : isom (isom/avc1)File size : 81.3 MiBDuration : 9 min 20 sOverall bit rate : 1 217 kb/sMovie name : Зимняя сказка 1981 DVDRip x264 640x rip by Frost O SGenre : AnimationContentType : Short FilmEncoded date : UTC 2017-03-30 16:58:35Tagged date : UTC 2017-03-30 16:58:38Writing application : MkvToMp4 version: 0.224 (x64)Cover : YesComment : rip by Frost O.S

VideoID : 1Format : AVCFormat/Info : Advanced Video CodecFormat profile : [email protected] settings, CABAC : YesFormat settings, ReFrames : 11 framesCodec ID : avc1Codec ID/Info : Advanced Video CodingDuration : 9 min 20 sBit rate : 1 080 kb/sMaximum bit rate : 2 108 kb/sWidth : 476 pixelsHeight : 360 pixelsDisplay aspect ratio : 4:3Frame rate mode : ConstantFrame rate : 25.000 FPSColor space : YUVChroma subsampling : 4:2:0Bit depth : 8 bitsScan type : ProgressiveBits/(Pixel*Frame) : 0.252Stream size : 72.1 MiB (89%)Writing library : x264 core 148 r2744 b97ae06Encoding settings : cabac=1 / ref=11 / deblock=1:-1:-1 / analyse=0x3:0x133 / me=umh / subme=11 / psy=1 / psy_rd=0.60:0.00 / mixed_ref=1 / me_range=48 / chroma_me=1 / trellis=2 / 8x8dct=1 / cqm=0 / deadzone=21,11 / fast_pskip=0 / chroma_qp_offset=-2 / threads=6 / lookahead_threads=1 / sliced_threads=0 / nr=0 / decimate=0 / interlaced=0 / bluray_compat=0 / constrained_intra=0 / bframes=8 / b_pyramid=2 / b_adapt=2 / b_bias=0 / direct=3 / weightb=1 / open_gop=0 / weightp=2 / keyint=250 / keyint_min=25 / scenecut=40 / intra_refresh=0 / rc=2pass / mbtree=0 / bitrate=1080 / ratetol=1.0 / qcomp=0.60 / qpmin=0 / qpmax=69 / qpstep=4 / cplxblur=20.0 / qblur=0.5 / ip_ratio=1.40 / pb_ratio=1.30 / aq=1:1.00Language : EnglishEncoded date : UTC 2017-03-30 16:58:35Tagged date : UTC 2017-03-30 16:58:37Color range : LimitedColor primaries : BT.601 PALTransfer characteristics : BT.470 System B, BT.470 System GMatrix coefficients : BT.601

AudioID : 2Format : AACFormat/Info : Advanced Audio CodecFormat profile : LCCodec ID : 40Duration : 9 min 20 sBit rate mode : ConstantBit rate : 128 kb/sChannel(s) : 1 channelChannel positions : Front: CSampling rate : 48.0 kHzFrame rate : 46.875 FPS (1024 spf)Compression mode : LossyStream size : 8.55 MiB (11%)Language : RussianDefault : YesAlternate group : 1Encoded date : UTC 2017-03-30 16:58:36Tagged date : UTC 2017-03-30 16:58:37
</div>
</div>
Осенние корабли

Год выпуска: 1982
Страна: СССР
Жанр: мультфильм, короткометражка
Продолжительность: 00:08:27
Перевод: не требуется
Cубтитры: нет
Режиссер: Юрий Бутырин
Роли озвучивали: Клара Румянова, Георгий Бурков, Вячеслав Невинный
Описание: Про Ежика, который мечтал о море.
Релиз группы
Качество: DVDRip / рип с DVD5 Крупный план
Формат: MP4
Видео кодек: H.264
Аудио кодек: AAC
Видео: 482x360 AR:1.34 1080 kbps 25 fps
Аудио : 1ch 48 kHz 128 kbps
<div class="sp-wrap">
<div class="sp-head folded">Logx264</div>
<div class="sp-body">avs [info]: 482x360p 1:1 @ 25/1 fps (cfr)
x264 [info]: using SAR=1/1
x264 [info]: using cpu capabilities: MMX2 SSE2Fast SSSE3 SSE4.2 AVX FMA3 AVX2 LZCNT BMI2
x264 [info]: profile High, level 4.1

x264 [info]: frame I:88 Avg QP:20.20 size: 30204
x264 [info]: frame P:3022 Avg QP:23.25 size: 10085
x264 [info]: frame B:9570 Avg QP:24.78 size: 3677
x264 [info]: consecutive B-frames: 2.5% 4.2% 9.1% 30.9% 20.5% 20.5% 6.9% 3.9% 1.5%
x264 [info]: mb I I16..4: 1.4% 67.4% 31.2%
x264 [info]: mb P I16..4: 0.4% 15.3% 2.2% P16..4: 35.9% 30.6% 13.0% 1.8% 0.2% skip: 0.7%
x264 [info]: mb B I16..4: 0.1% 2.2% 0.3% B16..8: 33.0% 19.8% 3.5% direct:13.3% skip:27.8% L0:47.4% L1:34.2% BI:18.4%
x264 [info]: 8x8 transform intra:83.4% inter:69.0%
x264 [info]: direct mvs spatial:95.9% temporal:4.1%
x264 [info]: coded y,uvDC,uvAC intra: 91.7% 76.2% 39.6% inter: 41.9% 35.4% 7.7%
x264 [info]: i16 v,h,dc,p: 35% 27% 14% 24%
x264 [info]: i8 v,h,dc,ddl,ddr,vr,hd,vl,hu: 8% 11% 10% 10% 13% 10% 12% 10% 16%
x264 [info]: i4 v,h,dc,ddl,ddr,vr,hd,vl,hu: 11% 24% 6% 7% 11% 9% 11% 8% 14%
x264 [info]: i8c dc,h,v,p: 27% 42% 19% 11%
x264 [info]: Weighted P-Frames: Y:65.2% UV:52.9%
x264 [info]: ref P L0: 37.2% 13.2% 11.4% 8.7% 6.4% 5.8% 4.3% 3.1% 2.7% 2.7% 2.4% 2.0% 0.0%
x264 [info]: ref B L0: 64.0% 12.0% 6.9% 4.6% 3.5% 3.0% 2.3% 1.7% 1.3% 0.8%
x264 [info]: ref B L1: 95.0% 5.0%
x264 [info]: kb/s:1077.62

encoded 12680 frames, 21.80 fps, 1077.63 kb/s
GeneralComplete name : D:\Torrents\Ежик и Медвежонок.1980-1983.DVDRip.x264.640x\Осенние корабли.1982.DVDRip.x264.640x.rip by Frost O.S.mp4Format : MPEG-4Format profile : Base MediaCodec ID : isom (isom/avc1)File size : 73.5 MiBDuration : 8 min 27 sOverall bit rate : 1 215 kb/sMovie name : Осенние корабли 1982 DVDRip x264 640x rip by Frost O SGenre : AnimationContentType : Short FilmEncoded date : UTC 2017-03-30 16:59:34Tagged date : UTC 2017-03-30 16:59:35Writing application : MkvToMp4 version: 0.224 (x64)Cover : YesComment : rip by Frost O.S

VideoID : 1Format : AVCFormat/Info : Advanced Video CodecFormat profile : [email protected] settings, CABAC : YesFormat settings, ReFrames : 11 framesCodec ID : avc1Codec ID/Info : Advanced Video CodingDuration : 8 min 27 sBit rate : 1 080 kb/sMaximum bit rate : 1 948 kb/sWidth : 482 pixelsHeight : 360 pixelsDisplay aspect ratio : 4:3Frame rate mode : ConstantFrame rate : 25.000 FPSColor space : YUVChroma subsampling : 4:2:0Bit depth : 8 bitsScan type : ProgressiveBits/(Pixel*Frame) : 0.249Stream size : 65.2 MiB (89%)Writing library : x264 core 148 r2744 b97ae06Encoding settings : cabac=1 / ref=11 / deblock=1:-1:-1 / analyse=0x3:0x133 / me=umh / subme=11 / psy=1 / psy_rd=0.60:0.00 / mixed_ref=1 / me_range=48 / chroma_me=1 / trellis=2 / 8x8dct=1 / cqm=0 / deadzone=21,11 / fast_pskip=0 / chroma_qp_offset=-2 / threads=6 / lookahead_threads=1 / sliced_threads=0 / nr=0 / decimate=0 / interlaced=0 / bluray_compat=0 / constrained_intra=0 / bframes=8 / b_pyramid=2 / b_adapt=2 / b_bias=0 / direct=3 / weightb=1 / open_gop=0 / weightp=2 / keyint=250 / keyint_min=25 / scenecut=40 / intra_refresh=0 / rc=2pass / mbtree=0 / bitrate=1080 / ratetol=1.0 / qcomp=0.60 / qpmin=0 / qpmax=69 / qpstep=4 / cplxblur=20.0 / qblur=0.5 / ip_ratio=1.40 / pb_ratio=1.30 / aq=1:1.00Language : EnglishEncoded date : UTC 2017-03-30 16:59:34Tagged date : UTC 2017-03-30 16:59:34Color range : LimitedColor primaries : BT.601 PALTransfer characteristics : BT.470 System B, BT.470 System GMatrix coefficients : BT.601

AudioID : 2Format : AACFormat/Info : Advanced Audio CodecFormat profile : LCCodec ID : 40Duration : 8 min 27 sBit rate mode : ConstantBit rate : 128 kb/sChannel(s) : 1 channelChannel positions : Front: CSampling rate : 48.0 kHzFrame rate : 46.875 FPS (1024 spf)Compression mode : LossyStream size : 7.74 MiB (11%)Language : RussianDefault : YesAlternate group : 1Encoded date : UTC 2017-03-30 16:59:34Tagged date : UTC 2017-03-30 16:59:34
</div>
</div>
Удивительная бочка

Год выпуска: 1983
Страна: СССР
Жанр: мультфильм, короткометражка
Продолжительность: 00:08:47
Перевод: не требуется
Cубтитры: нет
Режиссер: Юрий Бутырин
Роли озвучивали: Клара Румянова, Георгий Бурков
Описание: Как Ежик и Медвежонок встречали весну.
Релиз группы
Качество: DVDRip / рип с DVD5 Крупный план
Формат: MP4
Видео кодек: H.264
Аудио кодек: AAC
Видео: 476x360 AR:1.32 1080 kbps 25 fps
Аудио : 1ch 48 kHz 128 kbps
<div class="sp-wrap">
<div class="sp-head folded">Logx264</div>
<div class="sp-body">avs [info]: 476x360p 1:1 @ 25/1 fps (cfr)
x264 [info]: using SAR=1/1
x264 [info]: using cpu capabilities: MMX2 SSE2Fast SSSE3 SSE4.2 AVX FMA3 AVX2 LZCNT BMI2
x264 [info]: profile High, level 4.1

x264 [info]: frame I:96 Avg QP:20.35 size: 30428
x264 [info]: frame P:3181 Avg QP:23.81 size: 10247
x264 [info]: frame B:9903 Avg QP:25.22 size: 3610
x264 [info]: consecutive B-frames: 3.7% 3.4% 8.4% 30.6% 18.6% 18.0% 8.3% 5.8% 3.2%
x264 [info]: mb I I16..4: 1.2% 70.3% 28.5%
x264 [info]: mb P I16..4: 0.3% 6.5% 1.9% P16..4: 37.8% 34.8% 15.9% 2.2% 0.3% skip: 0.3%
x264 [info]: mb B I16..4: 0.1% 0.8% 0.3% B16..8: 34.4% 23.5% 4.2% direct:13.5% skip:23.3% L0:46.5% L1:32.2% BI:21.2%
x264 [info]: 8x8 transform intra:72.7% inter:60.3%
x264 [info]: direct mvs spatial:95.6% temporal:4.4%
x264 [info]: coded y,uvDC,uvAC intra: 91.2% 85.5% 51.4% inter: 43.7% 37.4% 4.1%
x264 [info]: i16 v,h,dc,p: 24% 17% 13% 46%
x264 [info]: i8 v,h,dc,ddl,ddr,vr,hd,vl,hu: 11% 8% 8% 9% 12% 10% 13% 11% 17%
x264 [info]: i4 v,h,dc,ddl,ddr,vr,hd,vl,hu: 13% 9% 5% 9% 13% 12% 13% 11% 15%
x264 [info]: i8c dc,h,v,p: 34% 33% 18% 16%
x264 [info]: Weighted P-Frames: Y:55.5% UV:32.6%
x264 [info]: ref P L0: 34.9% 13.7% 12.1% 8.6% 5.7% 5.7% 4.7% 3.8% 3.1% 3.0% 2.7% 2.0% 0.0%
x264 [info]: ref B L0: 63.4% 13.7% 6.5% 4.1% 3.1% 2.9% 2.4% 2.0% 1.3% 0.7%
x264 [info]: ref B L1: 93.6% 6.4%
x264 [info]: kb/s:1081.39

encoded 13180 frames, 22.98 fps, 1081.40 kb/s
GeneralComplete name : D:\Torrents\Ежик и Медвежонок.1980-1983.DVDRip.x264.640x\Удивительная бочка.1983.DVDRip.x264.640x.rip by Frost O.S.mp4Format : MPEG-4Format profile : Base MediaCodec ID : isom (isom/avc1)File size : 76.6 MiBDuration : 8 min 47 sOverall bit rate : 1 218 kb/sMovie name : Удивительная бочка 1983 DVDRip x264 640x rip by Frost O SGenre : AnimationContentType : Short FilmEncoded date : UTC 2017-03-30 17:01:36Tagged date : UTC 2017-03-30 17:01:37Writing application : MkvToMp4 version: 0.224 (x64)Cover : YesComment : rip by Frost O.S

VideoID : 1Format : AVCFormat/Info : Advanced Video CodecFormat profile : [email protected] settings, CABAC : YesFormat settings, ReFrames : 11 framesCodec ID : avc1Codec ID/Info : Advanced Video CodingDuration : 8 min 47 sBit rate : 1 080 kb/sMaximum bit rate : 3 105 kb/sWidth : 476 pixelsHeight : 360 pixelsDisplay aspect ratio : 4:3Frame rate mode : ConstantFrame rate : 25.000 FPSColor space : YUVChroma subsampling : 4:2:0Bit depth : 8 bitsScan type : ProgressiveBits/(Pixel*Frame) : 0.252Stream size : 68.0 MiB (89%)Writing library : x264 core 148 r2744 b97ae06Encoding settings : cabac=1 / ref=11 / deblock=1:-1:-1 / analyse=0x3:0x133 / me=umh / subme=11 / psy=1 / psy_rd=0.60:0.00 / mixed_ref=1 / me_range=48 / chroma_me=1 / trellis=2 / 8x8dct=1 / cqm=0 / deadzone=21,11 / fast_pskip=0 / chroma_qp_offset=-2 / threads=6 / lookahead_threads=1 / sliced_threads=0 / nr=0 / decimate=0 / interlaced=0 / bluray_compat=0 / constrained_intra=0 / bframes=8 / b_pyramid=2 / b_adapt=2 / b_bias=0 / direct=3 / weightb=1 / open_gop=0 / weightp=2 / keyint=250 / keyint_min=25 / scenecut=40 / intra_refresh=0 / rc=2pass / mbtree=0 / bitrate=1080 / ratetol=1.0 / qcomp=0.60 / qpmin=0 / qpmax=69 / qpstep=4 / cplxblur=20.0 / qblur=0.5 / ip_ratio=1.40 / pb_ratio=1.30 / aq=1:1.00Language : EnglishEncoded date : UTC 2017-03-30 17:01:36Tagged date : UTC 2017-03-30 17:01:37Color range : LimitedColor primaries : BT.601 PALTransfer characteristics : BT.470 System B, BT.470 System GMatrix coefficients : BT.601

AudioID : 2Format : AACFormat/Info : Advanced Audio CodecFormat profile : LCCodec ID : 40Duration : 8 min 47 sBit rate mode : ConstantBit rate : 128 kb/sChannel(s) : 1 channelChannel positions : Front: CSampling rate : 48.0 kHzFrame rate : 46.875 FPS (1024 spf)Compression mode : LossyStream size : 8.04 MiB (11%)Language : RussianDefault : YesAlternate group : 1Encoded date : UTC 2017-03-30 17:01:37Tagged date : UTC 2017-03-30 17:01:37
</div>
</div>

Трекер:  [ 30-Мар-2017 19:30 ]

  

Скачать .torrent

Размер .torrent файла 13 KB


Размер: 306 MB
Хэш (hash) релиза: 8877221e1464aeb569ab522c653c0e247cc9535c

Еще никто не оставлял запись к записи скачать торрент [MULT] Ежик и Медвежонок. Сборник . Будь первым!

!Обратная связь