Bobi Dıkenlerin Gücü Adına! 2016 (HDRip XViD) Türkçe Dublaj | Off Topic | Tunesquad - The Strummer (Original Mix)

Скачать через торрент [MULT] Новогодняя ночь бесплатно русская версия torrent активатор

Статистика раздачи
Размер:  89 MB   |    Зарегистрирован:  1 год 3 месяца   |    .torrent скачан:  22 раза   |   
Раздают:  1  
   
загрузка...
 
Автор Сообщение

Galfimbul

avatar Galfimbul


Новогодняя ночь

Год выпуска: 1948
Страна: СССР
Жанр: мультфильм, короткометражка
Продолжительность: 00:10:09
Перевод: не требуется
Cубтитры: нет
Режиссер: Ольга Ходатаева, Петр Носов
Роли озвучивали: Георгий Милляр
Описание: Предновогодние приключения Деда Мороза, нашедшего елку для детей.
Релиз группы
Качество: DVDRip / рип с DVD5 Крупный план, без реставрации
Формат: MP4
Видео кодек: H.264
Аудио кодек: AAC
Видео: 476x360 AR:1.32 1080 kbps 25 fps
Аудио : 1ch 48 kHz 128 kbps
avs [info]: 476x360p 1:1 @ 25/1 fps (cfr)
x264 [info]: using SAR=1/1
x264 [info]: using cpu capabilities: MMX2 SSE2Fast SSSE3 SSE4.2 AVX FMA3 AVX2 LZCNT BMI2
x264 [info]: profile High, level 4.1

x264 [info]: frame I:97 Avg QP:20.77 size: 24485
x264 [info]: frame P:3820 Avg QP:24.78 size: 9212
x264 [info]: frame B:11319 Avg QP:27.50 size: 3962
x264 [info]: consecutive B-frames: 2.3% 3.1% 12.2% 43.9% 20.5% 10.9% 2.9% 2.3% 1.2% 0.7%
x264 [info]: mb I I16..4: 3.9% 47.9% 48.2%
x264 [info]: mb P I16..4: 1.4% 6.9% 5.1% P16..4: 36.5% 32.0% 13.0% 2.8% 0.4% skip: 2.1%
x264 [info]: mb B I16..4: 0.2% 1.3% 0.9% B16..8: 32.9% 22.0% 5.9% direct: 7.2% skip:29.6% L0:49.5% L1:37.6% BI:12.9%
x264 [info]: 8x8 transform intra:51.3% inter:52.1%
x264 [info]: direct mvs spatial:96.9% temporal:3.1%
x264 [info]: coded y,uvDC,uvAC intra: 77.3% 72.0% 39.9% inter: 30.4% 21.3% 4.8%
x264 [info]: i16 v,h,dc,p: 24% 17% 10% 50%
x264 [info]: i8 v,h,dc,ddl,ddr,vr,hd,vl,hu: 11% 9% 10% 9% 12% 11% 13% 11% 15%
x264 [info]: i4 v,h,dc,ddl,ddr,vr,hd,vl,hu: 15% 11% 11% 8% 12% 10% 11% 9% 13%
x264 [info]: i8c dc,h,v,p: 32% 31% 21% 16%
x264 [info]: Weighted P-Frames: Y:44.5% UV:27.7%
x264 [info]: ref P L0: 35.0% 11.0% 14.9% 8.5% 6.6% 5.8% 4.9% 3.3% 2.9% 2.8% 2.8% 1.4% 0.0%
x264 [info]: ref B L0: 63.4% 12.5% 7.1% 4.1% 3.4% 2.9% 2.6% 2.0% 1.4% 0.8%
x264 [info]: ref B L1: 94.0% 6.0%
x264 [info]: kb/s:1081.75

encoded 15236 frames, 23.08 fps, 1081.76 kb/s
GeneralComplete name : D:\Torrents\Новогодняя ночь.1948.DVDRip.x264.640x.rip by Frost O.S.mp4Format : MPEG-4Format profile : Base MediaCodec ID : isom (isom/avc1)File size : 88.8 MiBDuration : 10 min 9 sOverall bit rate : 1 222 kb/sMovie name : Новогодняя ночь 1948 DVDRip x264 640x rip by Frost O SGenre : AnimationContentType : Short FilmEncoded date : UTC 2017-03-30 13:19:54Tagged date : UTC 2017-03-30 13:19:56Writing application : MkvToMp4 version: 0.224 (x64)Cover : YesComment : rip by Frost O.S

VideoID : 1Format : AVCFormat/Info : Advanced Video CodecFormat profile : [email protected] settings, CABAC : YesFormat settings, ReFrames : 11 framesCodec ID : avc1Codec ID/Info : Advanced Video CodingDuration : 10 min 9 sBit rate : 1 080 kb/sMaximum bit rate : 2 185 kb/sWidth : 476 pixelsHeight : 360 pixelsDisplay aspect ratio : 4:3Frame rate mode : ConstantFrame rate : 25.000 FPSColor space : YUVChroma subsampling : 4:2:0Bit depth : 8 bitsScan type : ProgressiveBits/(Pixel*Frame) : 0.252Stream size : 78.6 MiB (89%)Writing library : x264 core 148 r2744 b97ae06Encoding settings : cabac=1 / ref=11 / deblock=1:-1:-1 / analyse=0x3:0x133 / me=umh / subme=11 / psy=1 / psy_rd=0.60:0.00 / mixed_ref=1 / me_range=48 / chroma_me=1 / trellis=2 / 8x8dct=1 / cqm=0 / deadzone=21,11 / fast_pskip=0 / chroma_qp_offset=-2 / threads=6 / lookahead_threads=1 / sliced_threads=0 / nr=0 / decimate=0 / interlaced=0 / bluray_compat=0 / constrained_intra=0 / bframes=9 / b_pyramid=2 / b_adapt=2 / b_bias=0 / direct=3 / weightb=1 / open_gop=0 / weightp=2 / keyint=250 / keyint_min=25 / scenecut=40 / intra_refresh=0 / rc=2pass / mbtree=0 / bitrate=1080 / ratetol=1.0 / qcomp=0.60 / qpmin=0 / qpmax=69 / qpstep=4 / cplxblur=20.0 / qblur=0.5 / ip_ratio=1.40 / pb_ratio=1.30 / aq=1:1.00Language : EnglishEncoded date : UTC 2017-03-30 13:19:54Tagged date : UTC 2017-03-30 13:19:54Color range : LimitedColor primaries : BT.601 PALTransfer characteristics : BT.470 System B, BT.470 System GMatrix coefficients : BT.601

AudioID : 2Format : AACFormat/Info : Advanced Audio CodecFormat profile : LCCodec ID : 40Duration : 10 min 9 sBit rate mode : ConstantBit rate : 128 kb/sChannel(s) : 1 channelChannel positions : Front: CSampling rate : 48.0 kHzFrame rate : 46.875 FPS (1024 spf)Compression mode : LossyStream size : 9.30 MiB (10%)Language : RussianDefault : YesAlternate group : 1Encoded date : UTC 2017-03-30 13:19:54Tagged date : UTC 2017-03-30 13:19:54


Трекер:  [ 30-Мар-2017 16:30 ]

  

Скачать .torrent

Размер .torrent файла 14 KB


Размер: 89 MB
Хэш (hash) релиза: 229323d04f9e5d3014eb8d24c31308bd53ccd196

Еще никто не оставлял запись к записи скачать торрент [MULT] Новогодняя ночь . Будь первым!

!Обратная связь