1ª Temporada | Animes Boku no hero academia 3x11 | DOWNLOAD

Скачать через торрент [MULT] Большой Ух бесплатно русская версия torrent активатор

Статистика раздачи
Размер:  59 MB   |    Зарегистрирован:  1 год 3 месяца   |    .torrent скачан:  17 раз   |   
Раздают:  1  
   
загрузка...
 
Автор Сообщение

Galfimbul

avatar Galfimbul


Большой Ух

Год выпуска: 1989
Страна: СССР
Жанр: мультфильм, короткометражка
Продолжительность: 00:09:56
Перевод: не требуется
Cубтитры: нет
Режиссер: Юрий Бутырин
Роли озвучивали: Александр Пожаров, Зоя Пыльнова, Александр Ильин
Описание: Чудик с большими ушами слушал музыку звезд и не замечал звуков живой жизни. А маленький волчонок спешил на помощь по первому зову…
Релиз группы
Качество: DVDRip / рип с DVD5 Крупный план
Формат: MP4
Видео кодек: H.264
Аудио кодек: AAC
Видео: 496x360 AR:1.378 700 kbps 25 fps
Аудио : 1ch 48 kHz 128 kbps
avs [info]: 496x360p 1:1 @ 25/1 fps (cfr)
x264 [info]: using SAR=1/1
x264 [info]: using cpu capabilities: MMX2 SSE2Fast SSSE3 SSE4.2 AVX FMA3 AVX2 LZCNT BMI2
x264 [info]: profile High, level 4.1

x264 [info]: frame I:95 Avg QP:16.73 size: 17463
x264 [info]: frame P:3460 Avg QP:20.27 size: 7126
x264 [info]: frame B:11355 Avg QP:23.34 size: 2276
x264 [info]: consecutive B-frames: 1.2% 2.5% 7.4% 46.8% 16.1% 16.8% 3.9% 2.8% 1.1% 0.8% 0.5%
x264 [info]: mb I I16..4: 3.4% 77.7% 19.0%
x264 [info]: mb P I16..4: 2.0% 14.6% 2.8% P16..4: 39.1% 33.2% 6.7% 0.4% 0.0% skip: 1.2%
x264 [info]: mb B I16..4: 0.2% 1.5% 0.4% B16..8: 31.2% 16.0% 2.0% direct: 7.4% skip:41.5% L0:45.0% L1:43.3% BI:11.7%
x264 [info]: 8x8 transform intra:75.1% inter:65.0%
x264 [info]: direct mvs spatial:96.3% temporal:3.7%
x264 [info]: coded y,uvDC,uvAC intra: 78.5% 89.3% 47.5% inter: 19.6% 29.8% 4.0%
x264 [info]: i16 v,h,dc,p: 16% 19% 13% 53%
x264 [info]: i8 v,h,dc,ddl,ddr,vr,hd,vl,hu: 10% 9% 7% 9% 11% 11% 12% 13% 17%
x264 [info]: i4 v,h,dc,ddl,ddr,vr,hd,vl,hu: 9% 11% 6% 8% 14% 11% 15% 9% 16%
x264 [info]: i8c dc,h,v,p: 20% 28% 15% 36%
x264 [info]: Weighted P-Frames: Y:24.4% UV:17.7%
x264 [info]: ref P L0: 44.1% 11.1% 16.7% 6.2% 5.2% 3.9% 3.6% 2.3% 2.2% 2.0% 2.1% 0.5% 0.0%
x264 [info]: ref B L0: 80.8% 8.6% 3.4% 2.1% 1.2% 1.2% 0.9% 0.8% 0.5% 0.4%
x264 [info]: ref B L1: 96.7% 3.3%
x264 [info]: kb/s:699.66

encoded 14910 frames, 27.53 fps, 699.67 kb/s
GeneralComplete name : D:\Torrents\Большой Ух.1989.DVDRip.x264.640x.rip by Frost O.S.mp4Format : MPEG-4Format profile : Base MediaCodec ID : isom (isom/avc1)File size : 59.5 MiBDuration : 9 min 56 sOverall bit rate : 836 kb/sMovie name : Большой Ух 1989 DVDRip x264 640x rip by Frost O SGenre : AnimationContentType : Short FilmEncoded date : UTC 2017-03-30 13:48:35Tagged date : UTC 2017-03-30 13:48:37Writing application : MkvToMp4 version: 0.224 (x64)Cover : YesComment : rip by Frost O.S

VideoID : 1Format : AVCFormat/Info : Advanced Video CodecFormat profile : [email protected] settings, CABAC : YesFormat settings, ReFrames : 11 framesCodec ID : avc1Codec ID/Info : Advanced Video CodingDuration : 9 min 56 sBit rate : 700 kb/sMaximum bit rate : 1 285 kb/sWidth : 496 pixelsHeight : 360 pixelsDisplay aspect ratio : 1.378Frame rate mode : ConstantFrame rate : 25.000 FPSColor space : YUVChroma subsampling : 4:2:0Bit depth : 8 bitsScan type : ProgressiveBits/(Pixel*Frame) : 0.157Stream size : 49.7 MiB (84%)Writing library : x264 core 148 r2744 b97ae06Encoding settings : cabac=1 / ref=11 / deblock=1:-1:-1 / analyse=0x3:0x133 / me=umh / subme=11 / psy=1 / psy_rd=0.60:0.00 / mixed_ref=1 / me_range=48 / chroma_me=1 / trellis=2 / 8x8dct=1 / cqm=0 / deadzone=21,11 / fast_pskip=0 / chroma_qp_offset=-2 / threads=6 / lookahead_threads=1 / sliced_threads=0 / nr=0 / decimate=0 / interlaced=0 / bluray_compat=0 / constrained_intra=0 / bframes=10 / b_pyramid=2 / b_adapt=2 / b_bias=0 / direct=3 / weightb=1 / open_gop=0 / weightp=2 / keyint=250 / keyint_min=25 / scenecut=40 / intra_refresh=0 / rc=2pass / mbtree=0 / bitrate=700 / ratetol=1.0 / qcomp=0.60 / qpmin=0 / qpmax=69 / qpstep=4 / cplxblur=20.0 / qblur=0.5 / ip_ratio=1.40 / pb_ratio=1.30 / aq=1:1.00Language : EnglishEncoded date : UTC 2017-03-30 13:48:35Tagged date : UTC 2017-03-30 13:48:36Color range : LimitedColor primaries : BT.601 PALTransfer characteristics : BT.470 System B, BT.470 System GMatrix coefficients : BT.601

AudioID : 2Format : AACFormat/Info : Advanced Audio CodecFormat profile : LCCodec ID : 40Duration : 9 min 56 sBit rate mode : ConstantBit rate : 128 kb/sChannel(s) : 1 channelChannel positions : Front: CSampling rate : 48.0 kHzFrame rate : 46.875 FPS (1024 spf)Compression mode : LossyStream size : 9.10 MiB (15%)Language : RussianDefault : YesAlternate group : 1Encoded date : UTC 2017-03-30 13:48:36Tagged date : UTC 2017-03-30 13:48:36


Трекер:  [ 30-Мар-2017 16:00 ]

  

Скачать .torrent

Размер .torrent файла 19 KB


Размер: 59 MB
Хэш (hash) релиза: ca4ef7b23b1b434868ce736da68bae3bc6c7ef65

Еще никто не оставлял запись к записи скачать торрент [MULT] Большой Ух . Будь первым!

!Обратная связь